#TITLE:CANDY;
#SUBTITLE:(UFO Mix);
#ARTIST:The Sweetest;
#TITLETRANSLIT:;
#SUBTITLETRANSLIT:;
#ARTISTTRANSLIT:;
#CREDIT:;
#BANNER:CANDY (UFO mix).png;
#BACKGROUND:CANDYUFOmix-bg.png;
#LYRICSPATH:;
#CDTITLE:;
#MUSIC:CANDY (UFO Mix).ogg;
#OFFSET:-0.036;
#SAMPLESTART:34.670;
#SAMPLELENGTH:12.000;
#SELECTABLE:YES;
#BPMS:0.000=180.000,264.000=90.000;
#STOPS:;
#BGCHANGES:;
// cache tags:
#FIRSTBEAT:8.000;
#LASTBEAT:285.000;
#SONGFILENAME:Songs/DDR 4 ITG/CANDY (UFO Mix)/CANDY (UFO Mix).sm;
#HASMUSIC:1;
#HASBANNER:1;
#MUSICLENGTH:104.019;
// end cache tags

//---------------dance-single - ----------------
#NOTES:
     dance-single:
     :
     Beginner:
     2:
     0.137,0.202,0.010,0.087,0.000,90.000,1.000,9.000,0.000,0.000:



0000
0000
0000
0000
,
0000
0000
0000
0000
,
1000
0000
0000
0000
,
0001
0000
0000
0000
,
0010
0000
0000
0000
,
0100
0000
0000
0000
,
0010
0000
0000
0000
,
0100
0000
0000
0000
,
1000
0000
1000
0000
,
0001
0000
0001
0000
,
1000
0000
0000
0000
,
0100
0000
0000
0000
,
0001
0000
0000
0000
,
0100
0000
0000
0000
,
1000
0000
0000
0000
,
0010
0000
0000
0000
,
0001
0000
0000
0000
,
0010
0000
0000
0000
,
1000
0000
1000
0000
,
0001
0000
0001
0000
,
0100
0000
0100
0000
,
0010
0000
0010
0000
,
1000
0000
1000
0000
,
0100
0000
0100
0000
,
0010
0000
0010
0000
,
0001
0000
0001
0000
,
1000
0000
0000
0000
,
0001
0000
0000
0000
,
0010
0000
0000
0000
,
0100
0000
0000
0000
,
2000
0000
0000
3000
,
1000
0000
1000
0000
,
0002
0000
0000
0003
,
0001
0000
0001
0000
,
0010
0000
0000
0000
,
0001
0000
0000
0000
,
0100
0000
0000
0000
,
1000
0000
0000
0000
,
0020
0000
0000
0030
,
0010
0000
0010
0000
,
0200
0000
0000
0300
,
0100
0000
0100
0000
,
0100
0000
0000
0000
,
0010
0000
0000
0000
,
0001
0000
0000
0000
,
1000
0000
0000
0000
,
0100
0000
0000
0000
,
0010
0000
0000
0000
,
0001
0000
0000
0000
,
1000
0000
0000
0000
,
0001
0000
0000
0000
,
0010
0000
0000
0000
,
0100
0000
0000
0000
,
1000
0000
0000
0000
,
0002
0000
0000
0003
,
0001
0000
0001
0000
,
0020
0000
0000
0030
,
0010
0000
0010
0000
,
0100
0000
0000
0000
,
1000
0000
0000
0000
,
0001
0000
0000
0000
,
0010
0000
0000
0000
,
0200
0000
0000
0300
,
0100
0000
0100
0000
,
2000
0000
0000
3000
,
1000
0000
1000
0000
,
0001
0000
0001
0000
,
1000
0000
1000
0000
,
0020
0000
0000
0030
,
0010
0000
0010
0000
,
1001
0000
0000
0000
;

//---------------dance-single - ----------------
#NOTES:
     dance-single:
     :
     Easy:
     4:
     0.225,0.236,0.029,0.173,0.000,143.000,3.000,18.000,0.000,0.000:



0000
0000
0000
0000
,
0000
0000
0000
0000
,
0001
0000
0100
0000
,
1000
0000
0100
0000
,
0001
0010
0001
0000
,
1000
0010
1000
0000
,
0200
0000
0300
0000
,
0020
0000
0030
0000
,
1001
0000
0000
0000
,
0110
0000
0000
0000
,
0010
0000
1000
0000
,
0100
0000
0100
0000
,
0010
0000
0001
0000
,
0100
0000
0100
0000
,
0010
0000
0010
0000
,
1000
0000
0001
0000
,
0010
0000
0010
0000
,
0001
0000
1000
0000
,
0001
1000
0100
0000
,
1000
0001
0100
0000
,
0010
0100
0001
0000
,
0010
0100
1000
0000
,
0010
0000
1000
0000
,
0100
0000
0001
0000
,
0010
0000
0001
0000
,
0100
0000
1000
0000
,
1000
0001
1000
0000
,
0001
1000
0001
0000
,
0010
0100
0010
0000
,
0100
0010
0100
0000
,
2000
0000
3000
0000
,
0002
0000
0003
0000
,
1000
0000
0100
0000
,
0010
0000
0001
0000
,
1000
0001
1000
0000
,
0001
1000
0001
0000
,
0010
0100
0010
0000
,
0100
0010
0100
0000
,
2000
0000
3000
0000
,
0002
0000
0003
0000
,
1000
0000
0010
0000
,
0100
0000
0001
0000
,
2000
0000
3000
0000
,
0002
0000
0003
0000
,
0020
0000
0030
0000
,
0200
0000
0300
0000
,
0020
0000
0031
0000
,
0002
0000
0103
0000
,
0200
0000
0310
0000
,
0020
0000
1030
0000
,
0100
0010
0001
0000
,
0100
0010
1000
0000
,
0100
0010
0100
0000
,
1000
0001
1000
0000
,
0002
0000
0003
0000
,
2000
0000
3000
0000
,
0010
0000
1000
0000
,
0100
0000
0001
0000
,
0100
0010
1000
0000
,
0100
0010
0001
0000
,
1000
0001
1000
0000
,
0010
0100
0010
0000
,
2000
0000
3000
0000
,
0002
0000
0003
0000
,
0010
0000
0001
0000
,
0100
0000
1000
0000
,
0010
0000
0010
0000
,
0100
0000
0100
0000
,
0001
0000
1000
0000
,
0001
0000
1000
0000
,
1001
0000
0000
0000
;

//---------------dance-single - ----------------
#NOTES:
     dance-single:
     :
     Medium:
     7:
     0.464,0.542,0.577,0.087,0.019,269.000,60.000,9.000,0.000,0.000:



0000
0000
0000
0000
,
0000
0000
0000
0000
,
1000
0001
1000
0000
0100
0000
0100
0000
,
1000
0010
1000
0000
0001
0000
0001
0000
,
0010
0000
0100
0000
0010
0001
0000
1000
,
0000
1000
0000
1000
0001
0000
0100
0000
,
0000
0001
0010
0001
0010
0000
0100
0020
,
0000
0000
0000
0030
,
0001
0000
0000
0011
0000
0000
0000
0000
,
1000
0000
0000
1010
0000
0000
0000
0000
,
0200
0000
0000
0000
0300
0000
0001
1000
,
0001
0000
0000
1000
0000
0000
0100
0000
,
0020
0000
0000
0000
0030
0000
0001
1000
,
0001
0000
0000
0100
0000
0000
0010
0000
,
2000
0000
3000
0001
,
0010
0000
0001
1000
0000
0101
0000
1100
,
0000
0000
0001
0000
0000
0010
0000
0000
,
0100
0000
0000
1000
0000
0000
1001
0000
,
1001
0001
0100
0010
,
1000
0000
0100
0000
1000
0010
0100
0001
,
0100
0001
1000
0100
,
0010
0000
0100
0000
1000
0001
0100
0010
,
0100
0001
1000
0100
,
0010
0000
0001
0000
0100
0001
0010
0100
,
1000
0000
0001
1000
0000
0110
0000
2002
,
0000
0000
0000
3003
,
1100
0000
1100
0000
1100
0000
0000
0101
,
0000
0001
1000
0000
1001
0000
0000
0000
,
0101
0000
0101
0000
0101
0000
0000
1100
,
0000
1000
0001
0000
1001
0000
0100
0000
,
0010
0000
0000
1000
0001
0000
0000
0000
,
0100
0001
1000
0010
,
1000
0000
0100
0000
1000
0000
0001
0010
,
0000
0001
1000
0000
0001
0000
0100
0000
,
1010
0000
1010
0000
1010
0000
0000
0011
,
0000
0001
1000
0000
1001
0000
0000
0000
,
0011
0000
0011
0000
0011
0000
0000
1010
,
0000
1000
0001
0000
1001
0000
0010
0000
,
0100
0000
0000
1000
0001
0000
0000
0000
,
0010
0001
1000
0100
,
1000
0000
0010
0000
1000
0000
0001
0100
,
0000
0001
1000
0000
0001
0000
0010
0000
,
0200
0000
0300
1000
,
0001
0000
1000
0100
0000
0000
1000
0000
,
0001
0000
1000
0100
0000
0000
0010
0001
,
0000
1000
0000
1001
0000
0000
0000
0000
,
0001
0101
1000
1100
,
0001
0011
1000
1010
,
0101
0000
0000
0011
0000
0000
1100
0000
,
0000
1010
0000
0000
0110
0000
1001
0000
,
0011
0000
0011
0000
0011
0000
0000
1010
,
0000
1000
0001
0000
1001
0000
0000
0000
,
1010
0000
1010
0000
1010
0000
0000
0011
,
0000
0001
1000
0000
1001
0000
0010
0000
,
0100
0000
0000
0001
1000
0000
0000
0000
,
0010
1000
0001
0100
,
0001
0000
0010
0000
0001
0000
1000
0100
,
0000
1000
0001
0000
1000
0000
0010
0000
,
0101
0000
0101
0000
0101
0000
0000
1100
,
0000
1000
0001
0000
1001
0000
0000
0000
,
1100
0000
1100
0000
1100
0000
0000
0101
,
0000
0001
1000
0000
1001
0000
0100
0000
,
0010
0000
0000
0001
1000
0000
0000
0000
,
0100
1000
0001
0010
,
0001
0000
0100
0000
0001
0000
1000
0010
,
0000
1000
0001
0000
1000
0000
0100
0000
,
0010
0001
0100
0000
0010
1000
0100
0000
,
0010
0000
0001
0000
0100
0000
0001
1000
0000
0001
1000
0000
0010
0000
1000
0000
,
0100
0000
0010
0000
0000
0001
1000
0001
,
0010
0000
0001
0000
1000
0000
0100
0010
0000
0100
0010
0000
0001
0000
1000
0000
,
2002
0000
3003
0000
;

//---------------dance-single - ----------------
#NOTES:
     dance-single:
     :
     Hard:
     9:
     0.705,0.881,0.490,0.510,0.048,409.000,51.000,53.000,0.000,0.000:


0000
0000
0000
0000
,
0000
0000
0000
0000
,
0100
1000
0010
0100
0000
0001
0010
0100
,
1000
0001
1000
0100
1000
0010
0100
0001
,
0011
0000
1100
0000
1010
1000
0000
0100
,
0000
0010
0000
0001
0101
0000
1001
0000
,
0010
1000
1000
0100
0010
0010
0001
0100
,
0100
0010
1000
1000
0001
0010
0100
1000
,
0020
0000
0230
0020
0300
0130
0010
1000
,
0002
0000
2003
0002
3000
1003
0001
0010
,
0110
0000
1000
0001
0000
1000
0100
1000
,
0010
0000
0100
0001
0000
1000
0100
0000
,
1001
0000
0010
0001
0000
0100
0001
1000
,
0100
0000
0010
0100
0000
1000
0010
0100
,
0102
0000
0000
0000
0000
0000
0013
0100
,
1000
0000
0001
1000
0000
0101
0000
1100
,
0000
0000
0001
0000
0000
1000
0000
0000
,
0001
0000
0000
1000
0000
0000
0110
0000
,
1001
0001
0010
0100
0001
0100
1000
0010
,
0100
1000
0100
0010
1000
0001
0010
0000
,
1100
0100
0001
0100
1000
0001
0010
0001
,
0100
0010
1000
0001
0010
1000
0010
0000
,
0101
0001
1000
0010
0100
0001
0100
0010
,
0001
0010
1000
0100
0010
0100
1000
0000
,
1001
0001
1000
0100
0000
0011
0000
1100
,
0000
0001
0001
1000
1000
0001
0100
0000
,
2010
0000
3200
0000
0302
0000
0103
0201
,
0300
0100
1000
0000
1010
0000
0000
0000
,
0012
0000
0203
0000
2300
0000
3100
1200
,
0300
0100
0001
0000
0011
0000
1001
0000
,
0200
0000
0000
0001
0302
0000
0000
0000
,
0100
0103
0001
0000
0100
0000
0010
0000
,
0001
1000
0001
1000
0100
0000
0010
0001
,
0000
1000
0010
0100
0001
0010
0100
0000
,
0012
0000
0203
0000
2300
0000
3100
1200
,
0300
0100
0001
0000
0011
0000
0000
0000
,
2010
0000
3200
0000
0302
0000
0103
0201
,
0300
0100
1000
0000
1010
0000
1001
0000
,
0201
0000
0000
1000
2300
0000
0000
0000
,
0100
3100
1000
0000
0100
0000
0010
0000
,
1000
0001
1000
0001
0100
0000
0010
1000
,
0000
0001
0010
0100
1000
0010
0100
0000
,
0001
0100
1000
0100
0000
0001
0010
1000
,
0010
0100
1000
0100
0000
0001
0100
1000
,
0010
0001
0010
1000
0000
0001
0100
1000
,
0100
0001
0010
0100
0000
1000
0001
0000
,
1000
0100
0110
0000
0001
0100
0110
0000
,
1000
0001
1100
0000
0001
1000
0101
0000
,
1001
1000
0100
0110
0010
0001
0101
0100
,
0010
1010
1000
0001
1001
0000
1001
0000
,
0210
0000
2300
0000
3020
0000
0031
0012
,
0000
0013
1000
0100
0001
0000
0100
1000
,
1020
0000
0230
0000
2300
0000
3100
1200
,
0000
1300
0100
0001
0010
0000
0100
1000
,
0001
0000
1000
0001
0100
0000
0010
1000
,
0100
0000
0010
0001
0100
0000
0001
0010
,
0100
1000
0010
0100
0001
0010
0100
1000
,
0010
0100
0001
0010
0100
1000
0001
0000
,
0210
0000
0302
0000
0023
0000
1030
2010
,
0000
3010
0001
0100
1000
0000
0100
0001
,
0021
0000
0230
0000
0302
0000
0103
0201
,
0000
0301
0100
1000
0010
0000
0100
0001
,
1000
0000
0001
1000
0100
0000
0010
0001
,
0100
0000
0010
1000
0100
0000
1000
0010
,
0100
0001
0010
0100
1000
0010
0100
0001
,
0010
0100
1000
0010
0100
0001
1000
0100
,
2000
0000
3200
0000
0302
0000
0103
0001
0000
0100
1000
0001
0100
0000
0000
0000
,
0002
0000
0203
0000
2300
0000
3100
1000
0000
0100
0001
1000
0100
0000
0010
0000
,
0002
0000
0000
1000
2003
0000
0000
0000
0000
0000
3010
0000
0100
0000
0001
0000
,
0010
0000
0100
0000
1000
0000
0001
1000
0000
0001
0100
0010
0100
0000
0001
0000
,
2002
0000
3003
0000
;

//---------------dance-single - retard_gamer----------------
#NOTES:
     dance-single:
     retard_gamer:
     Challenge:
     11:
     0.779,1.000,0.279,0.442,0.423,477.000,29.000,46.000,163.000,0.000:

0000
0000
0000
0000
,
0000
0000
0000
0000
,
0000
0000
0000
0000
,
0000
0000
0000
0000
,
1000
0000
0000
0000
M001
0000
0000
000M
1000
0000
0001
M000
0000
0000
100M
0000
,
0000
0000
M001
0000
0000
000M
1000
0000
0001
M000
000M
0000
1001
0000
0000
0000
,
0001
0100
0001
1000
0010
1000
0001
0010
0100
1000
0001
0100
0001
0010
0100
1000
,
0010
0100
0010
1000
0001
1000
0001
0010
0001
1000
0001
1000
0010
0100
0010
0000
,
1004
0000
0000
0000
M000
0000
0400
0003
0000
000M
0000
0000
0040
0000
0300
0000
,
4M00
0000
0000
0000
0000
0000
0000
0000
0030
0000
0000
0000
0000
0000
0000
0000
00M0
0000
0000
0000
0000
0000
0000
0000
0400
0000
0000
0000
0000
0000
0000
0000
3000
0000
0000
0000
M000
0000
0000
0000
0000
0000
0000
0000
0000
0000
0000
0000
0040
0000
0000
0000
0000
0000
0000
0000
0300
0000
0000
0000
0000
0000
0000
0030
,
2MM2
0000
0MM0
0MM0
3MM3
0000
M0M1
01M0
,
MMM1
0000
0010
0001
0000
0100
0010
0100
,
1001
0000
100M
M010
00M0
M010
1000
0100
,
0001
0000
0100
0010
0000
0001
0100
0010
,
1000
0000
M100
1000
0000
0010
0001
0010
,
0100
0M00
0100
0001
0000
1000
0100
1000
,
0010
0000
M1M0
0001
0M00
0010
0100
1000
,
1100
0010
0001
0101
0010
1000
1010
0000
,
11MM
1000
0001
0100
0001
1000
0010
1000
,
0001
1000
0100
0010
0001
1000
0010
0100
,
0010
0001
0010
0100
0010
1000
0001
0010
,
0100
0010
1000
0010
0100
0001
0100
0010
,
0100
1000
0001
0100
0010
0001
0010
0100
,
0010
1000
0001
1000
0001
1000
0010
1000
,
0100
0000
0010
0001
1000
0010
0100
0001
,
0M10
0001
0M10
0001
0M10
0001
0M10
0001
1M00
0010
1M00
0010
1M00
0010
1M00
0010
,
0200
M0MM
0302
MMM0
0203
M0MM
0310
1000
,
0000
0100
0010
0000
0110
0000
1010
0000
,
0020
MM0M
0230
M0MM
0320
MM0M
0031
0010
,
0000
0100
0010
0000
1010
0000
0110
0000
,
0012
0000
0000
0100
0203
000M
0010
0000
,
1300
0000
0020
MM0M
2030
0MMM
3002
MMM0
,
0203
M0MM
0302
MMM0
0023
MM0M
0230
10MM
,
0000
1300
0010
0100
0001
0000
0101
0000
,
1010
0100
0001
0010
0011
0010
0100
1100
,
0000
MM01
MM01
0000
1010
0000
1100
0010
,
0001
0000
0100
0001
0010
0100
1000
0010
,
0000
0001
0010
0000
0110
0000
0101
0000
,
2010
0000
0001
0010
3010
0000
0100
0001
,
1000
0001
0020
MM0M
0230
M0MM
2300
0MMM
,
3020
MM0M
0230
M0MM
2300
0MMM
3200
M0M1
,
0000
0301
1000
0001
0100
0000
1010
0000
,
1000
0100
0001
0100
1000
0100
0001
0100
,
1000
0010
0001
0010
1000
0010
0001
0010
,
1000
0010
0100
0010
0001
0010
0100
0010
,
1000
0010
0100
0001
1000
0001
0010
0100
,
0010
1000
0010
0100
0010
0001
0010
0100
,
1000
0100
1000
0100
0010
0001
0010
0001
,
0100
1000
0100
1000
0001
0010
0001
0010
,
0100
0010
0100
0010
1000
0001
1000
0001
,
4000
0000
0MMM
0000
0004
3000
MMM0
0000
4000
0003
0MMM
0000
0010
3000
0100
0000
,
0001
0010
0100
1000
0001
0100
0001
0100
,
0040
0000
MM0M
0000
0400
0030
M0MM
0000
0040
0300
MM0M
0000
1000
0030
0001
0000
,
M100
0001
1000
0000
1100
0000
0011
0000
,
0100
1000
0010
0001
0010
1000
0100
0001
,
0100
0010
0100
1000
0010
0100
0010
0001
,
0040
0000
MM0M
0000
4000
0030
0MMM
0000
0400
3000
M0MM
0000
0010
0300
0001
0000
,
0000
0001
100M
0001
0010
0000
0011
1000
,
1010
0100
0001
0100
1010
0100
0001
0011
,
0000
10MM
10MM
0000
0001
1000
0001
0100
,
0010
1000
0100
0010
0001
0010
1000
0010
,
0000
0001
0100
0010
0001
0010
0100
0010
,
1000
0000
0001
0000
1000
0000
0100
1000
0100
0000
0010
0001
0100
0000
0010
1000
,
0100
1000
0001
0001
0100
0100
0010
1000
,
0001
0010
0100
1000
0001
0010
0100
1000
0001
0100
0001
0100
0010
1000
0010
1000
,
0010
0100
0001
1000
0010
0100
0001
0010
0100
0010
0001
0100
0010
1000
0100
0010
,
MM02
0000
0203
0000
0320
0000
1030
0002
0000
0013
0200
0000
20MM
0000
33MM
0010
,
0012
0000
0203
0000
2300
0000
3002
2003
0000
3100
0002
0000
0023
0000
0230
0000
,
2300
0000
0000
0010
0M02
00M0
0000
00M0
3003
M00M
2000
0000
3020
0000
0230
0000
,
0301
0010
0001
0000
1000
0100
1000
0000
0010
0100
0010
0000
1000
0001
1000
0000
0001
0010
0001
0010
0100
1000
0100
1000
0001
0100
0001
0100
0010
1000
0010
2000
,
0002
0MM0
0000
0000
0MM0
0000
0MM0
0000
,
3MM3
M00M
0000
0000
;
