#TITLE:You Rock My World;
#SUBTITLE:;
#ARTIST:Xtance Feat Jo;
#TITLETRANSLIT:;
#SUBTITLETRANSLIT:;
#ARTISTTRANSLIT:;
#CREDIT:;
#BANNER:../Banner.png;
#BACKGROUND:../BG.png;
#LYRICSPATH:;
#CDTITLE:../CDTitleBRAEDEN.png;
#MUSIC:Xtance Feat. Jo - You Rock my world (Imprezive meets Pink Planet Remix)GOOD SOURCE.ogg;
#OFFSET:-0.233;
#SAMPLESTART:25.920;
#SAMPLELENGTH:20.000;
#SELECTABLE:YES;
#BPMS:0.000=144.000;
#STOPS:;
#BGCHANGES:;
// cache tags:
#FIRSTBEAT:2.000;
#LASTBEAT:554.000;
#SONGFILENAME:Songs/Index Tesseract/You Rock My World - [Braeden]/You Rock My World.sm;
#HASMUSIC:1;
#HASBANNER:1;
#MUSICLENGTH:234.335;
// end cache tags

//---------------dance-single - ----------------
#NOTES:
     dance-single:
     :
     Challenge:
     11:
     0.830,1.000,0.260,0.239,0.847,1243.000,61.000,56.000,42.000,0.000:

0000
0000
0000
0000
2002
0000
0000
3003
,
0000
0000
0000
0000
1000
0000
0100
0000
0010
0000
0000
0010
0000
0000
0010
0000
,
0000
0000
0000
0000
0001
0000
1000
0000
0010
0000
0000
0010
0000
0000
0010
0000
,
0000
0000
1000
0000
0100
0000
0010
0000
0100
0000
0000
0100
0000
0000
0100
0000
,
0000
0000
0000
0000
1000
0000
0001
0000
0100
0000
0000
0010
0000
0000
2000
0000
,
0000
0000
0000
0000
3010
0000
0100
0000
0010
0000
0000
0010
0000
0000
0010
0000
,
0000
0000
0000
0000
1000
0000
0001
0000
0100
0000
0000
0010
0000
0000
2000
0000
,
0000
0100
0000
0000
3100
0000
0010
0000
0001
0000
0000
0100
0000
0000
0010
0000
,
0000
0000
0000
0000
1000
0000
0001
0000
0100
0000
0000
0010
0000
0000
2000
0000
,
0000
0000
0000
0000
3100
0000
0010
0000
0001
0000
0000
0100
0000
0000
0020
0000
,
0000
0000
0000
0000
0130
0000
1000
0000
0001
0000
0000
0100
0000
0000
0020
0000
,
0000
0000
0030
0000
0100
0000
0010
0000
0001
0000
0000
0100
0000
0000
0010
0000
,
0000
0000
0000
0000
1000
0000
0001
0000
0100
0000
0000
0010
0000
0000
1000
0000
,
0000
0000
0000
0000
0001
0000
0100
0000
0010
0000
0000
1000
0000
0000
0200
0000
,
0000
0000
0000
0000
0310
0000
0001
0000
0100
0000
0000
0010
0000
0000
1000
0000
,
0000
0000
0010
0000
0100
0000
0001
0000
1000
0000
0000
0010
0000
0000
0100
0000
,
0000
0000
1001
0000
,
0001
0000
0010
0000
0100
0000
1000
0000
0001
0000
0100
0000
0010
0000
1000
0000
0100
0000
0010
0000
0100
0000
1000
0000
0010
0000
0000
0000
0000
0000
0100
0000
0000
0001
0000
0000
0100
0000
0000
0000
0000
0000
0010
0000
0000
1000
0000
0000
,
0100
1000
0001
0010
0100
0000
1000
0001
1000
0000
0010
1000
0010
0000
0100
0001
,
0100
0010
1000
0001
0010
0100
1000
0001
0100
0010
0100
0001
0010
0001
1000
0100
,
0010
0100
1000
0001
0010
0100
1000
0001
0100
0010
0100
0001
0010
0100
1000
0001
,
0100
0010
1000
0100
0010
0001
0010
0001
0100
0010
1000
0100
1000
0100
0010
0001
,
0010
0100
1000
0001
1000
0010
0100
0001
0100
0010
1000
0001
0100
0001
0010
0100
,
1000
0001
0010
0100
1000
0010
0100
0001
1000
0010
0100
0001
1000
0100
0010
0100
,
1000
0001
0010
0100
1000
0001
0100
0010
1000
0100
0010
0100
1000
0001
0010
0100
,
0010
0000
0010
0000
1001
0000
1000
0001
0100
0000
0010
1000
0001
0000
1000
0100
,
0010
0100
1000
0001
0100
0010
1000
0100
0010
0001
0100
0010
1000
0001
0010
0100
,
1000
0001
0100
0010
0100
0001
1000
0100
0010
0100
1000
0001
0100
0010
1000
0001
,
0010
0100
1000
0001
0100
0010
0100
0001
0010
0001
1000
0100
0010
0001
0010
0100
,
0010
0001
0100
0010
0100
0001
1000
0100
0010
0100
1000
0001
0010
0100
1000
0001
,
0100
0010
1000
0001
0010
0100
1000
0001
0100
0010
0100
0001
1000
0100
0010
0100
,
1000
0001
0100
0010
0100
0001
0010
0100
1000
0001
0100
0010
0100
0001
1000
0100
,
0010
0100
1000
0001
0010
0000
0100
1000
0001
0000
0100
0010
1000
0100
0010
0001
,
1000
0100
0010
0001
1000
0100
1000
0001
0010
0100
1000
0001
0100
0000
0000
0000
0000
0000
0000
0000
0000
0000
0000
0000
,
0000
0000
0000
0000
0000
0000
0000
0000
0001
0000
1000
0010
0200
0000
0301
0000
,
0020
0130
2000
3100
0020
0130
1000
0001
,
1001
0000
0000
0000
0101
0000
0000
0000
0010
0000
1000
0100
0010
0000
0001
0000
,
0200
0310
2000
3100
0020
0031
0200
0310
,
1000
0000
0000
0000
0001
0000
0010
0000
0100
0000
1000
0001
0010
0000
0100
0000
,
1000
1000
0010
0010
0100
0100
0001
0001
,
1000
0000
0000
0000
2002
0000
3003
0000
0001
0000
0010
0100
1000
0000
0001
0000
,
0200
0310
2000
3100
0020
0031
0010
0100
,
1000
0000
0000
0000
0000
0000
0000
0000
0000
0000
0000
0000
0000
0000
0000
0000
0000
0000
0000
0000
0000
0000
0000
0000
0001
0000
0000
0000
0000
0000
0000
0000
0000
0000
0000
0000
0000
0000
0000
0000
0000
0000
0000
0000
0000
0000
0000
0000
1001
0000
0000
0000
0000
0000
0000
0000
0000
0000
0000
0000
0000
0000
0000
0000
0000
0000
0000
0000
0000
0000
0000
0000
0000
0000
0000
0000
0000
0000
0000
0000
0000
0000
0000
0000
0000
0000
0000
0000
0000
0000
0000
0000
0000
0000
0000
0000
0010
FF0F
0000
0000
0000
0000
0000
0000
0000
0000
0000
0000
0000
0000
0000
0000
0000
0000
0000
0000
0000
0000
0000
0000
0000
0000
0000
0000
0000
0000
0000
0000
0000
0000
0000
0000
0000
0000
0000
0000
0000
0000
0000
0000
0000
0000
0000
0000
1000
0FFF
0000
0000
0000
0000
0000
0000
0000
0000
0000
0000
0000
0000
0000
0000
0000
0000
0000
0000
0000
0000
0000
0000
0000
0000
0000
0000
0000
0000
0000
0000
0000
0000
0000
0000
0000
0000
0000
0000
0000
0000
0000
0000
0000
0000
0000
0000
,
0001
FFF0
0000
0000
0000
0000
0000
0000
0000
0000
0000
0000
0000
0000
0000
0000
0000
0000
0000
0000
0000
0000
0000
0000
0000
0000
0000
0000
0000
0000
0000
0000
0000
0000
0000
0000
0000
0000
0000
0000
0000
0000
0000
0000
0000
0000
0000
0000
0100
F0FF
0000
0000
0000
0000
0000
0000
0000
0000
0000
0000
0000
0000
0000
0000
0000
0000
0000
0000
0000
0000
0000
0000
0000
0000
0000
0000
0000
0000
0000
0000
0000
0000
0000
0000
0000
0000
0000
0000
0000
0000
0000
0000
0000
0000
0000
0000
0010
FF0F
0000
0000
0000
0000
0000
0000
0000
0000
0000
0000
0000
0000
0000
0000
0000
0000
0000
0000
0000
0000
0000
0000
0000
0000
0000
0000
0000
0000
0000
0000
0000
0000
0000
0000
0000
0000
0000
0000
0000
0000
0000
0000
0000
0000
0000
0000
1000
0FFF
0000
0000
0000
0000
0000
0000
0000
0000
0000
0000
0000
0000
0000
0000
0000
0000
0000
0000
0000
0000
0000
0000
0000
0000
0000
0000
0000
0000
0000
0000
0000
0000
0000
0000
0000
0000
0000
0000
0000
0000
0000
0000
0000
0000
0000
0000
,
0010
FF0F
0000
0000
0000
0000
0000
0000
0000
0000
0000
0000
0000
0000
0000
0000
0000
0000
0000
0000
0000
0000
0000
0000
0000
0000
0000
0000
0000
0000
0000
0000
0000
0000
0000
0000
0000
0000
0000
0000
0000
0000
0000
0000
0000
0000
0000
0000
0100
F0FF
0000
0000
0000
0000
0000
0000
0000
0000
0000
0000
0000
0000
0000
0000
0000
0000
0000
0000
0000
0000
0000
0000
0000
0000
0000
0000
0000
0000
0000
0000
0000
0000
0000
0000
0000
0000
0000
0000
0000
0000
0000
0000
0000
0000
0000
0000
0001
FFF0
0000
0000
0000
0000
0000
0000
0000
0000
0000
0000
0000
0000
0000
0000
0000
0000
0000
0000
0000
0000
0000
0000
0000
0000
0000
0000
0000
0000
0000
0000
0000
0000
0000
0000
0000
0000
0000
0000
0000
0000
0000
0000
0000
0000
0000
0000
1000
0FFF
0000
0000
0000
0000
0000
0000
0000
0000
0000
0000
0000
0000
0000
0000
0000
0000
0000
0000
0000
0000
0000
0000
0000
0000
0000
0000
0000
0000
0000
0000
0000
0000
0000
0000
0000
0000
0000
0000
0000
0000
0000
0000
0000
0000
0000
0000
,
0100
F0FF
0000
0000
0000
0000
0000
0000
0000
0000
0000
0000
0000
0000
0000
0000
0000
0000
0000
0000
0000
0000
0000
0000
0000
0000
0000
0000
0000
0000
0000
0000
0000
0000
0000
0000
0000
0000
0000
0000
0000
0000
0000
0000
0000
0000
0000
0000
1000
0FFF
0000
0000
0000
0000
0000
0000
0000
0000
0000
0000
0000
0000
0000
0000
0000
0000
0000
0000
0000
0000
0000
0000
0000
0000
0000
0000
0000
0000
0000
0000
0000
0000
0000
0000
0000
0000
0000
0000
0000
0000
0000
0000
0000
0000
0000
0000
0010
FF0F
0000
0000
0000
0000
0000
0000
0000
0000
0000
0000
0000
0000
0000
0000
0000
0000
0000
0000
0000
0000
0000
0000
0000
0000
0000
0000
0000
0000
0000
0000
0000
0000
0000
0000
0000
0000
0000
0000
0000
0000
0000
0000
0000
0000
0000
0000
0100
F0FF
0000
0000
0000
0000
0000
0000
0000
0000
0000
0000
0000
0000
0000
0000
0000
0000
0000
0000
0000
0000
0000
0000
0000
0000
0000
0000
0000
0000
0000
0000
0000
0000
0000
0000
0000
0000
0000
0000
0000
0000
0000
0000
0000
0000
0000
0000
,
0100
0000
0000
0000
0000
0000
0000
0000
0000
0000
0000
0000
0000
0000
0000
0000
0000
0000
0000
0000
0000
0000
0000
0000
0000
0000
0000
0000
0000
0000
0000
0000
0000
0000
0000
0000
0000
0000
0000
0000
0000
0000
0000
0000
0000
0000
0000
0000
0000
M000
0000
0000
0000
0000
0000
0000
0000
0000
0000
0000
0000
0000
0000
0000
0000
0000
0000
0000
0000
0000
0000
0000
0000
0M00
0000
0000
0000
0000
0000
0000
0000
0000
0000
0000
0000
0000
0000
0000
0000
0000
0000
0000
0000
0000
0000
0000
0000
0000
M000
0000
0000
0000
0000
0000
0000
0000
0000
0000
0000
0000
0000
0000
0000
0000
0000
0000
0000
0000
0000
0000
0000
0000
0000
0000
0000
0000
0000
0000
0000
0000
0000
0000
0000
0000
0000
0000
0000
0000
0000
0000
0000
0000
0000
0000
0001
FFF0
0000
0000
0000
0000
0000
0000
0000
0000
0000
0000
0000
0000
0000
0000
0000
0000
0000
0000
0000
0000
0000
0000
0000
0000
0000
0000
0000
0000
0000
0000
0000
0000
0000
0000
0000
0000
0000
0000
0000
0000
0000
0000
0000
0000
0000
0000
,
0100
F0FF
0000
0000
0000
0000
0000
0000
0000
0000
0000
0000
0000
0000
0000
0000
0000
0000
0000
0000
0000
0000
0000
0000
0000
0000
0000
0000
0000
0000
0000
0000
0000
0000
0000
0000
0000
0000
0000
0000
0000
0000
0000
0000
0000
0000
0000
0000
0010
FF0F
0000
0000
0000
0000
0000
0000
0000
0000
0000
0000
0000
0000
0000
0000
0000
0000
0000
0000
0000
0000
0000
0000
0000
0000
0000
0000
0000
0000
0000
0000
0000
0000
0000
0000
0000
0000
0000
0000
0000
0000
0000
0000
0000
0000
0000
0000
0100
F0FF
0000
0000
0000
0000
0000
0000
0000
0000
0000
0000
0000
0000
0000
0000
0000
0000
0000
0000
0000
0000
0000
0000
0000
0000
0000
0000
0000
0000
0000
0000
0000
0000
0000
0000
0000
0000
0000
0000
0000
0000
0000
0000
0000
0000
0000
0000
0010
FF0F
0000
0000
0000
0000
0000
0000
0000
0000
0000
0000
0000
0000
0000
0000
0000
0000
0000
0000
0000
0000
0000
0000
0000
0000
0000
0000
0000
0000
0000
0000
0000
0000
0000
0000
0000
0000
0000
0000
0000
0000
0000
0000
0000
0000
0000
0000
,
1000
0FFF
0000
0000
0000
0000
0000
0000
0000
0000
0000
0000
0000
0000
0000
0000
0000
0000
0000
0000
0000
0000
0000
0000
0000
0000
0000
0000
0000
0000
0000
0000
0000
0000
0000
0000
0000
0000
0000
0000
0000
0000
0000
0000
0000
0000
0000
0000
0001
FFF0
0000
0000
0000
0000
0000
0000
0000
0000
0000
0000
0000
0000
0000
0000
0000
0000
0000
0000
0000
0000
0000
0000
0000
0000
0000
0000
0000
0000
0000
0000
0000
0000
0000
0000
0000
0000
0000
0000
0000
0000
0000
0000
0000
0000
0000
0000
0010
0000
0000
0000
0000
0000
0000
0000
0000
0000
0000
0000
0000
0000
0000
0000
0000
0000
0000
0000
0000
0000
0000
0000
0010
0000
0000
0000
0000
0000
0000
0000
0000
0000
0000
0000
0100
0000
0000
0000
0000
0000
0000
0000
0000
0000
0000
0000
0010
0000
0000
0000
0000
0000
0000
0000
0000
0000
0000
0000
0000
0000
0000
0000
0000
0000
0000
0000
0000
0000
0000
0000
0001
0000
0000
0000
0000
0000
0000
0000
0000
0000
0000
0000
0000
0000
0000
0000
0000
0000
0000
0000
0000
0000
0000
0000
,
1000
0000
0010
0000
0100
0000
0001
0000
1000
0100
0010
0001
0010
0100
1000
0001
,
0100
0000
0010
0000
1000
0000
0001
0000
0010
0000
0100
0000
1000
0000
0001
0000
0100
0000
0010
0000
1000
0000
0001
0000
1000
0000
0000
0000
0000
0000
0100
0000
0000
0010
0000
0000
0001
0000
0000
0000
0000
0000
1000
0000
0000
0000
0000
0000
,
0200
0310
0200
1300
0002
0103
0020
1030
,
0200
0000
0300
0000
0110
0000
0000
0000
1001
0000
0010
0100
0001
0000
1000
0000
,
0200
0310
0002
0103
0020
1030
0200
0310
,
0001
0000
0000
0000
1001
0000
0010
0000
1001
0000
0100
0010
1000
0000
0001
0000
,
0020
0130
2000
3001
0200
0310
2000
3100
,
0010
0000
0000
0000
1001
0000
0000
0000
1000
0000
0100
0010
0100
0000
1000
0000
,
0001
0100
0101
0010
1000
0010
0110
0001
,
1000
0000
0000
0000
0010
0000
0010
0000
1001
0000
0100
0010
1000
0000
0010
0000
,
0100
0001
1010
0100
0001
1000
0101
1000
,
0010
0000
0000
0000
1001
0000
0000
0000
1000
0000
0001
0100
0010
0000
1000
0000
,
0001
0100
1010
0100
0001
1000
0110
0001
,
1000
0000
0000
0000
0001
0000
1000
0000
1001
0000
0100
0010
1000
0000
0010
0000
,
1010
1000
1001
0001
0101
0100
0110
0010
,
1010
0000
0000
0000
1001
0000
0000
0000
1000
0000
0010
0100
0010
0000
1000
0000
,
0100
0000
0100
0000
0010
0000
0010
0000
0100
1000
0001
0010
0100
0010
0001
1000
,
0010
0100
0001
0100
0010
0000
1000
0001
0100
0000
0000
0000
0001
1000
0100
0010
,
0100
1000
0001
0010
0100
1000
0001
0100
0010
0100
0001
1000
0100
0010
0100
1000
,
0001
0100
0010
0100
0001
0010
0100
1000
0001
0100
0010
0100
0001
0010
0100
1000
,
0001
0100
0010
0100
0001
1000
0100
0010
0001
0010
0100
1000
0001
0100
0010
0100
,
0001
1000
0100
0010
0100
1000
0001
0000
1MM1
0000
0000
0000
MM11
0000
0000
0000
,
1M1M
1M1M
M1M1
M11M
,
1MM1
0000
M11M
0000
0010
0010
0010
0010
,
0100
0000
0100
0000
0100
0000
0100
0000
1000
0001
0100
0010
1000
0100
0010
0100
,
1000
0000
0001
0000
0010
0000
0100
0000
1000
0000
0001
0000
0100
0000
0010
0000
1000
0000
0001
0000
0010
0000
0100
0000
0010
0000
0000
0001
0000
0000
1000
0000
0000
0010
0000
0000
0100
0000
0000
0001
0000
0000
1000
0000
0000
0100
0000
0000
,
0010
0100
1000
0001
0010
0100
1000
0001
0100
0010
0100
0001
1000
0100
0010
0100
,
1000
0001
0010
0100
1000
0001
0100
0010
0100
0001
1000
0100
1000
0001
0010
0100
,
1000
0001
0100
0010
1000
0100
0010
0001
0010
0100
1000
0100
0010
0001
1000
0010
,
0100
0001
1000
0100
0010
0100
1000
0001
1000
0010
0100
0001
1000
0100
0010
0100
,
1000
0010
0100
0001
1000
0100
0010
0100
1000
0001
0100
0010
0100
0001
0010
0100
,
1000
0001
0100
0010
0100
0001
0010
0100
1000
0001
0100
0010
0100
0001
1000
0100
,
0010
0100
1000
0001
0010
0100
1000
0001
0100
0010
0100
0001
1000
0100
0010
0100
,
1000
0001
0100
0010
1000
0000
0000
0000
0001
0010
0100
1000
0001
0100
0010
1000
,
0100
0010
0100
1000
0001
0010
0100
1000
0001
0100
0010
0100
0001
1000
0100
0010
,
0100
1000
0001
0010
0100
1000
0001
0100
0010
0100
0001
1000
0100
0010
0100
1000
,
0001
0010
0100
1000
0001
0100
0010
0100
0001
1000
0100
0010
0100
1000
0001
0010
,
0100
1000
0001
0100
0010
1000
0100
0010
0100
0000
0000
0000
0010
0000
0000
0000
,
0100
0000
1000
0010
0100
0000
0001
0000
,
1000
0000
0100
0000
0010
0010
0100
0100
,
0010
0000
0010
0000
0100
0000
0100
0000
1000
0001
1000
0001
1000
0010
1000
0010
,
0100
0001
0100
0010
1000
0000
0100
0010
0100
0000
0000
0100
0000
0000
0100
0000
,
0000
0000
0000
0000
1000
0000
0001
0000
0100
0000
0000
0010
0000
0000
1000
0000
,
0000
0000
0001
0000
0100
0000
0010
0000
1000
0000
0000
0001
0000
0000
0020
0000
,
0000
0000
0000
0000
0031
0000
0100
0000
0010
0000
0000
1000
0000
0000
0100
0000
,
0000
0000
0000
0000
1000
0000
0001
0000
0200
0000
0000
0320
0000
0000
1030
0000
,
0000
0000
0000
0000
0010
0000
0100
0000
0002
0000
0000
0203
0000
0000
0310
0000
,
0000
0000
0000
0000
1000
0000
0001
0000
0100
0000
0000
0010
0000
0000
1000
0000
,
0000
0000
0000
0000
0010
0000
0100
0000
0001
0000
0000
1000
0000
0000
0010
0000
,
0000
0000
0100
0000
0020
0000
0000
0230
,
0000
0000
0320
0000
2030
0000
0000
3100
,
0000
0000
0100
1000
0020
0000
0000
0230
,
0000
0000
0302
0000
2003
0000
0000
3010
,
0000
0000
0200
0000
0302
0000
0000
1000
,
0003
0000
0100
0000
0020
0000
0000
1030
,
0000
0000
0002
0000
0200
0003
0000
0302
,
0000
0000
1003
0000
0020
0000
0000
0130
,
0000
0000
1001
0000
,
0000
0000
0000
0000
1000
0100
0010
0001
,
0200
0000
0000
0000
0310
0000
0000
0000
1000
0000
0001
0100
0010
0000
1000
0000
,
0100
0010
0100
1000
0001
0100
0010
1000
,
0001
0000
0000
0000
0010
0000
0100
0000
1001
0000
0010
0100
0001
0000
0010
0000
,
0011
0100
1100
1000
1001
0001
0110
1000
,
1001
0000
1001
0000
0010
0010
0100
0100
,
1000
0000
1000
0000
0001
0000
0001
0000
1000
0100
0010
0100
1000
0001
0100
0001
,
0010
0000
0001
0000
0010
0000
0001
0000
0010
0000
0100
0000
1000
0000
0001
0000
0100
0000
0010
0000
1000
0000
0001
0000
0100
0000
0000
0000
0000
0000
0010
0000
0000
1000
0000
0000
010M
0000
0000
0000
0000
0000
0010
0000
0000
0000
0000
0000
,
M100
0001
10M0
0001
1M00
0010
010M
0010
,
M100
0000
0000
0000
0M11
0000
0000
0000
10M0
0000
0100
1000
001M
0000
0100
0000
,
M001
1000
00M1
1000
0M10
1000
010M
0010
,
M001
0000
0000
0000
1M01
0000
1000
0000
00M1
0000
1000
0001
0M10
0000
0001
0000
,
M010
0001
10M0
0010
1M00
0100
001M
0100
,
M010
0000
0000
0000
1M01
0000
0000
0000
0010
0000
0001
1000
0100
0000
0010
0000
,
1000
0010
1010
0100
0001
0100
1010
1000
,
1001
0000
0000
0000
0001
0000
1000
0000
0001
0000
0010
0100
1000
0010
1000
0010
,
0100
0001
0100
0001
1000
0100
1000
0100
0010
0001
1000
0100
0010
0100
1000
0001
,
0100
0000
0000
0000
1010
0000
0000
0000
1001
0000
0010
0100
0001
0010
0001
0010
,
0100
1000
0100
1000
0001
0100
0001
0100
0010
1000
0001
0010
0100
1000
0001
0100
,
0010
0000
0000
0000
1001
0000
0010
0000
1000
0000
0100
0010
0100
1000
0001
0010
,
0001
0100
0010
1000
0001
0010
0100
0010
0001
0100
0010
1000
0010
0100
0001
1000
,
0100
0000
0000
0000
1001
0000
0000
0000
1010
0000
0100
0001
0100
0010
0100
0001
,
1000
0100
1000
0010
0100
0001
0100
0010
0100
0000
0010
0000
0110
0000
0010
0000
,
0002
0000
0000
0000
0003
0000
0000
0000
1001
0000
1000
0100
0010
0000
0001
0000
,
4000
0010
0000
0001
,
3000
0000
0000
0000
1001
0000
0000
0000
0011
0000
0001
0100
0004
0000
0000
0000
,
0000
1000
0000
0100
,
0003
0000
0000
0000
1001
0000
0010
0000
0110
0000
1000
0001
0100
0000
0010
0000
,
1000
0100
0010
0100
1000
0001
0010
0000
,
0000
0000
0110
0000
1000
1000
0100
0100
,
0010
0000
0010
0000
0001
0000
0001
0000
0001
0100
0010
1000
0100
0010
0001
0010
,
0100
1000
0100
0010
0001
0000
1000
0001
0100
0000
0000
0000
0000
0000
0000
0000
;
