#TITLE:Deththeme;
#SUBTITLE:;
#ARTIST:Dethklok;
#TITLETRANSLIT:;
#SUBTITLETRANSLIT:;
#ARTISTTRANSLIT:;
#CREDIT:Darkmage;
#BANNER:deththeme-bn.png;
#BACKGROUND:deththeme-bg.png;
#LYRICSPATH:;
#CDTITLE:!darkmagetitle2.png;
#MUSIC:Deththeme.ogg;
#OFFSET:2.292;
#SAMPLESTART:0.250;
#SAMPLELENGTH:15.900;
#SELECTABLE:YES;
#BPMS:0.000=184.800;
#STOPS:;
#BGCHANGES:0.000=deththeme-bg.png=1.000=0=0=1,
99999=-nosongbg-=1.000=0=0=0 // don't automatically add -songbackground-
;
// cache tags:
#FIRSTBEAT:8.000;
#LASTBEAT:106.000;
#SONGFILENAME:Songs/Archmage and Dark0wl Hammer of Thor UltraHyperMegaPack/Deththeme/Deththeme.sm;
#HASMUSIC:1;
#HASBANNER:1;
#MUSICLENGTH:105.000;
// end cache tags

//---------------dance-single - Darkmage----------------
#NOTES:
     dance-single:
     Darkmage:
     Challenge:
     14:
     0.478,0.517,0.438,0.048,0.633,298.000,46.000,5.000,0.000,6.000:
0000
0000
0000
0000
,
0000
0000
0000
0000
,
1001
0000
0100
0010
1000
0000
1100
0000
0011
0000
0101
0000
0020
0000
0000
0000
,
1031
0000
0010
0100
0001
0000
0011
0000
1100
0000
1010
0000
0200
0000
0000
0000
,
1301
0000
0100
0010
1000
0000
1100
0000
0011
0000
0101
0000
0020
0000
0000
0000
,
1031
0000
0010
0100
0001
0000
0011
0000
1100
0000
1010
0000
0200
0000
0000
0000
,
1301
0000
0100
0010
1000
0000
1100
0000
0011
0000
0101
0000
0020
0000
0000
0000
,
1031
0101
1001
1100
,
1001
0011
1001
1100
,
1000
0100
1000
0100
1000
0100
1000
0100
1000
0100
1000
0100
1000
0100
1000
0100
,
0010
0001
0010
0001
0010
0001
0010
0001
0010
0001
0010
0001
0010
0001
0010
0001
,
0010
0100
0010
0100
0010
0100
0010
0100
0010
0100
0010
0100
0010
0100
0010
0100
,
1000
0001
1000
0001
1000
0001
1000
0001
1000
0001
1000
0001
1000
0001
1000
0001
,
1001
1010
1001
0011
,
1000
0100
1000
0010
0100
0001
0010
0001
0100
0010
1000
0100
1000
0100
0010
0001
,
1000
0100
0010
0001
1000
0010
0100
0001
0010
0100
1000
0100
0010
0001
1000
0010
0100
0001
0010
0100
1000
0100
0010
0001
,
1000
0100
1000
0010
0100
0001
0010
0001
0100
0010
1000
0100
1000
0010
0100
0001
,
1000
0100
1000
0100
1000
0100
1000
0100
0010
0001
0010
0100
1000
0010
1000
0010
1000
0010
0100
0001
0010
0100
1000
0001
,
0100
0010
1000
0001
0010
0001
0100
0010
1000
0100
0010
0001
1000
0010
0100
0001
,
1000
0100
1000
0100
1000
0100
0010
0001
0010
0001
0010
0001
1000
0010
1000
0010
1000
0010
0100
0001
0100
0001
0100
0001
,
1000
0100
0010
0001
1000
0010
0100
0010
1000
0001
0010
0100
0010
0001
1000
0100
,
1000
0010
1000
0001
1000
0100
1000
0001
1000
0010
1000
0001
1000
0100
1000
0010
,
0100
0001
0010
0100
1000
0010
0100
0001
0010
0100
1000
0010
0100
0001
0010
0100
,
1001
1010
1001
1010
,
1001
0011
1001
0011
,
1001
1010
0101
0011
,
1001
0000
1111
0000
;
