#TITLE:Fury Of The Storm;
#SUBTITLE:;
#ARTIST:DragonForce;
#TITLETRANSLIT:;
#SUBTITLETRANSLIT:;
#ARTISTTRANSLIT:;
#CREDIT:;
#BANNER:furyofthestormbanner.png;
#BACKGROUND:furyofthestormBG.png;
#LYRICSPATH:;
#CDTITLE:cdtitle.jpg;
#MUSIC:Fury of the Storm.mp3;
#OFFSET:-0.291;
#SAMPLESTART:108.500;
#SAMPLELENGTH:19.000;
#SELECTABLE:YES;
#BPMS:0.000=200.000;
#STOPS:;
#BGCHANGES:;
// cache tags:
#FIRSTBEAT:0.000;
#LASTBEAT:1343.750;
#SONGFILENAME:Songs/toune/Fury Of The Storm/Fury.sm;
#HASMUSIC:1;
#HASBANNER:1;
#MUSICLENGTH:405.853;
// end cache tags

//---------------dance-single - DanTheMan----------------
#NOTES:
     dance-single:
     DanTheMan:
     Challenge:
     13:
     1.000,1.000,1.000,0.525,1.000,3882.000,603.000,213.000,0.000,0.000:
1010
0000
0001
0010
0100
1000
0110
0110
,
1001
0000
0010
0100
1000
0100
0010
0000
,
2002
0000
0000
0000
0000
0000
0000
0000
0000
0000
0000
0000
0000
0000
0000
3003
,
1000
0100
0010
0100
1000
0100
1000
0100
0010
0001
0010
0001
1000
0000
0000
0000
,
1001
0000
1000
0100
0010
0100
0001
0000
,
2200
0000
0000
0000
0000
0000
0000
0000
0000
0000
0000
0000
0000
0000
0000
3300
,
0110
1010
0101
1010
,
0101
0000
0000
0000
0000
0000
1001
0000
0000
0000
0000
0000
1010
0000
0000
1000
0100
0010
1001
0000
0000
0000
0000
0000
,
1010
0100
1001
0010
0110
0100
0101
0010
,
1010
0100
0011
0100
1100
0100
1010
0100
,
0101
0010
1100
1000
0110
0010
1010
0100
,
1001
0010
1010
0100
1001
0010
0101
0010
,
1100
0010
0011
0010
1100
0100
1010
0100
,
0110
0010
1100
0010
1100
0010
1001
0100
,
1010
1000
0101
0010
1100
0001
1010
0100
,
1001
0000
1010
0000
0101
0000
1010
0000
0101
0000
0110
0000
2020
0000
0000
3030
,
0100
0010
0100
0010
0001
0010
0100
1000
0100
0010
0100
0010
0001
0000
0200
0300
,
0001
0100
0010
1000
0001
0010
0100
1000
0010
0100
0001
0010
0100
0000
0200
0300
,
0001
0010
0100
1000
0100
0010
0001
0010
0100
0010
0100
0010
0100
0000
0200
0300
,
1000
1000
1000
1000
0010
0010
0010
0010
1000
1000
1000
1000
0022
0000
0000
0033
,
0010
0100
1000
0100
0010
0100
0010
0001
0010
0100
1000
0100
0010
0000
0020
0030
,
0010
1000
0100
0010
0100
0010
0001
0010
0001
0010
0100
1000
0100
0000
0200
0300
,
1000
0000
0100
0000
1000
0000
0100
0000
0000
0000
0000
0000
0001
0000
0010
0000
0100
0000
1000
0000
0000
0000
0000
0000
1000
0000
0000
0100
0000
0000
0001
0000
0010
0000
0100
0000
0010
0000
0000
0000
0000
0000
0100
0000
0000
0100
0000
0000
,
2000
0000
0000
0000
0000
0000
0000
0000
0000
0000
0000
0000
0000
0000
0000
0000
0002
0000
0000
0000
0000
0000
0000
0000
0000
0000
0000
0000
0000
0000
0000
3003
,
0220
0000
0000
0000
0000
0000
0000
0000
0000
0000
0000
0000
0000
0000
0000
0330
,
1000
1000
0100
0100
0010
0010
0001
0001
0010
0010
0100
0100
1000
1000
0010
0010
,
0100
0100
0010
0010
1000
1000
0010
0010
0100
0100
0010
0010
1000
1000
0100
0100
,
0010
0010
0001
0001
0100
0100
1000
1000
0100
0100
1000
1000
0010
0010
0100
0100
,
0010
0010
1000
1000
0100
0100
0010
0010
0001
0001
0010
0010
0100
0100
1000
1000
,
0100
0100
0010
0010
0001
0001
0100
0100
0001
0001
0010
0010
0100
0100
1000
1000
,
0100
0100
0010
0010
0001
0001
0100
0100
0001
0001
0010
0010
0100
0100
1000
1000
,
0100
0100
0010
0010
0100
0100
0001
0001
0010
0010
0001
0001
1000
1000
0100
0100
,
1000
0100
1000
0100
1000
0100
1000
0100
0001
0010
0100
1000
0100
0010
0001
0010
,
0100
0010
0100
0010
0100
0010
0100
0010
0100
0001
0010
0001
0010
0001
0010
0001
,
1000
0100
1000
0100
1000
0100
1000
0100
0010
0100
0010
0100
0010
0100
0010
0100
,
0010
1000
0001
1000
0001
1000
0001
1000
0001
1000
0010
1000
0010
1000
0010
0000
,
1010
0100
0000
0110
0001
0000
0110
0110
,
1000
1000
0110
0000
0001
0000
0110
0000
0010
0010
1100
0000
0010
0000
0101
0000
,
0010
0010
1100
0000
0100
0000
0101
0000
0010
0010
0101
0000
0010
0000
1010
0000
,
1000
0100
0010
0100
1000
0100
1000
0100
1000
0010
0100
0010
1000
0100
0010
0001
,
1000
0100
0010
0001
0010
0100
1000
0100
0010
0001
0010
0100
1000
0100
0010
0001
0010
0100
1000
0100
0010
0001
0010
0100
,
1000
0100
0010
0001
1000
0100
0010
0001
1000
0100
0010
0001
1000
0100
0010
0001
,
2020
0000
0000
3030
0202
0000
0000
0303
0000
0000
0000
0000
0000
0000
0000
0000
,
0010
0100
1000
0100
1000
0001
0010
0100
1000
0010
0100
0001
0010
0100
1000
0100
,
1010
0100
0010
0001
0100
0010
1000
0100
0010
0001
0100
0010
1000
0100
0010
0001
,
1010
0100
0001
0010
0100
1000
0100
1000
0010
0100
0010
0001
0010
0100
1000
0100
,
0020
0000
0000
0000
0000
0000
0000
0000
0000
2030
0000
0000
0000
0000
0000
0000
0000
0000
0002
0000
0000
3000
0000
0000
0000
0000
0000
0000
0000
0000
0010
0000
0000
0000
0000
0000
0103
0000
0010
0000
0001
0000
0100
0000
0000
0010
0000
0000
,
0001
1000
0100
0010
0100
0010
0001
0100
0010
1000
0100
0010
0001
0100
1000
0100
,
0010
0100
1000
0100
0010
0001
0010
0100
0010
0001
0010
0001
0010
0100
1000
0010
,
0100
0001
0100
0010
1000
0100
0010
0001
0010
0100
0010
0100
0010
0001
0010
0100
,
0010
0001
0010
0001
0010
0001
0010
0001
0010
0100
1000
0100
1000
0100
0010
0001
,
1000
0100
0011
0000
0001
0010
1100
0000
0100
0010
1100
0000
1000
0010
0101
0000
,
0100
0010
1100
0000
0001
0100
0011
0000
1000
0100
0011
0000
0010
1000
0101
0000
,
1000
0010
0100
0000
0001
0010
0100
0000
1000
0100
1000
0000
0001
0010
0001
0000
,
0010
0100
0001
0000
0010
1000
0100
0000
1000
0010
1000
0010
0100
0100
0001
0001
,
1000
1000
0101
0000
0010
0010
1001
0000
0100
0100
0011
0000
1000
1000
0101
0000
,
1000
1000
0101
0000
0001
0001
1010
0000
0100
0100
1001
0000
1000
1000
0011
0000
,
1000
0100
0010
0000
0001
0010
0100
0000
0100
0010
1000
0000
0100
0010
0001
0000
,
1100
0010
0100
1000
0010
0001
0110
1000
0100
0010
0101
0010
0100
0100
0100
0000
,
1000
0100
0010
0100
0010
0001
0010
0100
1000
0100
0010
0001
0010
0100
0010
0100
,
0010
1000
0100
1000
0001
0100
0001
0100
0010
1000
0010
1000
0100
0001
0010
0100
,
1000
0100
0010
0001
0010
0100
0010
0100
1000
0100
0010
0001
0010
0100
0010
0100
,
0010
0000
0000
1000
0000
0000
1000
0100
0010
0001
0000
0000
0001
0000
0000
0001
0100
0010
0001
0000
0000
1000
0000
0000
,
0100
0010
0001
0010
1000
0100
0010
0001
0100
0001
0100
0010
1000
0100
0010
0001
,
0010
1000
0100
0010
0100
0010
0001
1000
0001
1000
0100
0010
0001
0100
0001
0100
,
0010
1000
0100
0010
1000
0010
0100
0001
0010
0100
1000
0100
0010
0001
0010
0100
,
1000
0000
0000
0000
0000
0000
0100
0000
0010
0000
0001
0000
0010
0000
0000
0000
0000
0000
1001
0000
0000
0000
0000
0000
1000
0000
0000
1000
0000
0000
0100
0000
0000
0100
0000
0000
0010
0000
0000
0010
0000
0000
0001
0000
0000
0001
0000
0000
,
1000
0000
0000
0100
0000
0000
0010
0000
0000
1010
0000
0000
0100
0000
0000
0001
0000
0000
0110
0000
0000
1000
0100
1000
,
0110
0000
0000
1000
0000
0000
0010
0000
0000
0101
0000
0000
0010
0000
0000
1000
0000
0000
1010
0000
0000
0010
0100
0010
,
1100
0000
0000
0010
0000
0000
0001
0000
0000
1010
0000
0000
0100
0000
0000
0001
0000
0000
0101
0000
0000
0100
0001
0010
,
1000
0100
1000
0100
1000
0100
0011
0100
0010
0100
0010
0100
1010
0000
0000
0000
,
1100
0010
0010
1100
0010
0001
1100
0011
,
1010
0100
0100
0011
1000
1000
0011
1010
,
0101
0100
0100
1010
0100
0100
0101
1010
,
1010
0100
0001
0100
0001
0100
1010
0100
0001
0010
0100
0010
0001
0100
0001
0010
,
1100
0000
0010
0000
0101
0000
0010
0000
1010
0000
0100
0000
0100
0010
0100
0000
,
1010
0000
0010
0000
0101
0000
0010
0000
1010
0000
0100
0000
0001
0010
0001
0000
,
1100
0000
0010
0000
0101
0000
0010
0000
1010
0000
0100
0000
0100
0010
0100
0000
,
1000
0100
1000
0000
0101
0000
1010
0000
0001
0010
0001
0000
1000
0010
0100
0000
,
1100
0000
0001
0000
0010
0100
0010
0000
1010
0000
0100
0000
0010
0001
0010
0000
,
0110
0000
0100
0000
0001
0010
0001
0000
0110
0000
0100
0000
0001
0100
1000
0000
,
0110
0000
0101
0000
0100
0010
0100
0000
1100
0000
0101
0000
0010
1000
0100
0000
,
1000
0000
0100
0000
1000
0000
0100
0000
0000
0010
0000
0000
0001
0000
0000
0010
0000
0000
1000
0000
0010
0000
0100
0000
0010
0000
0000
0100
0000
0000
1000
0000
0000
0010
0000
0000
0001
0000
0100
0000
1000
0000
0010
0000
0000
0100
0000
0000
,
1000
0000
1010
0000
1000
0100
1000
0100
0010
0000
0011
0000
0010
0100
0010
0100
,
1000
0000
1010
0000
0100
0010
0100
1000
0001
0000
1010
0000
0100
0010
0001
0010
,
1000
0000
0101
0000
0010
1000
0100
0010
0001
0000
1001
0000
0010
0100
1000
0100
,
0010
0000
0101
0000
0010
1000
0100
0010
0100
0000
0101
0000
0010
0100
0010
0000
,
1000
0100
0010
0100
0010
0001
0010
0100
1000
0100
0010
0100
0010
0001
0010
0100
,
0010
0100
0010
1000
0010
0100
0010
1000
0100
0010
0001
0010
0100
1000
0100
0010
,
0100
0010
0100
0010
0100
0010
0100
0010
0100
0010
0100
0010
0100
0010
0100
0010
,
0100
0000
0000
0000
,
1000
0100
1000
0100
1000
0100
1000
0100
1000
0100
1000
0100
1000
0100
1000
0100
,
0010
0001
0010
0001
0010
0001
0010
0001
0010
0001
0010
0001
0010
0001
0010
0001
,
0010
0100
0010
0100
0010
0100
0010
0100
0010
0100
0010
0100
0010
0100
0010
0100
,
0010
1000
0010
1000
0010
1000
0010
1000
0010
1000
0010
1000
0010
1000
0010
1000
,
0010
0100
1000
0100
0010
0001
1000
0100
0010
0100
0010
0001
1000
0100
0010
0100
,
0010
1000
0100
0010
0001
0010
0100
0010
1000
0100
0010
0100
0010
0100
1000
0100
,
0010
0100
1000
0100
0010
0100
0010
1000
0100
0010
0001
0010
0100
0010
0001
0010
,
1000
0000
1010
0000
1000
0100
0010
0001
0010
0100
1000
0001
0010
0100
1000
0010
,
1000
0000
0110
0000
1000
0010
1100
0000
0001
0000
0110
0000
1000
0010
0101
0000
,
0010
0000
1100
0000
0100
0010
0001
0000
0010
0000
0101
0000
0010
1000
0100
0000
,
0100
0000
0110
0000
0001
0100
1010
0000
1000
0000
0101
0000
0010
1000
0100
0000
,
0011
0000
0110
0000
0100
0100
0001
0010
0100
1000
0100
0010
0001
0010
0100
1000
,
0110
0000
0000
0000
,
0101
0000
0000
0000
,
1000
0100
1000
0100
0010
0001
0010
0100
0010
0100
1000
0100
0010
0001
0010
0100
,
1000
0100
0010
0100
0010
0001
0010
0100
1000
0000
0110
0000
1000
0100
1000
0100
,
1000
0100
0010
0001
0010
0100
0010
0100
1000
0100
1000
0100
0010
0001
0010
0001
,
0010
0100
1000
0100
1000
0100
0010
0100
0010
0000
1010
0000
1000
0010
0100
0010
,
1000
0100
0010
0100
0010
0001
0010
0100
1000
0100
0010
0001
0010
0100
1000
0100
,
0010
0100
1000
0100
0010
0001
0010
0100
0010
0001
1000
0001
1000
0010
0100
0010
,
1000
0010
0100
0001
0010
0100
1000
0100
0010
0100
0010
0001
0100
0001
0010
0100
,
0110
0000
0000
0110
0000
0100
1000
0100
0000
1010
0000
0000
0101
0000
0000
0100
0010
0100
1001
0000
0000
0110
0000
0000
,
2020
0000
3030
0202
0000
0000
0303
2020
0000
3030
0101
0000
1000
0100
0010
0001
,
1000
0000
0000
0100
0000
0000
0010
0000
0000
0100
0000
0000
1000
0000
0100
0000
1000
0000
0020
0000
0000
0000
0000
0000
0000
0000
0000
0030
0000
0000
1001
0000
0000
0000
0000
0000
0100
0000
0000
0010
0000
0000
0100
0000
0000
1000
0000
0000
,
0010
0000
0000
0100
0000
0000
0001
0000
0000
0010
0000
0000
1000
0000
0100
0000
1000
0000
0020
0000
0000
0000
0000
0000
0000
0000
0000
0030
0000
0000
1001
0000
0000
0000
0000
0000
0010
0000
0000
0000
0000
0000
1100
0000
0000
0000
0000
0000
,
0010
0010
0010
0010
0010
0010
0200
0000
0000
0000
0310
0000
1000
0100
0010
0001
,
1000
0000
0100
0010
0000
0021
0000
0000
0000
0030
0110
0000
0101
0000
1010
0000
,
1000
1000
1000
1000
0100
0100
0010
0010
0010
0010
0100
0100
0001
0001
1000
1000
,
0100
0000
0101
0000
0110
0000
0100
0010
0001
0010
0100
0000
1000
0100
0010
0001
,
2010
0000
0000
0000
0010
0000
0000
0000
0000
0000
0000
0000
0000
0000
0000
3000
,
0001
0010
0100
1000
0010
1000
0001
0010
0100
1000
0010
0100
0001
0010
0100
1000
,
0100
1000
0100
0010
0001
0100
0010
1000
0010
0100
0001
0010
0100
0010
1000
0001
,
0010
0100
1000
0010
0100
0010
0100
0001
0010
0100
1000
0010
1000
0010
0100
0001
,
2000
0000
0000
3020
0000
0000
0200
0030
0000
0300
0011
0000
1000
0100
1000
0100
,
0010
0100
0010
0100
0010
0100
0010
0100
0010
0100
0010
0100
0010
0100
0010
0100
,
0010
0001
0010
0001
0010
0001
0010
0001
0010
0001
0010
0001
0010
0001
0010
0001
,
1000
0100
0001
0100
0001
0100
0001
0100
0001
0100
0001
0100
0001
0100
0001
0100
,
0001
0010
0100
1000
0100
0000
0101
0000
0100
0010
0100
1000
0100
0010
0001
0000
,
2001
0000
0001
0000
0001
3000
1020
0000
1000
0000
1000
0030
0201
0000
0001
0300
,
2001
0000
0001
0000
0001
3000
0102
0000
0100
0000
0100
0003
0201
0000
0001
0300
,
2010
0000
0010
0000
0001
3000
0102
0000
0010
0000
0100
0003
0201
0000
0001
0300
,
0001
0100
0001
0100
0001
0100
0001
0100
0010
1000
0010
1000
0010
1000
0010
1000
,
2000
0000
0100
3000
0020
0000
2030
0000
0010
3000
0002
0000
2003
0000
3020
0000
,
0230
0000
0001
0300
0002
0000
0023
0000
1000
0000
0230
0000
0302
0000
2003
0000
,
3200
0000
0001
0000
0320
0000
2030
0000
0010
0000
3200
0000
0320
0000
0032
0003
,
1100
0000
0011
0000
0110
0000
1100
0000
1000
0100
1000
0100
0010
0100
0010
0001
,
0010
0000
1100
0000
1000
1000
0100
0000
0010
0000
0110
0000
0010
0010
1100
0000
,
0010
0000
1010
0000
0100
0100
0001
0000
0010
0000
1100
0000
0010
0010
0100
0000
,
1000
0000
0110
0000
0001
0001
0010
0000
1000
0000
0110
0000
1000
1000
0010
0000
,
0100
0000
0011
0000
0100
0100
1000
0000
1000
0000
0110
0000
0001
0001
0010
0000
,
1100
0000
0011
0000
0100
0100
0010
0000
1100
0000
0110
0000
0001
0001
1000
0000
,
0101
0000
1010
0000
0100
0100
0001
0000
0101
0000
0110
0000
0100
0100
1000
0000
,
0101
0000
1010
0000
0100
0100
0001
0000
0110
0000
1001
0000
0100
0100
0001
0000
,
1000
0010
1000
0010
1000
0010
1000
0010
1000
0100
1000
0100
0010
0001
0010
0100
,
1000
0100
0010
0100
0010
0100
0010
0001
0100
0010
1000
0100
0010
0001
1000
0010
,
0100
1000
0010
1000
0010
0100
0001
0100
0001
0010
0100
1000
0010
0100
0001
0010
,
0001
1000
0100
0010
0100
0010
1000
0100
0010
0001
0100
0010
1000
0001
0010
0100
,
1000
0010
0100
0001
0100
0001
1000
0010
1000
0010
0100
0001
1000
0001
0010
0001
,
0010
0100
1000
0100
0010
0100
0010
0001
0010
0001
0010
0100
1000
0001
1000
0001
,
0010
0100
1000
0100
0010
0001
1000
0010
1000
0010
0100
0001
0100
0001
0010
1000
,
0010
0100
0010
0100
0010
0100
0010
0001
0010
0100
1000
0100
0010
0001
0010
0100
,
1001
0000
0000
0000
,
0010
0100
1000
0100
0010
0001
0100
0010
1000
0100
0010
0100
1000
0010
0100
0001
,
0010
0100
1000
0001
1000
0001
0010
0001
0010
0001
0100
0010
1000
0100
0010
0001
,
0010
0001
0100
0010
1000
0100
0010
0100
1000
0010
0100
0001
0010
0001
0010
0100
,
0010
1000
0001
0100
0010
1000
0100
1000
0100
1000
0010
0100
0001
0010
0100
0010
,
0001
0010
0100
1000
0100
0010
0001
0010
0100
1000
0100
0010
0001
0010
0100
1000
,
0100
0010
0100
0010
0100
0010
0100
0010
0100
0010
0100
0010
0100
0010
0100
0010
,
0100
0010
0001
0010
0001
0010
0001
0010
0001
0010
0001
0010
0001
0010
0001
0010
,
0001
0010
0100
1000
0100
0010
0001
0010
0100
1000
0100
0010
0001
0010
0100
1000
,
0100
0000
0101
0000
1000
0100
0010
0000
1010
0000
0101
0000
0010
0100
1000
0000
,
0101
0000
0110
0000
0010
0100
0001
0000
1010
0000
0110
0000
0001
1000
0100
0000
,
0110
0000
0011
0000
1000
0100
0010
0000
0110
0000
1001
0000
0100
0010
0001
0000
,
1100
0000
0101
0000
0010
1000
0100
0000
0101
0000
0010
0100
1000
0100
0010
0001
,
0110
0000
0000
0000
,
0110
0000
0000
0000
,
0100
0010
0001
0010
0100
0010
0100
1000
0100
0010
0100
0010
0001
1000
0001
1000
,
0110
1000
0100
0010
0001
0010
0100
1000
,
1001
0010
0101
0010
1010
0110
0101
1100
,
1010
0100
0001
0010
0100
1000
0100
0010
,
1010
0000
0100
0000
0101
0000
0100
0000
1010
0000
0101
0000
2020
0000
0000
3030
,
1010
0010
0100
1000
0100
0010
0001
0010
,
1010
0100
0101
0010
1010
0101
0110
1001
,
0011
0000
0010
0000
0100
0000
1000
0000
0100
0000
0010
0000
1000
0100
0010
0001
,
0010
0100
1000
0100
1000
0100
0010
0001
0010
0100
1000
0100
1001
0000
0000
0000
,
1100
1100
0011
0011
0110
0110
1010
1010
,
0101
0101
1010
1010
0110
0110
0101
0101
,
0110
0000
0101
0000
0202
0000
0000
0303
2020
0000
0000
3030
0202
0000
0000
0303
,
0100
0010
0100
0010
0200
0000
0000
0300
0001
0010
0100
1000
0200
0000
0000
0300
,
1100
0000
1100
0000
0022
0000
0000
0033
2200
0000
0000
3300
0220
0000
0000
0330
,
2200
0000
0000
3300
0022
0033
2200
0000
0000
3300
0202
0000
0000
0000
0000
0303
,
1100
1100
0010
1001
1001
0100
0010
0100
,
0101
0101
1000
0110
0110
0001
1010
0101
,
1100
0010
0010
0101
0010
0010
1100
0010
,
0101
0010
0100
1000
0100
0000
1010
0000
0010
0100
1000
0100
0010
0000
0110
0000
,
1100
0010
0100
0101
0010
1000
0110
0001
,
1100
0010
0100
1000
0010
0000
0101
0000
1010
0100
0001
0010
0100
0000
0101
0000
,
1010
0101
1010
0101
1010
0110
1010
0110
,
0101
1010
0110
0101
0110
1100
0110
0101
,
2000
0000
0020
0030
3002
0000
0023
0000
0000
0030
0200
0000
0000
0000
0302
0000
,
1003
0100
0010
0100
0001
0000
0000
0000
0001
0010
0100
1000
0010
0000
0000
0000
,
1000
0100
1000
0100
0010
0000
0000
0000
0010
0100
1000
0100
0010
0000
0000
0000
,
1000
0100
0010
0001
0010
0100
0010
0100
1000
0100
0010
0001
0010
0000
0000
0000
,
0010
0100
0010
0001
0010
0000
0000
0000
1000
0010
0100
0001
0010
0000
0000
0000
,
0001
0010
0100
1000
0100
0010
0001
0010
0001
0010
0100
1000
0100
0000
0000
0000
,
1000
0000
0000
0100
0000
0000
0000
0000
0010
0000
0000
0000
1000
0000
0000
0000
0100
0000
0000
0000
0001
0000
0000
0000
0010
0000
0000
0100
0000
0000
0000
0000
0001
0000
0000
0000
0010
0000
0000
0000
0100
0000
0000
0000
1000
0000
0000
0000
,
0010
0001
0010
0100
1000
0010
0001
0010
0100
1010
0000
0000
,
0100
0000
0000
0010
0000
0000
0000
0000
1000
0000
0000
0000
0100
0000
0000
0000
0010
0000
0000
0000
0001
0000
0000
0000
1000
0000
0000
0010
0000
0000
0000
0000
0100
0000
0000
0000
0001
0000
0000
0000
0010
0000
0000
0000
0100
0000
0000
0000
,
1000
1000
0100
0100
0010
0010
0100
0100
0010
0010
0001
0001
0220
0000
0000
0330
,
0001
0010
0001
0010
0100
1000
0100
0010
0001
0010
0100
0010
0100
0010
0001
0010
,
0100
1000
0001
1000
0001
0010
0100
1000
0100
0010
0001
0010
0220
0000
0000
0330
,
0001
0010
0001
0010
0001
0010
0100
1000
0100
0010
0100
0010
0001
1000
0001
0100
,
0010
0100
1000
0100
0010
0100
0010
0001
0020
0000
0000
0030
2002
0000
0000
3003
,
1100
0011
0011
1100
1100
0110
0110
0110
,
2200
0000
3300
0022
0000
0033
0220
0330
2002
0000
0000
0000
0000
0000
0000
3003
,
1000
0100
0010
0001
0100
0010
1000
0100
1000
0100
0010
0001
0100
0010
0001
0010
,
0100
0100
0010
0001
0010
0100
0010
0100
1000
0100
0100
0010
0001
0010
0100
1000
,
0202
0000
0000
0303
2020
0000
0000
3030
0202
0000
0000
0303
1010
0000
0101
0000
,
1010
0000
0110
0000
0101
0000
2020
0000
0000
3030
0001
0000
0100
0000
0010
0100
,
1000
0000
0010
0001
0010
0000
0010
0100
0010
0000
0010
0001
0010
0000
1000
0100
,
1000
0000
0001
0010
0001
0000
0100
0010
0100
0000
1000
0100
0010
0000
0001
0010
,
0100
0000
0110
0000
0110
0000
0220
0000
0000
0330
1100
0000
1100
0000
1100
0000
,
0110
0011
0011
1002
0100
0010
1003
0010
,
1100
1100
1100
0110
0110
0110
0011
0011
,
1000
0100
0010
0000
1001
0000
0110
0000
0001
0010
0100
0000
0101
0000
1010
0000
,
1001
0100
1000
0100
1000
0010
1000
0010
1000
0100
1000
0100
1000
0010
1000
0010
,
1001
0010
0001
0010
0001
0100
0001
0100
0001
0010
0001
0010
0001
0100
0001
0100
,
1001
0100
1000
0100
1000
0010
1000
0010
1000
0100
1000
0100
1000
0010
1000
0010
,
0202
0000
0000
0000
0000
0000
0000
0000
0000
0000
0000
0000
0000
0000
0000
0303
,
0110
0010
0100
0010
0100
0001
0100
0001
0100
0010
0100
0010
0100
0001
0100
0001
,
0110
0010
0100
0010
0100
0001
0100
0001
0100
0010
0100
0010
0100
0001
0100
0001
,
1010
0100
0010
0100
0010
1000
0010
1000
0010
0100
0010
0100
0010
1000
0010
1000
,
0220
0000
0000
0000
0000
0000
0000
0000
0000
0000
0000
0000
0000
0000
0000
0330
,
1100
1100
1100
1100
1100
1100
1100
1100
,
0110
0110
0110
0110
0110
0110
0110
0110
,
0011
0011
0011
0011
0011
0011
0011
0011
,
1010
1010
1010
1010
1010
1010
1010
1010
,
0110
0110
0110
0110
0110
0110
0110
0110
,
0101
0101
0101
0101
0101
0101
0101
0101
,
1100
1100
1100
1100
1100
1100
1100
1100
,
0011
0011
0011
0011
0011
0011
0011
0011
,
1000
0100
0010
0100
0010
0001
0010
0100
0010
0001
0010
0001
0010
0100
1000
0100
,
1000
0001
1000
0001
0010
0100
1000
0100
0010
0001
1000
0001
0010
0100
1000
0100
,
0010
0001
1000
0100
0010
0001
0100
0010
0001
0100
0010
0001
0010
0100
1000
0100
,
0010
0100
1000
0001
1000
0001
0010
0100
1000
0100
1000
0100
0010
0001
0010
0100
,
1000
0001
0010
0100
0010
0100
1000
0100
0010
0001
0010
0100
0010
0001
0010
0100
,
1000
0100
1000
0100
0010
0100
0010
0001
1000
0001
1000
0001
0010
0100
1000
0100
,
0010
0100
1000
0100
0010
0100
0010
0100
0010
0001
0010
0100
0010
0001
0010
0100
,
1000
0001
1000
0001
0010
0100
0010
0001
0100
0010
0001
0010
0100
1000
0100
0010
,
1010
0101
0110
0101
0110
1010
0110
0110
,
0101
1010
0101
0110
1010
0101
0110
1001
,
1010
0101
1010
0110
0101
0011
1010
0101
,
1001
0110
1100
0101
0110
0101
1010
0101
,
0110
1010
0101
1010
0101
0110
1100
0101
,
1010
0000
0101
0000
0110
0000
1100
0000
1010
0000
0101
0000
0110
0000
1000
0001
,
0220
0000
0000
0330
0220
0000
0000
0330
0220
0000
0000
0330
0220
0000
0000
0330
,
0220
0000
0000
0000
0000
0000
0000
0000
0000
0330
0000
0000
0220
0000
0000
0000
0000
0000
0000
0000
0000
0330
0000
0000
0110
0000
0000
0000
0000
0000
1000
0000
0100
0000
0010
0000
0001
0000
0000
0000
0000
0000
0000
0000
0000
0000
0000
0000
,
1000
1000
0100
0100
0010
0010
0001
0001
0010
0010
0001
0001
0100
0100
1000
1000
,
0200
0000
0020
0300
0000
0030
0101
0000
0010
0001
0010
0001
0010
0000
0000
0000
,
1010
0000
0100
0010
0001
0010
0100
0000
1100
0000
0011
0000
0010
0100
0010
0001
,
1000
0100
0101
0101
0010
0010
1100
1100
,
1000
0100
1000
0100
0010
0100
0010
0100
0001
0010
0100
1000
0100
0010
0001
0010
,
2000
3000
0010
0001
0010
0100
0010
0100
0010
0100
1000
0100
0020
0000
0000
0030
,
1000
1000
1000
1000
0200
0300
0010
0010
0001
0001
0010
0010
0100
0100
0010
0010
,
0001
0001
0001
0001
0020
0030
0200
0300
0010
0010
0010
0010
0200
0300
0001
0000
,
1000
0100
0010
0001
1000
0001
0010
0100
1000
0001
1000
0001
0010
0100
1000
0010
,
2200
0000
0000
3300
0022
0000
0000
0033
0220
0000
0000
0330
2002
0000
0000
3003
,
1000
0100
0010
0001
1000
0100
0010
0001
1000
0100
0010
0001
0220
0000
0000
0330
,
2000
0000
0010
3000
0020
0000
1000
0030
0200
0000
0010
0300
0002
0000
0100
0003
,
0100
0010
0001
1000
0010
0100
0001
0100
0010
1000
0100
0010
,
1000
0000
0001
0000
0010
0001
0100
0000
0010
0000
1000
0000
0100
0000
0010
0000
0001
0000
0220
0000
0000
0000
0330
0000
,
2200
0000
3300
0022
0000
0033
0110
0000
1100
0000
0101
0000
1010
0000
0101
0000
,
1000
0001
1000
0001
1000
0001
1000
0001
1000
0100
0010
0001
0100
0010
0100
0001
,
0010
0100
1000
0010
0100
0001
1000
0100
0010
0001
0010
0100
0020
0000
0000
0030
,
0001
1000
0100
0010
0100
1000
0010
0100
0010
1000
0010
0100
0002
0000
0000
0003
,
1000
1000
0100
0100
0010
0010
0001
0001
0010
0010
0100
0100
1000
1000
0100
0100
,
1000
0100
0010
0001
0010
0100
0020
0030
0100
0010
0001
0010
0100
1000
0200
0300
,
0101
0101
1010
0202
0303
1010
0101
0110
,
2200
0000
0000
3300
0101
0000
2020
0000
3030
0000
1001
0000
0220
0000
0000
0330
,
0101
0000
0101
0000
1010
0000
0202
0000
0000
0303
1010
0000
0101
0000
1010
0000
,
0200
0000
0320
0000
0030
0000
1010
0000
0100
0010
0001
0010
0200
0000
0000
0300
,
1000
0000
0110
0000
0001
0010
0100
0000
1000
0000
0110
0000
1000
0100
0010
0001
,
0010
0000
1010
0000
0100
0010
0100
0000
0001
0000
1010
0000
0100
0010
0100
1000
,
0010
0000
0110
0000
0100
0010
0001
0000
1000
0000
0011
0000
0010
0001
1000
0100
,
0010
0000
0101
0000
0100
0001
0010
0000
0100
0000
0101
0000
0010
1000
0100
0010
,
0001
1000
0100
0010
0001
1000
0100
0010
0001
1000
0100
0010
0100
0100
0020
0030
,
0001
0010
0001
1000
0001
0010
0001
0100
0010
0100
1000
0100
0010
0010
0002
0003
,
0010
0100
1000
0010
1000
0100
0010
0100
0010
0001
1000
0001
1000
0010
0100
0010
,
1000
0100
0010
0001
0010
0100
0010
0100
1000
0001
1000
0001
0010
0100
1000
0100
,
0011
0010
0001
0010
0100
0010
0100
0010
1100
1000
0100
1000
0100
0010
0001
0010
,
1100
1000
0100
0010
0001
0010
0100
0010
1001
0010
0100
0010
0100
1000
0100
0010
,
1100
1000
0100
1000
0001
1000
0001
0010
0101
0010
0100
1000
0100
0010
0001
0010
,
1100
1000
0100
0010
0001
0010
0100
1000
0101
0010
0001
0010
2200
0000
0000
3300
,
0020
0030
0010
0001
1000
0010
0100
0001
1000
0001
0010
0100
1000
0100
0010
0001
,
0010
0100
0010
0100
0010
1000
0100
0010
0001
1000
0001
0010
0200
0300
0200
0300
,
0000
0000
0010
0100
1000
0100
0010
0001
0010
0100
0010
0100
0010
0100
0100
0100
,
0001
0010
0100
0010
1000
0100
0010
0001
0220
0000
0000
0000
0000
0000
0000
0330
,
1100
0000
0011
0000
0110
0000
1000
0100
0010
0001
1000
0100
0010
0001
0010
0100
,
0010
0000
0110
0000
0001
1000
0100
0010
2200
0000
0000
3300
0110
0110
0110
0110
,
0001
0010
0100
0010
0100
0010
0001
0010
0100
1000
0100
0010
0001
1000
0001
1000
,
0100
0010
0001
1000
0010
0100
0001
0010
0001
0100
0010
0100
1000
0100
0010
0001
,
1000
0100
1000
0100
1000
0100
1000
0100
1000
0010
0100
0010
0100
0010
0100
0010
,
0100
0001
0100
0001
0100
0001
0100
0001
0010
1000
0010
1000
0010
1000
0010
1000
,
0100
0010
0100
0010
0100
0010
0100
0010
0001
1000
0001
1000
0001
1000
0001
1000
,
0100
0010
0001
0010
0001
0010
0001
0010
0100
1000
0100
1000
0100
1000
0100
1000
,
0200
0000
0000
0300
2020
0000
0000
3030
0202
0000
0000
0303
1100
0000
0010
0000
,
0101
0000
0010
0000
1100
0000
0202
0000
0000
0000
0000
0303
0010
0000
0100
0000
,
1100
0000
0000
0000
0000
0000
0011
0000
0000
0000
0000
0000
1000
0000
0000
0000
0100
0000
0000
0000
0010
0000
0000
0000
0001
0000
0000
0000
0010
0000
0000
0000
0000
0100
0000
0000
0010
0000
0000
0001
0000
0000
0010
0000
0000
0100
0000
0000
,
1000
0100
0010
0001
0010
0100
0010
0100
0022
0000
0000
0000
0000
0000
0000
0033
,
0010
0100
1000
0001
1000
0100
0010
0100
1000
0001
0010
0100
0010
0001
1000
0010
,
0100
1000
0100
0010
0001
0010
0001
1000
0001
0010
0100
0010
0100
1000
0100
0010
,
0101
0101
0010
1010
1010
0100
0101
0101
,
1010
0000
1010
0000
0010
0000
0101
0000
0010
0100
1000
0001
0020
0000
0000
0030
,
1000
0100
1000
0100
0010
0001
0010
0100
1000
0100
0001
1000
0010
1000
0010
0001
,
0010
0100
0010
0001
1000
0001
0100
0010
0100
0010
0100
1000
0100
0010
0001
0010
,
0100
1000
0100
1000
0100
0100
0010
0010
0001
0010
0001
0010
0001
0010
0100
0100
,
1000
0100
0010
0001
0020
0000
0000
0030
0200
0000
0000
0300
0002
0000
0000
0003
,
2100
0000
0000
0000
0000
0000
0001
0000
0000
0000
0000
0000
0100
0000
0000
3000
,
0020
0000
1000
0000
0000
0000
0000
0000
0001
0000
0000
0000
1000
0000
0000
0030
,
0012
0000
0000
0000
0000
0000
0100
0000
0000
0000
0000
0000
0100
0000
0000
0003
,
1020
0000
0100
0000
0000
0000
0000
0000
0001
0000
0000
0000
0100
0000
0000
0030
,
2010
0000
0100
0100
0000
0000
0010
0000
,
0001
0000
0000
0000
0010
0000
0100
0000
0000
0000
0000
0000
0100
0000
0000
3000
,
1000
0001
1000
0001
1000
0001
1000
0001
1000
0001
1000
0001
1000
0001
1000
0001
,
0010
0100
1000
0100
0010
0100
0010
0001
0010
0100
1000
0100
0010
0001
0010
0100
,
1000
0100
1000
0100
1000
0100
1000
0100
0010
0001
0010
0001
0010
0001
0010
0001
,
0010
1000
0010
1000
0010
1000
0010
1000
0100
0010
0001
0010
0001
0010
0001
0010
,
0001
1000
0100
1000
0100
1000
0100
1000
0100
0010
1000
0010
1000
0010
1000
0010
,
0100
0001
0010
0100
0010
0100
0010
0100
0010
0100
1000
0100
0010
0001
0010
0100
,
1000
0100
0010
0001
0010
0100
1000
0100
0010
0001
0010
0100
1000
0100
0010
0001
,
0010
0100
0010
0100
0010
0001
0010
0001
0010
0100
1000
0100
1000
0100
0010
0001
,
0010
0100
0010
0001
1000
0001
1000
0100
0010
0001
0010
0100
0010
0100
0010
0100
,
1000
0100
1000
0010
0100
0010
0001
0010
0001
0010
0100
0010
0100
1000
0100
0010
,
1000
0000
0110
0000
0001
0010
0001
0000
0100
0000
0101
0000
0010
1000
0100
0000
,
0001
0000
0110
0000
1000
0100
0010
0000
0001
0000
1010
0000
0100
0010
0100
0000
,
0001
0000
1010
0000
0100
0010
0001
0000
1000
0000
0110
0000
1000
0100
1000
0000
,
0001
0000
0110
0000
0001
0010
0100
0000
1000
0000
0101
0000
0010
0100
0010
0000
,
1100
0000
0101
0000
0010
0100
0010
0000
1010
0000
0101
0000
0010
1000
0100
0000
,
0101
0000
1010
0000
0100
0010
0001
0000
1100
0000
0110
0000
0001
0010
0100
0000
,
1000
0100
0010
0100
0010
0001
0010
0100
0010
0001
0010
0100
1000
0100
0010
0001
,
0010
0100
0010
0100
0010
0100
0010
0100
0010
0100
0010
0100
0010
0100
0010
0100
,
1001
0000
0000
0000
,
0110
0000
0000
0000
,
0010
0100
1000
0001
0010
0100
1000
0001
0010
0100
1000
0001
0010
0100
1000
0010
,
0100
0000
0000
0110
0000
0000
1010
0000
0000
2020
0000
0000
0000
0000
0000
3030
;

//---------------dance-single - ----------------
#NOTES:
     dance-single:
     :
     Medium:
     8:
     0.656,0.786,0.618,0.392,0.036,1455.000,251.000,159.000,0.000,0.000:
1001
0000
0000
0000
0000
0000
1000
0001
,
1000
0000
0000
0000
,
0020
0000
0000
0000
,
0000
0000
0000
0030
,
1010
0000
0000
0000
,
0202
0000
0000
0303
,
0001
0100
1000
0100
,
0001
0000
0010
0000
1000
0010
0001
0000
,
1000
0100
1000
0000
0010
0000
0100
0000
,
0001
0010
0001
0000
0100
0000
0010
0000
,
0100
0010
1000
0000
0100
0000
0001
0000
,
0100
0010
0001
0000
1000
0000
0002
0000
,
1003
0010
1000
0000
0100
0000
1000
0000
,
0001
1000
0001
0000
0100
0000
0001
0000
,
0010
0100
1000
0000
0001
0000
0010
0000
,
0100
0001
0100
0000
1000
0000
0020
0000
,
1030
0100
1000
0000
0001
0000
1000
0000
,
0010
0100
0010
0000
1000
0000
0100
0000
,
0001
1000
0001
0000
0010
0000
0001
0000
,
0100
0010
0100
0000
0001
1000
0002
0000
,
1003
0010
1000
0000
0100
0000
0010
0000
,
0001
0100
0001
0000
0100
0000
0010
0000
,
1000
1000
0000
0001
0001
0000
0110
0000
,
1000
0000
0001
0000
,
2002
0000
0000
0000
0000
0000
0000
3003
,
1010
0100
0011
0100
,
1100
0010
0011
0001
,
1010
1000
0101
0001
,
0011
1000
1100
0001
,
1010
1000
0101
0001
,
0101
1000
1010
0100
,
0101
0010
1010
0100
,
1000
0001
1000
0001
1000
0001
1000
0000
,
0011
0100
0011
1000
,
1010
0100
1010
0001
,
1001
0100
1001
0001
,
0010
0100
0000
1000
0001
0000
1001
0000
,
0101
0010
1010
0100
,
0011
0100
1100
0010
,
0110
1000
0110
0001
,
2000
0000
0000
0000
0000
0000
0000
3000
,
0202
0000
0000
0000
0000
0000
0000
0303
,
1001
0110
0000
0000
,
1000
0100
0010
0000
0100
0000
0001
0000
,
0100
0000
0010
0001
0000
0002
0000
0003
,
0100
1000
0100
0000
0010
0000
1000
0000
,
2000
0000
3100
2000
0000
0000
3000
0000
,
0001
0010
0100
0000
0010
0000
0001
0000
,
0100
0000
0010
0100
0000
0200
0000
0300
,
0001
0010
0001
0000
0010
0000
0100
0000
,
1000
0000
0010
2000
0000
0000
3000
0000
,
1100
0001
1100
0100
,
1010
0001
1010
0010
,
1010
0100
1010
1000
,
0011
0100
0011
0001
,
1100
0010
1100
1000
,
1010
0100
1010
0001
,
1001
1000
1001
0001
,
2002
0000
0000
0000
0000
0000
0000
0000
0000
0000
0000
0000
0000
0000
0000
3003
,
1000
0100
1000
0000
0001
0000
0100
0000
,
0010
0000
1000
0001
0000
0002
0000
0003
,
1000
0010
1000
0000
0100
0000
0001
0000
,
0200
0000
0310
0002
0000
0000
0003
0000
,
0010
0100
1000
0000
0100
0000
1000
0000
,
0010
0000
0100
0001
0000
0002
0000
0003
,
0010
0001
0010
0000
0001
0000
1000
0000
,
0002
0000
0103
0002
0000
0000
0003
0000
,
2010
0000
0001
0000
3100
0000
1000
0100
,
0012
0000
1000
0000
0103
0000
0001
0010
,
2100
0001
3010
1000
,
0220
0000
0000
0330
,
0120
0000
1000
0000
0130
0000
1000
0001
,
0210
0000
0001
0000
0310
0000
0001
1000
,
0120
0001
0130
1000
,
2002
0000
0000
3003
,
1000
0000
0100
0000
1000
0100
0001
0000
,
0001
0000
0100
0000
0001
0100
1000
0000
,
1000
0000
0010
0000
1000
0010
0001
0000
,
0001
0000
0010
0000
0001
0010
1000
0000
,
1000
0000
0001
0000
1000
0001
0100
0000
,
0001
0000
1000
0000
0001
1000
0100
0000
,
1000
0000
0010
0000
1000
0100
0010
0000
,
0001
0010
0001
0010
0100
1000
0100
1000
,
0010
0000
0100
0000
0010
1000
0100
0000
,
0010
0000
0100
0000
0010
0001
0100
0000
,
0010
0000
1000
0000
0010
1000
0001
0000
,
0010
0000
0001
0000
0010
0001
1000
0000
,
0100
0000
0001
0000
0100
1000
0100
0000
,
0010
0000
0001
0000
0010
1000
0010
0000
,
0001
0100
0001
0100
0010
1000
0010
1000
,
1001
0000
0000
0000
,
2010
0001
0100
3001
,
0012
1000
0100
1003
,
1020
0100
0001
0130
,
0201
0010
1000
0310
,
1010
0101
1010
0101
,
0011
1100
0011
1100
,
0110
1001
0110
1001
,
1000
0100
0010
0001
1000
0100
0010
0001
,
2000
0000
0000
3020
0000
0000
0230
0000
,
0301
0001
0000
0000
1000
0000
0001
0000
,
2000
0000
0000
3200
0000
0000
0320
0000
,
0031
0001
0000
0000
0000
0000
0100
0010
,
1001
0000
0000
0000
,
0110
0000
0000
0000
,
1000
0000
0000
0100
0000
0000
1000
0000
0000
0000
0000
0000
1100
0000
0000
0000
,
0001
0000
0000
0010
0000
0000
0001
0000
0000
0000
0000
0000
0011
0000
0000
0000
,
1000
0000
0000
0010
0000
0000
1000
0000
0000
0000
0000
0000
1010
0000
0000
0000
,
0001
0000
0000
0100
0000
0000
0002
0000
0000
0000
0003
0000
0101
0000
0000
0000
,
1000
0000
0000
0100
0000
0000
0010
0000
0000
0000
0001
0000
1000
0000
0000
0000
,
0001
0000
0000
0100
0000
0000
0020
0000
0000
0000
1030
0000
0001
0000
0000
0000
,
1000
0000
0000
0001
0000
0000
0100
0000
0000
0000
0010
0000
0100
0000
0000
0000
,
0001
0000
0000
1000
0000
0000
0100
0000
0000
0000
0010
0000
0100
0000
0000
0000
,
1000
0000
0000
1000
0000
0000
2000
0000
0000
0000
3010
0000
1000
0000
0000
0000
,
0011
0000
0001
0020
0000
0130
1000
0000
,
1010
0000
0000
0101
0000
0001
0010
0100
,
2000
0000
0000
3002
0000
0013
0100
0010
,
0001
0000
0000
1000
0000
0000
0001
0000
0000
0000
0100
0000
0010
0000
1000
0000
,
1001
0000
0000
0110
0000
0000
1001
0000
,
0010
0100
0010
0100
0010
0100
0010
0100
,
1001
0110
0000
0000
,
1000
0010
1000
0000
0100
0000
0010
0000
,
0001
0000
0001
0010
0000
0002
0000
0003
,
1000
0010
0100
0000
0001
0000
0100
0000
,
0020
0000
0130
0002
0000
0000
0003
0000
,
0010
0100
0010
0000
0100
0000
1000
0000
,
0010
0000
1000
0100
0000
2000
0000
3000
,
0010
0001
0010
0000
1000
0000
0100
0000
,
0002
0000
0103
2000
0000
0000
3000
0000
,
0012
0000
0100
0000
1003
0000
1000
0010
,
2100
0000
0010
0000
3001
0000
0001
0010
,
0102
1000
0013
0001
,
2002
0000
0000
3003
,
2010
0000
0100
0000
3001
0000
0100
0001
,
0012
0000
1000
0000
0103
0000
1000
0001
,
2100
0001
3010
1000
,
2002
0000
0000
3003
,
1000
0000
0010
0000
1000
0100
0001
0000
,
0100
0000
1000
0000
0010
0001
0010
0000
,
1000
0000
0100
0000
0010
0100
0010
0000
,
1000
0000
0010
0000
0001
1000
0001
0000
,
0100
0000
0010
0000
0100
0001
0100
0000
,
0001
0000
1000
0000
0001
0100
0001
0000
,
1000
0000
0010
0000
0100
0010
0100
0000
,
0010
1000
0010
1000
0100
0010
0100
1000
,
2001
3100
1002
0103
,
2001
3010
1002
0013
,
1020
0130
0201
0310
,
0012
0103
1200
0310
,
0120
0031
0210
1300
,
1002
1003
2001
3001
,
1000
0100
0010
0001
0100
0010
1000
0100
,
1001
0000
0000
0000
,
2010
0001
0010
3001
,
0201
0010
0001
0310
,
1020
0100
1000
0130
,
0102
0010
0100
0013
,
1010
0010
1010
0010
,
0101
0100
0101
0100
,
1010
0110
0101
0110
,
1000
0001
1000
0001
0010
0100
0010
0100
,
0020
0000
0000
0032
0000
0000
0203
0000
,
0301
0100
0000
0000
0100
0000
0010
0000
,
2000
0000
0000
3002
0000
0000
0023
0000
,
0130
0010
0000
0000
0000
0000
0001
0100
,
1001
0000
0000
0000
,
0110
0000
0000
0000
,
1000
0100
0010
0001
,
0110
0010
0010
0010
,
0010
0000
0010
0000
0010
0100
0010
0100
,
0110
0100
0100
0100
,
0100
0000
0100
0000
0100
0010
0200
0300
,
1001
1000
1000
1000
,
1000
0000
1000
0000
1000
0001
1000
0001
,
1001
0001
0001
0001
,
0001
0000
0001
0000
0001
1000
0002
0003
,
1000
1100
0100
0110
,
0010
0011
0001
0011
,
0010
0110
1001
0110
,
1000
0000
1000
0200
0000
0000
0300
0000
,
0010
0100
1000
0000
0100
0000
1100
0000
,
1000
1010
0010
0020
,
1030
1001
0001
1001
,
0010
0110
0100
0110
,
0001
0010
0100
1000
,
0020
0100
0130
0000
0200
0010
0310
0000
,
1000
0100
0010
0001
,
0200
0010
0310
0000
0020
0100
0130
0000
,
0001
0011
1000
1010
,
0001
0101
1000
1100
,
1000
0001
1000
0002
0000
1003
0000
0000
,
2000
0001
3001
0000
0002
1000
1003
0000
,
1100
0000
0011
0000
,
1010
0000
0000
0110
,
1001
0000
0101
0000
,
0110
0000
0000
0011
,
1100
0000
1001
0000
,
0110
0000
0000
1010
,
0101
0000
0011
0000
,
0110
0000
0000
0000
,
2000
3100
0002
0103
,
2000
3100
0002
0103
,
2000
3010
0002
0013
,
2000
3010
0002
0013
,
2000
3100
0020
0031
,
2000
3100
0020
0031
,
2000
3010
0200
0301
,
2000
3010
0200
0301
,
0110
1001
0110
1000
,
0010
0000
0100
0020
0000
1030
0100
2000
,
0000
3000
1010
0000
0100
0000
0011
0000
,
0100
0000
0010
0011
0000
0000
0110
0000
,
1000
0000
0100
1000
0000
0000
1100
0000
,
0010
0000
0001
0010
0000
0000
0101
0000
,
1000
1010
0001
0101
,
0010
1100
0100
0011
,
1001
0000
0000
0000
,
0110
0000
0000
0000
,
1001
0000
0000
0000
,
2002
0000
0000
3003
,
0110
0000
0000
0000
,
1001
0000
0000
0000
,
0110
0000
0000
0000
,
0220
0000
0000
0330
,
1000
0010
1000
0001
1000
0100
1000
0000
,
0001
0010
0001
1000
0001
0100
0001
0000
,
0100
0010
0100
0001
0100
0010
0100
0000
,
0010
1000
0010
0100
0010
1000
0010
0000
,
0100
0001
0010
0001
0100
0001
0010
0000
,
0100
1000
0010
1000
0100
1000
0010
0000
,
1000
0001
1000
0001
0010
0100
0010
0000
,
0100
0010
0100
0010
0001
1000
0001
0000
,
0001
0010
0000
0010
0100
0010
0000
0010
,
0100
1000
0000
1000
0010
0100
0000
0100
,
0001
0010
0000
0010
0001
1000
0000
1000
,
0010
0100
0000
0100
0010
0100
0000
0100
,
0001
0010
0000
0010
0001
0010
0000
0010
,
0100
1000
0000
1000
0001
0010
0000
0010
,
0001
1000
0000
1000
0100
1000
0000
1000
,
0010
1000
0000
1000
0100
0010
1001
0000
,
1000
0100
1000
0100
0010
0100
0010
0000
,
0001
0010
0001
0010
0001
0100
0001
0000
,
0100
0010
0100
0010
1000
0010
1000
0000
,
1000
0001
1000
0001
1000
0100
1000
0000
,
0010
0100
0010
0100
0001
0010
0001
0000
,
1000
0010
1000
0010
0100
0001
0100
0000
,
1010
1100
0011
0101
,
0110
0000
1001
0000
0210
0010
0310
0000
,
1010
0010
0101
0100
,
1000
0001
0000
1000
0100
0010
0002
0000
,
1003
0010
0100
0001
,
1000
2000
0000
3000
0001
0002
0000
0003
,
1000
0001
1000
0001
,
0010
0100
0010
0100
1000
0010
2000
0000
,
3010
0100
0001
0010
,
0011
0000
0001
0010
0000
0010
0100
0000
,
2010
0001
0100
3001
,
0110
1001
0110
1001
,
0102
1000
0010
1003
,
2000
0100
0001
3010
,
0120
1000
0100
1030
,
0210
0001
0010
0301
,
1000
1100
0001
0101
,
1000
0001
1000
0001
1000
0001
1000
0000
,
1001
0000
1100
0000
0010
1000
0200
0300
,
1001
0000
0101
0000
0010
0001
0200
0300
,
0010
1010
0010
1010
,
0100
0000
0000
0000
0100
0001
0000
0000
0100
0000
0000
0000
0100
0001
0000
0000
,
1000
0000
1000
0001
0000
0001
0100
0010
,
0100
0000
0100
0001
0000
0001
0010
0000
,
0100
1000
0100
1000
0000
1000
0010
1000
,
0010
1000
0010
0000
0110
0000
0100
0000
,
1000
0100
0001
0100
0000
1000
0100
0000
,
0001
0100
1000
0100
0000
0001
0001
0000
,
0010
0000
1000
0000
0010
1000
0010
0000
,
0100
0000
1000
0000
0100
0001
0100
0000
,
1000
0010
0000
0000
1000
0010
0000
0000
1000
0000
0100
0000
0010
0000
0000
0000
,
0010
0001
0000
0000
0010
0001
0000
0000
0010
0000
0001
0000
0100
0000
0000
0000
,
0010
1000
0000
0000
0010
1000
0000
0000
1000
0000
0001
0000
0010
0000
0000
0000
,
0010
0100
0000
0000
0010
0100
0000
0000
0100
0000
1000
0000
0010
0000
0000
0000
,
1001
0000
0110
0000
,
1001
0000
0110
0000
,
1010
0000
0101
0000
,
0011
0000
2200
3300
,
1000
0001
1000
0000
0100
0000
0010
0000
,
0001
0000
0100
0000
0001
0000
0100
0000
0000
0000
0010
0000
0000
0010
0000
0000
,
1000
0000
0000
0000
1000
0100
0000
0000
0100
0010
0000
0000
0010
0001
0000
0000
,
0001
1000
0000
0000
0010
0000
0100
0000
0020
0000
0000
0000
0030
0000
0000
0000
,
0010
1000
0100
0010
,
0001
0000
0100
0010
0000
0020
0100
0130
,
0001
0010
0001
0000
0010
0100
0010
0000
,
0100
1000
0100
0000
0200
0000
1300
0000
,
1000
0001
1000
0001
0010
0100
0010
0100
,
1000
0001
1000
0001
0010
0100
0010
0000
,
0001
0100
0001
0100
0010
1000
0010
1000
,
0001
0100
0001
0100
0002
0000
0000
0003
,
0110
0000
1001
0000
0110
0000
1000
0100
,
0010
0001
0010
0200
0000
0000
0310
0100
,
1000
0010
0000
0000
0100
0000
0000
0000
0001
0010
0000
0000
0100
0000
0000
0000
,
1000
0000
0000
0001
0002
0000
0000
0000
,
1003
0100
1000
0000
0100
0000
0001
0000
,
0100
1000
0100
0000
1000
0000
0001
0000
,
0010
0001
0000
0001
0010
0100
0000
0100
,
1000
0010
0000
0010
0100
0001
0100
0000
,
0001
0100
1000
0100
0001
0100
1000
0000
,
0001
0010
1000
0010
0001
0010
1000
0000
,
1010
0000
0000
0110
0000
0000
0101
0000
,
0011
0110
1001
0110
,
2002
0000
0000
0000
0000
0000
0000
0003
,
0200
0000
0000
0000
0000
0000
0000
0300
,
0020
0000
0000
0000
0000
0000
0000
0030
,
0002
0000
0000
0000
0000
0000
0000
0003
,
0020
0000
0000
0000
0000
0000
0000
0030
,
0200
0000
0000
0000
0000
0000
0000
3300
,
1001
0000
0000
0101
0000
0000
1010
0000
,
1000
0100
0010
0001
1000
0010
0100
0001
,
2010
0100
0010
3100
,
0120
0001
0100
0031
,
0012
1000
0010
1003
,
2010
0001
0010
3001
,
0210
0001
0010
0301
,
1002
0010
1000
0013
,
2100
0001
0100
3001
,
1000
0100
0001
0100
1000
0100
0001
0100
,
1100
0000
0000
0110
0000
0000
0011
0000
,
0010
0001
0000
0000
1010
0000
0101
0000
,
0110
0000
0000
0101
0000
0000
1001
0000
,
1000
0001
0000
0000
0000
0000
0010
1000
,
0100
0000
0100
0010
0000
0010
0001
0000
,
1001
0000
0010
0100
,
0110
0000
2000
0002
0000
0000
0000
3003
,
1000
0010
0100
0001
0010
0100
1000
0010
,
0110
0000
0000
0000
,
1001
0000
0000
0000
,
1000
0001
1000
0001
1000
0001
1000
0000
,
0100
0000
0000
0010
0000
0000
0001
0000
0000
2002
0000
0000
0000
0000
0000
3003
;

//---------------dance-single - ----------------
#NOTES:
     dance-single:
     :
     Hard:
     10:
     0.897,0.952,0.303,0.288,0.237,2308.000,123.000,117.000,0.000,0.000:
1100
0000
0010
0001
0100
0010
1000
0001
,
1001
0000
0010
1000
0001
0100
0010
0000
,
2002
0000
0000
0000
0000
0000
0000
0000
0000
0000
0000
0000
0000
0000
0000
3003
,
1000
0100
0001
0100
1000
0010
0001
0000
,
1001
0000
1000
0010
0100
0001
0100
0000
,
2020
0000
0000
0000
0000
0000
0000
0000
0000
0000
0000
0000
0000
0000
0000
3030
,
0011
1100
0101
1010
,
0110
0000
1001
0000
0110
1001
0110
0000
,
1000
0100
0010
0001
0010
0100
1000
0010
,
1000
0100
1000
0010
0100
0001
0010
0100
,
1000
0001
1000
0100
0010
0001
0010
0100
,
1000
0000
0100
0000
0001
0000
0100
0000
1000
0000
0100
0000
0002
0000
0000
0003
,
0100
1000
0010
0100
0001
0010
0001
0100
,
0001
1000
0100
0010
0001
1000
0001
0100
,
0010
1000
0001
0100
0010
1000
0100
0010
,
0001
0000
0100
0000
1000
0000
0100
0000
0001
0000
0100
0000
2000
0000
0000
3000
,
0100
0001
0010
0100
1000
0001
0100
0000
,
0010
1000
0001
0100
0010
1000
0100
0000
,
1000
0100
1000
0001
0010
0001
0100
0000
,
0001
0000
0001
0000
1000
0000
1000
0000
0010
0000
1000
0000
0200
0000
0000
0300
,
0010
0001
0100
0010
1000
0100
0010
0000
,
0001
1000
0010
0100
0001
1000
0100
0000
,
1100
1100
0000
0101
0101
0000
0100
0010
,
2000
0000
0000
0000
0000
0000
0000
0000
0000
0000
0000
0000
0000
0000
0000
0000
0002
0000
0000
0000
0000
0000
0000
0000
0000
0000
0000
0000
0000
0000
0000
3003
,
0220
0000
0000
0000
0000
0000
0000
0000
0000
0000
0000
0000
0000
0000
0000
0330
,
1000
1000
0100
0100
0010
0010
0001
0001
,
0010
0010
0100
0100
1000
1000
0010
0010
,
0100
0100
0001
0001
1000
1000
0001
0001
,
0100
0100
0010
0010
1000
1000
0100
0100
,
0010
0010
0001
0001
1000
1000
0010
0010
,
0100
0100
0001
0001
0010
0010
0100
0100
,
1000
1000
0001
0001
0100
0100
0010
0010
,
1000
0100
0001
0100
1000
0100
0001
0100
,
0010
0001
0100
0001
0010
0001
0100
0001
,
0010
1000
0010
0100
0010
1000
0010
0100
,
1000
0010
1000
0100
1000
0010
1000
0100
,
1100
1100
0000
0011
0011
0000
1001
0000
,
0100
1000
0100
0010
0100
1000
0100
0010
,
0001
1000
0001
0100
0001
1000
0001
0100
,
0010
1000
0010
0100
0010
1000
0010
0100
,
0001
0010
0100
1000
0001
0010
0100
1000
0001
0010
0100
1000
,
0002
0000
0000
0003
,
0110
1001
0000
0000
,
1000
0100
0010
0100
0001
0100
1000
0010
,
0100
0001
0010
0002
0000
2003
0000
0000
,
3010
0100
0001
0010
0100
1000
0001
1000
,
0020
0000
0130
0002
0000
0000
0000
0000
,
1003
0001
0010
0100
0001
0100
1000
0010
,
0100
0001
0010
0002
0000
2003
0000
0000
,
3001
0100
0010
1000
0001
0100
1000
0100
,
0010
0000
1000
0000
0100
0000
2002
0000
0000
0000
0000
0000
0000
0000
0000
3003
,
1000
1000
0100
0100
0001
0001
0100
0100
,
1000
1000
0100
0100
0010
0010
0001
0001
,
0010
0010
1000
1000
0010
0010
0001
0001
,
0100
0100
0010
0010
1000
0100
0001
0100
,
1000
1000
0010
0010
0001
0001
0010
0010
,
0100
0100
0001
0001
1000
1000
0001
0001
,
0010
0010
0100
0100
1000
1000
0010
0010
,
2002
0000
0000
0000
0000
0000
0000
0000
0000
0000
0000
0000
0000
0000
0000
3003
,
1000
0001
1000
0010
0100
1000
0100
0001
,
0010
0100
1000
0020
0000
2030
0000
0000
,
3001
0100
0010
1000
0001
1000
0100
0010
,
0002
0000
0013
0200
0000
0000
0000
0000
,
0301
0100
1000
0010
0100
0001
0100
0010
,
1000
0100
1000
0002
0000
0023
0000
0000
,
0031
0010
0001
0100
0010
1000
0001
0100
,
2000
0000
3100
0002
0000
0000
0003
0000
,
1000
0100
0000
0000
0100
0010
0000
0000
0010
0001
0000
0000
0001
0000
0100
0000
,
0010
1000
0000
0000
1000
0001
0000
0000
0001
1000
0000
0000
1000
0000
0010
0000
,
0100
0001
0000
0000
0001
0010
0000
0000
0010
0100
0000
0000
1000
0000
0010
0000
,
0100
0001
0100
1000
0100
0010
0100
0001
,
0100
0010
0000
0000
0010
1000
0000
0000
1000
0100
0000
0000
0001
0000
0100
0000
,
1000
0010
0000
0000
0010
0100
0000
0000
0100
0001
0000
0000
0001
0000
0100
0000
,
1000
0100
0000
0000
0100
0001
0000
0000
0001
0010
0000
0000
1000
0000
0010
0000
,
0001
0010
0100
1000
0001
0010
0100
0000
,
1000
0001
0100
0010
1000
0100
0010
0000
,
0001
0010
0100
1000
0001
0100
0010
0000
,
1000
0010
0100
0001
1000
0100
0010
0000
,
0100
1000
0010
0100
0001
0010
0100
0000
,
1000
0100
1000
0001
0010
0100
0010
0000
,
0100
1000
0001
0100
0001
1000
0010
0000
,
1000
0010
0100
0001
0010
0100
1000
0001
,
1000
0010
0001
0010
1000
0010
0001
0010
,
1000
0001
1000
0100
0010
0001
0100
0000
,
0010
0100
0001
0010
0001
1000
0100
0000
,
1000
0001
0100
0010
1000
0001
0100
0000
,
0010
0100
0001
1000
0010
1000
0100
0000
,
0010
0001
1000
0100
0010
0001
0100
0000
,
0010
1000
0001
0100
0001
0010
0100
1000
,
0001
0100
1000
0100
0001
0100
1000
0100
,
1001
0000
0000
0000
,
1000
0100
1000
0100
1000
0100
1000
0100
,
0001
0100
0001
0100
0001
0100
0001
0100
,
1000
0010
1000
0010
1000
0010
1000
0010
,
0001
0010
0001
0010
0001
0010
0001
0010
,
1000
0010
0001
1000
0100
0001
1000
1000
,
0001
0100
1000
0001
0010
1000
0001
0001
,
0010
0001
0100
0010
1000
0100
0010
0010
,
0100
1000
0010
0100
0001
0010
0100
0100
,
1000
0010
1000
0001
1000
0100
1000
1000
,
0001
0010
0001
1000
0001
0100
0001
0001
,
0100
1000
0100
0010
0100
0001
0100
0100
,
0010
0001
0010
0100
0010
1000
0010
0010
,
1001
0000
0000
0000
,
0110
0000
0000
0000
,
1000
0000
0000
0100
0000
0000
0011
0000
0000
0000
0001
0000
0010
0000
0100
0000
,
1000
0000
0000
0010
0000
0000
0101
0000
0000
0000
0001
0000
0100
0000
0010
0000
,
1000
0000
0000
0001
0000
0000
0110
0000
0000
0000
0100
0000
1000
0000
0010
0000
,
0100
0000
0000
0001
0000
0000
2001
0000
0000
0000
3001
0000
0100
0000
0010
0000
,
0100
0001
0000
0001
1000
0000
0101
0000
0000
0000
0010
0000
1000
0000
0100
0000
,
0010
0001
0000
0001
0100
0000
1020
0000
0000
0000
0130
0000
0001
0000
1000
0000
,
0100
0010
0000
0010
0100
0000
1100
0000
0000
0000
1000
0000
0010
0000
0100
0000
,
0001
1000
0000
1000
0010
0000
0110
0000
0000
0000
0100
0000
0001
0000
0010
0000
,
0100
1000
0000
1000
0001
0000
0201
0000
0000
0000
0310
0000
1000
0000
0100
0000
,
0010
0001
0010
0000
0100
0000
1200
0000
0000
0000
1300
0000
0100
0000
0010
0000
,
0001
1000
0001
0000
1001
0000
0010
0100
0010
0000
0110
0000
0100
0000
0001
0000
,
1000
0010
1000
0010
1000
0000
1002
0000
0000
0000
1003
0000
0010
0000
0100
0000
,
0101
0000
0000
1001
0000
0000
0011
0000
0000
0000
0010
0000
0001
0000
0100
0000
,
0010
1000
0010
0000
0110
0000
0100
0001
0100
0000
0010
0000
1000
0001
1000
0000
,
1000
0100
0010
0001
0010
0100
1000
0001
,
2000
0000
0000
0000
0002
0000
0000
0000
0000
0000
0000
0000
0000
0000
0000
3003
,
1000
0001
1000
0100
1000
0010
0100
0001
,
1000
0100
0010
0200
0000
2300
0000
0000
,
3001
1000
0010
0100
0001
1000
0100
0010
,
0200
0000
1300
0002
0000
0000
0000
0000
,
0103
0010
1000
0001
1000
0100
0010
0100
,
1000
0010
0001
0020
0000
2030
0000
0000
,
3100
0010
0001
1000
0001
0100
0010
1000
,
0200
0000
1300
0002
0000
0000
0003
0000
,
1000
0100
0000
0000
0100
0001
0000
0000
0001
0100
0000
0000
0100
0000
1000
0000
,
0100
0010
0000
0000
0010
0001
0000
0000
0001
0010
0000
0000
1000
0000
0010
0000
,
0001
0100
0000
0000
0100
1000
0000
0000
1000
0100
0000
0000
0100
0000
0001
0000
,
0010
0100
0010
1000
0010
0100
0010
0001
,
0100
0010
0000
0000
0010
1000
0000
0000
1000
0010
0000
0000
0001
0000
0010
0000
,
1000
0100
0000
0000
0100
0010
0000
0000
0010
0001
0000
0000
0100
0000
1000
0000
,
0100
0001
0000
0000
0001
0010
0000
0000
0010
0100
0000
0000
0100
0000
1000
0000
,
0001
0010
0100
1000
0001
0010
0100
0000
,
1000
0001
0100
0010
0100
0001
0010
0000
,
0100
1000
0010
0100
0001
1000
0001
0000
,
0100
0010
1000
0001
1000
0100
0010
0000
,
0100
1000
0100
0010
0001
1000
0100
0000
,
1000
0001
1000
0010
0100
0001
0100
0000
,
0010
1000
0100
1000
0010
0100
0001
0000
,
1000
0001
0100
0001
0010
0100
1000
0001
,
1000
0010
0001
0010
1000
0010
0001
0010
,
1000
0100
0000
0000
0100
0010
0000
0000
0010
0001
0000
0000
0001
0100
0000
0000
,
0100
0010
0000
0000
0010
1000
0000
0000
1000
0001
0000
0000
0001
0100
0000
0000
,
0100
0010
0000
0000
0010
1000
0000
0000
1000
0100
0000
0000
0100
0010
0000
0000
,
0010
0001
0000
0000
0001
1000
0000
0000
1000
0001
0000
0000
0010
0000
0010
0000
,
0100
1000
0000
0000
1000
0001
0000
0000
0001
0100
0000
0000
0100
0010
0000
0000
,
0010
1000
0000
0000
1000
0001
0000
0000
0001
1000
0000
0000
1000
0010
0000
0000
,
0001
0010
1000
0010
0001
0010
1000
0010
,
1001
0000
0000
0000
,
0001
0010
0001
0010
0001
0010
0001
0010
,
1000
0010
1000
0010
1000
0010
1000
0010
,
0001
0100
0001
0100
0001
0100
0001
0100
,
1000
0100
1000
0100
1000
0100
1000
0100
,
0001
0100
1000
0001
0010
1000
0001
0001
,
1000
0010
0001
1000
0100
0001
1000
1000
,
0100
1000
0010
0100
0001
0010
0100
0100
,
0010
0001
0100
0010
1000
0100
0010
0010
,
0001
0100
0001
1000
0001
0010
0001
0001
,
1000
0100
1000
0001
1000
0010
1000
1000
,
0010
0001
0010
0100
0010
1000
0010
0010
,
0100
1000
0100
0010
0100
0001
0100
0100
,
1001
0000
0000
0000
,
0110
0000
0000
0000
,
0010
1000
0100
0010
0001
0100
0010
1000
,
0110
0010
0010
0010
,
1010
0000
0101
0000
0010
1000
0100
1000
,
0110
0100
0100
0100
,
1100
0000
0000
0000
0011
0000
0000
0000
0010
0000
0001
0000
0200
0000
0000
0300
,
1001
1000
1000
1000
,
1010
0000
0101
0000
1000
0100
0001
0100
,
1001
0001
0001
0001
,
0011
0000
1100
0000
0001
1000
0020
0000
,
1030
1000
0100
0100
0010
0010
0001
0001
,
0010
0010
0100
0100
1000
1000
0001
0001
,
0100
0100
1010
0000
0101
0000
1010
0000
,
1000
0000
0100
0000
0010
0000
0002
0000
0000
0000
0000
0000
0000
0000
0000
0003
,
0010
1000
0020
0000
0230
0000
2300
0000
,
3002
0000
0100
0203
0300
0002
0000
0000
,
1003
1000
0100
0001
0001
0100
0010
0001
,
0010
0010
1000
0010
0010
0001
0100
1000
,
0100
0010
0010
0001
0010
0010
1000
0001
,
1000
0100
1100
0000
0001
0100
0101
0000
,
1000
0001
0001
0100
0010
0010
1000
0100
,
0010
0001
0011
0000
0100
1000
1100
0000
,
1000
0001
1000
0001
0010
0100
0010
0100
,
1000
0001
1000
0001
0010
0100
0010
0100
,
2000
0000
0200
0300
3002
0000
0203
0000
0000
0000
0320
0000
0000
0000
0032
0000
,
1003
0010
0101
0000
0001
0100
1010
0000
,
1000
0100
1000
0100
0000
0000
0010
0001
0010
0001
0000
0000
,
1000
0100
1000
0100
0010
0001
0010
0001
1000
0001
0000
0000
,
1000
0010
1000
0010
0000
0000
0100
0001
0100
0001
0000
0000
,
1000
0010
1000
0010
0100
0001
0100
0001
1000
0001
0000
0000
,
1000
0100
0010
0001
0000
0000
0001
0010
0100
1000
0000
0000
,
1000
0100
0010
0001
0010
0100
1000
0100
0010
0001
0000
0000
,
1000
0010
0100
0001
0000
0000
0001
0100
0010
1000
0000
0000
,
1000
0010
0100
0001
0100
0010
1000
0010
0100
0002
0000
0000
,
1003
0100
0010
0100
1000
0001
0100
0001
,
1000
0000
0001
0000
0010
0000
0100
0000
1000
0000
0001
0000
0220
0000
0000
0330
,
1000
0100
0001
0100
0010
1000
0010
0001
,
0100
0000
1000
0000
0100
0000
0010
0000
0200
0000
0000
0300
2002
0000
0000
3003
,
1100
0001
0100
0100
0100
0010
1000
0010
,
2000
0000
0000
0000
3020
0000
0230
0300
2002
0000
0000
0000
0000
0000
0000
3003
,
1000
0010
1000
0100
1000
0010
1000
0100
,
0010
0001
0010
0100
0010
0001
0010
0100
,
0110
0000
1001
0000
0110
0000
1000
0010
,
1000
0010
0100
0002
0000
1003
0100
2000
,
0000
0000
0000
3001
1000
0000
0000
1000
0100
0000
0000
0100
0010
0000
0000
0010
,
0001
0000
0010
2001
0000
3001
0010
0100
,
1000
0100
0001
0200
0000
1300
0010
1000
,
0100
0010
0001
0200
0000
0301
0010
0100
,
1000
1000
0100
0100
0010
0010
0001
0001
,
1000
1000
0010
0010
0100
0100
0001
0001
,
1100
0000
0000
0000
,
0101
0000
0000
0000
,
0110
0000
0000
0000
,
2002
0000
0000
0000
0000
0000
0000
0000
0000
0000
0000
0000
0000
0000
0000
3003
,
0101
0000
0000
0000
,
0011
0000
0000
0000
,
1010
0000
0000
0000
,
0220
0000
0000
0000
0000
0000
0000
0000
0000
0000
0000
0000
0000
0000
0000
0330
,
0010
1000
0010
0100
0010
0001
0010
0100
,
0010
1000
0010
0100
0010
0001
0010
0100
,
0001
0010
0001
1000
0001
0100
0001
1000
,
0001
0010
0001
1000
0001
0100
0001
1000
,
0100
0010
0100
0001
0100
0010
0100
1000
,
0100
0010
0100
0001
0100
0010
0100
1000
,
0010
0100
0010
0001
0010
0100
0010
1000
,
0010
0100
0010
0001
0010
0100
0010
1000
,
0001
0010
0001
0010
0100
0010
0100
0010
,
0001
0100
0001
0100
0010
0100
0010
0100
,
0001
1000
0001
1000
0010
1000
0010
1000
,
0001
1000
0001
1000
0100
1000
0100
1000
,
0010
1000
0010
1000
0010
0100
0010
0100
,
0010
1000
0010
1000
0100
1000
0100
1000
,
0001
0010
0001
0010
0001
0100
0001
0100
,
0001
0010
0001
0010
0100
0010
1001
0000
,
1000
0100
0001
0100
1000
0100
0001
0100
,
1000
0100
0001
0100
1000
0100
0001
0100
,
1000
0010
0001
0010
1000
0010
0001
0010
,
1000
0010
0001
0010
1000
0010
0001
0010
,
1000
0100
0001
0100
1000
0010
0001
0010
,
1000
0100
0001
0100
1000
0010
0001
0010
,
1100
0101
0011
1010
,
0110
0000
1001
0000
0110
1001
0110
0000
,
1000
1000
0010
0010
0100
0100
0001
0001
,
0200
0000
0020
0300
0000
0000
1030
0000
1000
0100
1000
0000
0002
0000
0000
0000
,
1003
0100
0010
0001
1000
0100
0010
0000
,
0001
0010
0001
0000
0002
0000
0003
0000
1000
0100
1000
0000
2000
0000
3000
0000
,
1000
0001
0100
0010
1000
0001
0100
0010
,
1000
0001
0010
0100
1000
0001
0020
0000
,
0130
1000
0010
0100
0001
0010
0100
1000
,
0001
0010
0002
0000
0013
0000
0100
0010
0200
0000
1300
0000
0001
0000
1000
0000
,
0001
0100
0000
0000
0100
0010
0000
0000
0010
1000
0000
0000
1000
0001
0000
0000
,
0101
1010
1100
0011
,
1000
0100
0000
0000
0100
0010
0000
0000
0010
0001
0000
0000
1001
0000
0000
0000
,
2000
0200
3000
0300
,
1000
0000
0010
0000
0100
0000
0001
0000
1000
0000
0100
0000
,
0010
0000
0001
0000
0100
0000
0010
0000
0000
1001
0000
0000
,
2000
0000
0000
3200
0000
0000
1300
0000
0010
0000
0100
0000
0001
0000
0000
0000
,
1000
0010
1000
0001
1000
0100
1000
0000
,
0010
0000
0100
0000
0001
0000
0010
0000
0100
0000
1000
0000
0020
0000
0000
0030
,
0100
1000
0100
0001
0010
1000
0020
0000
,
0130
0100
1000
1000
0001
0001
0100
0100
,
0010
0000
0010
0000
1000
0100
2000
0000
3001
0000
0001
0000
0100
0010
0200
0000
,
0301
0010
0100
2000
0000
3001
0100
0010
,
1000
0100
0010
0002
0000
1003
2000
0000
,
3001
0100
0001
0020
0000
0130
1000
0001
,
2000
3200
0010
0000
0310
0001
1002
0000
,
1003
0100
0001
0100
1000
0100
0010
0001
,
0100
1000
0100
0001
0100
0010
1000
0100
,
0010
0010
0001
0001
0100
0100
0010
0010
,
1000
1000
0100
0001
0100
1000
0100
0000
,
0010
0001
0010
0000
0010
0001
0010
0000
0010
0000
0001
0000
0100
0000
1000
0000
,
0100
0001
0100
0000
0100
0001
0100
0000
0100
0000
0001
0000
0010
0000
0100
0000
,
1000
0010
1000
0000
1000
0010
1000
0000
1000
0000
0010
0000
0100
0000
0001
0000
,
1000
0100
1000
0000
1000
0100
1000
0000
1000
0000
0100
0000
0010
0000
0100
0000
,
1001
0000
0010
0100
1001
0000
0001
1000
,
0110
0000
1000
0001
0110
0000
0001
0010
,
1100
0000
1000
0100
0011
0000
0001
0100
,
1010
0000
1000
0010
0202
0000
0303
0000
,
1000
0001
1000
0001
1000
0000
0010
0000
0100
0000
0001
0000
0010
0000
0100
0000
,
1000
0100
1000
0001
1000
0010
0100
0100
,
0001
0010
0001
0100
0010
1000
0100
1000
,
0010
0000
0100
0000
0000
0000
0100
0000
0020
0000
0000
0000
0000
0000
0000
0030
,
1000
0001
0010
0100
1000
0001
0010
0001
,
1000
0000
0010
0000
0100
0000
0001
0000
2000
0000
0100
3000
1000
0100
1000
0100
,
0010
0001
0010
0001
0010
0001
0010
0001
,
0100
0010
0100
0010
0100
0010
0100
0010
,
1000
0100
0001
0100
0010
0100
0001
0100
,
1000
0100
0001
0100
0001
0100
0001
0100
,
1000
0100
1000
0100
0010
0100
0010
0001
,
0100
0010
1000
0100
2000
0000
0000
0000
,
3020
0000
0230
0000
0302
0000
1003
0001
,
1000
0100
0010
0002
0000
0000
0013
0100
,
1000
0000
0010
0100
0010
0000
0100
0000
0001
0000
0010
0100
1000
0000
0001
0000
,
1000
0001
0100
0010
2000
0000
0000
0000
,
3001
1000
0001
0100
0001
0010
0100
0010
0100
1000
0010
1000
,
0001
0000
1000
0000
0100
0000
0010
0000
0000
0001
0000
0000
0100
0000
0000
0010
0000
0000
1000
0000
0000
0100
0000
0000
,
1000
1000
0100
0010
0010
0001
0100
0100
,
0010
0000
0010
0000
1000
0000
1000
0000
0010
0000
0100
0000
0002
0000
0000
0003
,
0001
0010
0001
0000
0100
0000
0001
0000
0010
0000
1000
0000
0010
0000
0100
0000
,
0010
0001
0010
0000
0100
0000
1000
0000
0100
0000
0010
0000
0001
0000
0000
0000
,
1000
0001
1000
0000
0001
0000
1000
0001
1000
0000
0001
0000
0100
0010
0100
0000
,
1000
0100
0010
0000
0001
0100
0010
0000
1000
0000
0000
0000
0001
0000
0000
0000
,
2001
0000
0000
0001
0000
0000
0001
0000
,
0010
0010
0000
0000
0010
0000
0001
0000
,
0100
0000
0000
0100
0000
0000
0100
0000
,
0001
0001
0000
0000
0001
0000
0100
0000
,
0010
0000
0010
0010
0000
0000
0010
0000
,
0100
0000
0000
0000
0100
0000
0100
0000
0000
0000
0000
0000
0001
0000
0000
3000
,
0011
0000
0100
1100
0000
1000
1010
0000
,
1000
0000
0001
0000
0100
0000
0010
0000
1000
0001
1000
0001
0100
0010
0100
0010
,
1000
0100
0001
0100
0010
0001
0100
1000
,
0100
0010
1000
0100
0001
0100
0010
1000
,
0010
0001
0100
1000
0100
0010
0001
0010
,
1000
0010
0100
0001
0010
0100
1000
0010
,
1000
0100
0010
0001
0100
0010
1000
0100
,
1000
0010
0100
0001
0010
0100
1000
0010
,
0001
0010
0100
1000
0100
0001
0010
0100
,
1000
0100
0001
0100
1000
0100
0001
0100
,
1000
0001
0001
1000
0100
0100
0010
0001
,
0100
0010
0010
1000
0001
0001
1000
0100
,
0010
0001
0001
0100
0010
0010
1000
0001
,
1000
0001
0001
0100
0010
0010
1000
0010
,
0100
0001
0001
0010
0100
0100
1000
0001
,
1000
0010
0010
1000
0100
0100
0010
0001
,
0100
0010
0010
1000
0001
0001
1000
0001
,
1000
0100
0001
0010
1000
0100
0001
0010
,
1001
0000
0000
0000
,
0110
0000
0000
0000
,
0001
0010
0100
1000
0100
0010
0001
0010
,
0110
0000
0000
1001
0000
0000
0110
0000
0000
2002
0000
0000
0000
0000
0000
3003
;

//---------------dance-single - ----------------
#NOTES:
     dance-single:
     :
     Easy:
     6:
     0.511,0.662,0.355,0.303,0.005,1184.000,144.000,123.000,0.000,0.000:
1001
0000
0000
0010
,
0110
0000
0000
0000
,
0200
0000
0000
0000
,
0000
0000
0000
0300
,
1001
0000
0000
0000
,
0220
0000
0000
0330
,
1000
0001
1000
0001
,
0010
0000
0100
0000
0010
0100
0010
0000
,
0001
0010
0001
0001
,
0100
0001
0100
0100
,
1000
0010
1000
1000
,
0010
0001
0010
0020
,
1030
1000
0100
1000
,
0100
0001
0100
0100
,
0001
0010
0001
0001
,
0010
1000
0010
0020
,
0031
1000
0010
1000
,
0001
1000
0100
1000
,
0001
1000
0010
1000
,
0001
1000
0100
2000
,
3001
0010
0001
1000
,
0001
0100
0001
1000
,
0001
1000
0000
1000
0001
0000
1000
0000
,
1000
0000
0001
0000
,
2002
0000
0000
3003
,
2000
3100
0002
0103
,
2000
3100
0002
0103
,
2000
3100
0002
0103
,
2000
3100
0002
0103
,
2000
3010
0002
0013
,
2000
3010
0002
0013
,
2000
3010
0002
0013
,
1010
1001
1100
1001
,
0020
1030
0200
1300
,
0020
1030
0200
1300
,
0020
1030
0200
1300
,
0010
0100
0000
0100
0001
0000
1001
0000
,
0020
0031
0200
0301
,
0020
0031
0200
0301
,
1000
0100
0010
0001
,
2000
0000
0000
0000
,
3002
0000
0000
0000
,
1003
1001
0000
0000
,
1000
1100
0010
0001
,
0100
0000
0010
0100
0000
0100
0000
0000
,
0010
1010
1000
0100
,
0001
0000
0100
1000
0000
0000
0000
0000
,
0010
0110
0001
0010
,
0001
0000
0010
1000
0000
1000
0000
0000
,
0010
0011
0100
0010
,
1000
0000
1000
0100
0000
0000
0000
0000
,
2000
3100
0200
1300
,
2000
3100
0200
1300
,
0002
0013
0020
0031
,
0002
0013
0020
0031
,
2000
3010
0020
1030
,
2000
3010
0020
1030
,
0002
0103
0200
0301
,
2002
0000
0000
3003
,
1000
1001
0100
0001
,
0100
0000
1000
0001
0000
0001
0000
0000
,
0001
0101
0010
0100
,
0010
0000
0010
1000
0000
0000
0000
0000
,
1000
0011
1000
0100
,
0010
0000
0010
0001
0000
0001
0000
0000
,
0100
0011
0010
1000
,
0010
0000
0010
0100
0000
0000
0000
0000
,
1000
0000
0000
0100
0000
0000
0010
0000
,
0001
0000
0000
0100
0000
0000
0010
0000
,
1000
0000
0000
0100
0000
0000
1001
0000
,
0220
0000
0000
0330
,
0000
0000
1000
0100
1000
0000
0100
0000
,
1001
0000
0001
1000
0000
0000
1000
0100
,
0010
0000
0010
0001
0000
0000
0010
0000
,
2002
0000
0000
3003
,
0000
0000
1000
0000
0100
0000
1000
0100
,
0000
0100
1000
0000
0001
0000
0100
0000
,
1010
0000
1000
0010
0000
0010
0100
0000
,
0001
0000
0001
0020
0000
0000
0030
0000
,
0011
0000
0000
0001
0000
0000
0100
0000
,
0010
1000
0001
0110
,
0010
0000
0000
1000
0000
0000
0100
0000
,
0020
0000
0000
0230
0000
0000
0300
0000
,
1000
0001
0100
0110
,
0010
0000
0010
0100
0000
0000
0100
0000
,
1010
0000
0000
0010
0000
0000
1000
0000
,
0010
0000
1000
0100
,
0011
0000
0001
0010
0000
0000
0100
0000
,
0001
0000
0000
0100
0000
0000
1000
0000
,
0002
0000
0000
0000
,
1003
0000
0000
0000
,
1000
0100
0001
0100
,
1000
0100
0001
0100
,
1000
0010
0001
0010
,
1000
0010
0001
0010
,
1000
0100
0010
0001
,
1000
0010
0100
0001
,
1000
0001
1000
0001
,
0010
0100
0010
0100
,
1000
0100
0001
0100
,
1000
0100
0001
0100
,
1000
0010
0001
0010
,
1000
0010
0001
0010
,
1001
0000
0000
0000
,
0110
0000
0000
0000
,
1000
0000
0000
0100
0000
0000
1000
0000
,
0001
0000
0000
0010
0000
0000
0001
0000
,
1000
0000
0000
0010
0000
0000
1000
0000
,
0001
0000
0000
0200
0000
0000
0301
0000
,
1000
0000
0000
0100
0000
0000
0010
0000
,
0001
0000
0000
0200
0000
0000
0310
0000
,
1000
0000
0000
0001
0000
0000
0100
0000
,
0001
0000
0000
1000
0000
0000
0100
0000
,
1000
0000
0000
0001
0000
0000
2000
0000
0000
0000
0000
0000
3010
0000
0000
0000
,
0110
0000
0000
0100
0000
0000
0001
0000
,
0011
0000
0000
0100
0000
0000
1000
0100
,
2000
0000
0000
3002
0000
0003
0100
0000
,
0101
0000
0000
0010
0000
0000
1000
0000
,
1100
0000
0000
0110
0000
0000
0011
0000
,
1000
0001
1000
0001
,
0020
0130
0000
0000
,
1000
1010
0001
0010
,
0100
0000
0001
0010
0000
0010
0000
0000
,
0010
0110
0001
0100
,
1000
0000
1000
0100
0000
0000
0000
0000
,
0010
0101
0010
0100
,
1000
0000
1000
0010
0000
0010
0000
0000
,
0100
1001
0100
0001
,
0010
0000
0010
0001
0000
0000
0000
0000
,
0010
0000
0000
0001
0000
0000
0100
0000
,
0010
0000
0000
1000
0000
0000
0100
0000
,
0010
0000
0000
0001
0000
0000
0100
0000
,
2002
0000
0000
3003
,
0000
0000
1000
0100
0010
0000
0001
1000
,
0001
0000
0001
0100
0000
0000
0100
0010
,
0100
0000
0000
0001
0000
0000
0010
0000
,
0200
0000
0000
0020
0000
0000
0330
0000
,
0000
0000
0001
0000
1000
0000
0001
0100
,
0000
0100
0001
0000
0010
0000
1000
0000
,
1001
0000
0010
0001
0000
0001
0100
0000
,
0010
0000
0010
2000
0000
0000
3000
0000
,
1010
0000
0000
0100
0000
0000
0010
0000
,
1000
0100
0001
1001
,
1000
0000
0000
0010
0000
0000
0100
0000
,
0002
0000
0000
2003
0000
0000
3000
0000
,
1000
1001
0001
1001
,
0010
0110
0100
0110
,
0010
1010
1000
1100
,
0010
0011
0001
0101
,
0100
1001
0010
1001
,
0001
0110
1000
0110
,
1001
0110
1001
0110
,
1001
0000
0000
0000
,
0010
1000
0010
0100
,
0010
0001
0010
0100
,
0001
0010
0001
1000
,
0001
0100
0001
1000
,
0100
0010
0100
0001
,
0100
0010
0100
1000
,
0010
0100
0010
0001
,
0010
0100
0010
1000
,
0001
0100
1000
0100
,
0001
0100
1000
0100
,
0001
0010
1000
0010
,
0001
0010
1000
0010
,
1001
0000
0000
0000
,
0110
0000
0000
0000
,
1000
0001
1000
0001
,
1001
0010
0010
0010
,
0010
0010
0010
0010
,
1001
0100
0100
0100
,
0100
0100
0100
0100
,
0110
0001
0001
0001
,
0001
0001
0001
0001
,
0110
1000
1000
1000
,
1000
1000
1000
1000
,
1000
0100
1000
0100
,
0010
0001
0010
0001
,
0010
0002
2003
3002
,
1003
0000
1000
0200
0000
0000
0300
0000
,
0010
0100
0010
0100
,
1000
0010
1000
0020
,
1030
0000
0000
0100
0000
0000
1000
0000
,
0001
0000
0000
0010
0000
0000
0001
0000
,
1000
0100
0010
0001
,
1000
1001
0001
1001
,
1000
0010
0100
0001
,
0010
0110
0100
0110
,
0001
0001
1000
1000
,
0010
0010
0100
0100
,
0001
0000
0000
0002
0000
1003
0000
0000
,
1000
1001
0001
1001
,
1010
0000
0110
0000
,
0101
0000
0000
0001
,
0011
0000
0110
0000
,
1100
0000
0000
1000
,
1100
0000
1001
0000
,
1010
0000
0000
0001
,
0101
0000
1001
0000
,
0011
0000
0000
0000
,
1000
0100
0001
0010
,
1000
0100
0001
0020
,
1030
0010
0001
0100
,
1000
0010
0002
0103
,
1000
1000
0001
0001
,
1000
0000
1000
0002
0000
0000
0003
0000
,
1000
0100
0010
0001
,
0010
0100
1000
0001
,
2000
3200
2300
3001
,
0010
0000
0100
1000
0000
0000
0010
0000
,
1000
1100
0001
0101
,
1000
0000
1000
0100
0000
0000
0100
0000
,
1000
0000
1000
0001
0000
0000
0001
0000
,
0010
0000
0010
0100
0000
0000
0100
0000
,
1000
0010
0001
0100
,
1000
0010
0001
0100
,
1000
0000
0000
0000
,
0001
0000
0000
0000
,
1000
0000
0000
0000
,
2002
0000
0000
3003
,
0010
0000
0000
0000
,
0100
0000
0000
0000
,
0010
0000
0000
0000
,
0220
0000
0000
0330
,
1000
0010
1000
0000
0100
0000
0001
0000
,
0100
1000
0100
0000
1000
0000
0001
0000
,
0100
0010
0100
0000
0001
0000
0100
0000
,
0010
1000
0010
0000
0100
0000
0010
0000
,
1000
0010
1000
0000
0001
0000
0100
0000
,
0001
0010
0001
0000
0100
0000
0001
0000
,
1000
0100
1000
0000
0001
0000
0010
0000
,
0100
1000
0100
0000
0001
0000
0100
0000
,
2000
0100
0010
3001
,
0002
0010
0100
1003
,
2000
0010
0100
3001
,
0002
0100
0010
1003
,
0020
1000
0100
0031
,
0200
1000
0010
0301
,
0020
0001
0100
1030
,
0200
1000
0010
0301
,
1000
0001
1000
0000
0010
0000
0100
0000
,
0001
0010
0001
0000
0100
0000
1000
0000
,
0100
0010
0100
0000
0010
0000
1000
0000
,
0001
0100
0001
0000
1000
0000
0001
0000
,
0100
1000
0100
0000
0001
0000
0010
0000
,
0100
1000
0100
0000
1000
0000
0010
0000
,
1000
1100
0001
0101
,
0110
1001
0110
1001
,
1000
0100
0010
0001
,
1000
0000
0000
0001
0000
0000
2000
0000
,
3001
0010
0100
1000
,
1000
0200
0000
0300
1000
0200
0000
0300
,
1000
0100
1000
0100
,
0010
0001
0010
0012
,
0103
0001
0010
0100
,
1100
0000
0000
0110
0000
0000
0011
0000
,
1000
0100
0001
0100
,
2000
3100
0002
0103
,
1000
0010
0001
0010
,
1000
1000
1000
1000
,
0010
1000
0100
0001
,
0100
1000
0010
0001
,
0020
0000
0000
2030
0000
0000
3100
0000
,
2002
0000
0000
3003
,
1000
0001
0100
0020
,
1030
0100
0010
0002
,
0103
0100
0100
0100
,
0010
1010
0010
1010
,
1000
0000
0000
0100
0000
0000
0010
0000
,
0100
0000
0000
1000
0000
1000
0010
0000
,
0010
1000
0000
0001
0000
1000
0001
1000
,
0000
0100
0000
0000
0100
0010
1000
0000
,
2000
0000
0000
0100
0000
0000
3010
0000
,
0002
0000
0000
0010
0000
0000
0103
0000
,
1000
0010
1000
0000
1000
0000
1000
0000
,
0001
0100
0001
0000
0001
0000
0001
0000
,
1010
0000
1001
0000
1000
0100
0010
0000
,
0011
0000
1001
0000
0001
0010
0100
0000
,
1100
0000
1001
0000
1000
0010
0100
0000
,
0101
0000
1001
0000
0001
0100
0010
0000
,
1001
0000
1000
0000
,
1001
0000
0001
0000
,
0110
0000
0010
0000
,
0110
0000
0200
0300
,
1001
0001
0100
0010
,
1000
0000
0000
0000
1000
0000
0000
0000
1000
0000
0010
0000
0000
1000
0000
0000
,
0001
1001
1100
1010
,
0101
0001
0002
0003
,
0010
0100
0010
0100
,
1000
0000
0001
0000
0000
2000
0000
0000
,
3100
0001
0010
1000
,
0010
0001
0100
1000
,
0000
0001
0000
0010
0000
0001
0000
1000
,
0000
0001
0000
0100
0000
0001
0000
1000
,
0000
0010
0000
0100
0000
0010
0000
0001
,
0000
0010
0000
0100
0020
0000
0000
0000
,
1030
0100
1100
1000
,
0100
0000
0010
0001
0000
0000
0001
0000
,
0110
1000
0110
0001
,
0100
0000
0000
0202
0000
0303
0000
0000
,
1000
1001
0001
0100
,
0010
0110
1000
0001
,
0010
0001
0000
0100
0000
0010
0000
1000
,
0000
0001
0000
1000
0100
1000
0100
0000
,
0010
0011
0001
0100
,
0010
1010
1000
0001
,
0010
0000
0000
0100
0000
0000
0010
0000
,
0001
0100
1000
0010
,
2001
0000
0000
0000
,
3200
0000
0000
0000
,
0320
0000
0000
0000
,
0032
0000
0000
0000
,
0023
0000
0000
0000
,
0230
0000
0000
0000
,
1300
0000
0000
0010
0000
0000
0110
0000
,
0001
0001
0000
0000
0001
0000
1000
0000
,
1001
0100
0001
0100
,
1001
0100
1000
0100
,
1001
0010
0001
0010
,
1001
0010
1000
0010
,
1001
0010
1001
0010
,
1001
0100
1001
0100
,
0110
0001
0110
1000
,
1000
0001
1000
0001
1000
0001
1000
0000
,
1000
0100
0001
0100
,
1000
0100
0001
0100
,
1000
0010
0001
0010
,
1000
0010
0001
0010
,
1000
0100
0010
0001
,
1000
0010
0100
0001
,
1000
0100
0010
0001
,
1000
0100
0010
0001
1000
0100
0010
0001
,
1001
0000
0000
0000
,
0110
0000
0000
0000
,
1000
0100
0001
0010
,
1000
0000
0000
0001
0000
0000
1000
0000
0000
2002
0000
0000
0000
0000
0000
3003
;
