#TITLE:A;
#SUBTITLE:;
#ARTIST:D.J.Amuro;
#TITLETRANSLIT:;
#SUBTITLETRANSLIT:;
#ARTISTTRANSLIT:;
#CREDIT:;
#BANNER:A-bn.png;
#BACKGROUND:A-bg.png;
#LYRICSPATH:;
#CDTITLE:!PROPELAtitle.png;
#MUSIC:A.mp3;
#OFFSET:-0.962;
#SAMPLESTART:77.196;
#SAMPLELENGTH:19.476;
#SELECTABLE:YES;
#DISPLAYBPM:93.000:191.000;
#BPMS:0.000=93.000,86.000=191.000;
#STOPS:84.000=0.645
;
#BGCHANGES:;
// cache tags:
#FIRSTBEAT:0.000;
#LASTBEAT:294.000;
#SONGFILENAME:Songs/juju step2/PROPELA - A/A.sm;
#HASMUSIC:1;
#HASBANNER:1;
#MUSICLENGTH:125.010;
// end cache tags

//---------------dance-single - Blank----------------
#NOTES:
     dance-single:
     Blank:
     Hard:
     10:
     0.946,1.000,0.392,0.344,0.968,736.000,49.000,43.000,0.000,0.000:

1001
0010
0001
0010
0001
0010
0000
0100
,
1000
0000
0100
0000
1000
0000
0100
0000
1000
0000
0100
0000
0011
0000
1100
0001
,
0010
0100
0010
0100
0010
0100
0000
0010
,
0001
0000
0010
0100
1000
0000
1000
0100
0010
0000
0100
0010
1001
0000
0110
0000
,
0001
0100
0001
0100
0001
0100
0000
0010
,
1000
0000
0010
0000
1000
0000
0010
0000
1000
0000
0010
0000
0101
0000
1010
0100
,
0001
0000
1000
0000
0001
0000
1000
0000
0001
0000
1000
0000
0000
0000
0100
0010
,
0001
0000
0000
0010
0100
0000
0000
0100
1000
0000
0001
0000
0110
0000
1001
0000
,
0010
0000
0001
0000
0010
0000
0001
0000
0010
0000
0001
0000
0000
0000
0001
0010
,
0100
0000
0100
0010
0001
0000
1000
0100
0010
0000
0010
0100
1000
0000
0001
0010
,
0100
0000
0100
0010
0001
0000
0000
0000
0000
0000
0000
0000
0000
0000
1000
0100
,
0000
0000
0000
0000
0000
0000
0010
0000
0001
0100
0010
0100
1001
0000
0110
0000
,
0001
0010
0101
1010
0100
1000
0000
0010
,
1000
0000
0100
0000
1000
0000
0100
0000
1000
0000
0100
0000
0011
0000
1100
0010
,
0010
0000
0100
0000
0011
0000
1100
0000
0000
0000
0010
0000
0000
0000
0010
0100
,
1000
0000
0000
0100
0010
0000
0000
0010
0001
0000
0100
0000
1001
0000
0100
0000
,
0002
0023
0230
2300
3200
0320
0000
0031
,
2000
0000
3200
0000
0320
0000
0032
0000
0023
0000
0230
0300
0200
0000
1300
0000
,
0002
0203
0320
2030
3020
0230
0000
0301
,
2000
0000
3020
0000
0230
0000
0302
0000
0203
0000
0320
0030
0020
0000
1030
0000
,
0110
1001
0011
1100
0101
1010
0000
0220
,
0330
0000
0000
0000
0000
0000
0000
0000
0001
0010
0100
1000
0001
0010
0100
0000
1000
0000
0000
0000
0100
0000
0000
0000
0011
0000
0000
0000
0100
0000
0000
0000
,
1000
0100
0000
0010
0000
0010
1100
0010
,
0001
0010
1100
0000
0001
0010
1100
0010
,
0001
0010
0000
0100
0000
0100
0011
0100
,
1000
0100
0011
0000
0001
1000
0101
1000
,
0001
1000
0000
0001
1000
0001
1100
0001
,
0000
0001
1100
0000
1000
0001
1010
0001
,
1000
0000
0001
0000
0000
0000
1000
0000
0010
0100
0001
0000
0011
0000
1000
0100
,
0000
0100
1000
0000
0011
0100
1000
0000
0001
0000
0010
0000
1100
0000
0010
0000
,
0001
0100
0000
0100
0000
1000
0101
0010
,
0000
0010
0101
0000
1000
0100
0110
0100
,
1000
0100
0000
0100
0000
0001
0110
0100
,
0000
0100
1001
0000
0010
0100
1001
0010
,
0100
1000
0000
0100
0000
0010
0101
0010
,
0000
0100
1010
0000
0001
0100
0011
0100
,
0001
0100
0000
0010
2000
0000
0000
0000
,
0000
0000
0000
0000
3000
0000
0000
0000
1000
0100
0010
0000
0001
0010
0000
0010
,
0100
0000
1000
0000
0100
0010
0000
0010
0001
0000
0010
0100
1000
0100
0010
0000
,
0001
0000
1000
0100
0010
0000
0001
0000
0100
0010
0100
0010
0000
1000
0000
1000
,
0001
0000
0010
0000
0001
0010
0000
0010
0100
0000
1000
0001
0100
0001
0100
0000
,
0010
1000
0100
0010
0001
1000
0100
0010
0001
0010
0001
0100
0010
0000
1000
0000
,
0100
0010
0000
0010
0001
0000
1000
0100
0010
0000
0100
0010
0001
0000
1000
0000
,
0010
0100
0001
0000
0100
0010
1000
0000
0100
1000
0010
0100
0000
0010
0100
0000
,
0001
0000
1000
0100
0000
0010
0001
0010
0001
0010
0100
0000
0010
0100
1000
0000
,
1000
0010
0100
0000
0001
0100
0010
0000
1000
0100
0010
0000
0001
0010
0000
0010
,
0100
0000
1000
0000
0100
0010
0000
0010
0001
0000
0010
0100
1000
0100
0010
0000
,
0001
0000
1000
0100
0010
0000
0001
0000
0100
0010
0100
0010
0000
1000
0000
1000
,
0001
0000
0010
0000
0001
0010
0000
0010
0100
0000
1000
0001
0100
0001
0100
0000
,
0010
1000
0100
0010
0001
1000
0100
0010
0001
0010
0001
0100
0010
0000
1000
0000
,
0100
0010
0000
0010
0001
0000
1000
0100
0010
0000
0100
0010
0001
0000
1000
0000
,
0010
0100
0001
0000
0100
0010
1000
0000
0100
1000
0010
0100
0000
0010
0100
0000
,
0001
0000
1000
0100
0000
0010
0001
0010
0002
0000
0000
0000
0000
0000
0000
0000
,
1003
0100
0010
0001
0100
0001
1000
0100
0010
0000
0000
0000
1001
0000
0000
0000
,
0001
0010
0100
1000
0010
1000
0001
0010
0100
0010
0001
1000
0010
0100
0001
1000
,
0100
0010
0001
1000
0010
0100
0001
1000
0100
0010
0001
0010
0100
0010
0001
1000
,
0100
0010
0001
0100
0010
0100
0001
1000
0100
1000
0001
0010
0100
1000
0010
0100
,
0001
0010
0100
1000
0100
0010
0100
0010
0100
1000
0100
1000
0010
0100
0010
0100
,
0001
0010
0001
0010
0001
1000
0001
1000
0001
0100
0001
0100
0001
0010
0001
0010
,
0001
1000
0100
1000
0100
0010
0001
0010
0001
0010
0100
0010
0100
1000
0001
0010
,
0100
1000
0010
1000
0100
0010
0001
1000
0010
0100
0001
1000
0100
0010
0001
0010
,
0100
0000
0000
0000
0000
0000
0000
0000
0000
0000
0000
0000
0010
0000
0000
0000
0000
0000
0000
0000
0000
0000
0000
0000
0001
0000
0000
0000
0000
0000
0000
0000
0000
0000
0000
0000
1000
0000
0000
0000
0000
0000
0000
0000
0000
0000
0000
0000
0100
0000
0000
0000
0000
0000
0000
0000
0000
0000
0000
0000
0010
0000
0000
0000
0000
0000
0000
0000
0000
0000
0000
0000
0001
0000
0000
0000
0000
0000
0000
0000
0000
0000
0000
0000
1000
0000
0000
0000
0000
0000
0000
0000
0000
0000
0000
0000
0001
0000
0000
0000
0000
0000
0000
0000
0000
0000
0000
0000
0010
0000
0000
0000
0000
0000
0000
0000
0000
0000
0000
0000
0100
0000
0000
0000
0000
0000
0000
0000
0000
0000
0000
0000
1000
0000
0000
0000
0000
0000
0000
0000
0000
0000
0000
0000
0002
0003
0000
0000
0000
0000
0000
0000
0000
0000
0000
0000
1000
0000
0000
0000
0000
0000
0000
0000
0000
0000
0000
0000
0100
0000
0000
0000
0000
0000
0000
0000
0000
0000
0000
0000
0010
0000
0000
0000
0000
0000
0000
0000
0000
0000
0000
0000
,
0001
0000
0000
0000
0000
0000
0000
0000
0000
0000
0000
0000
0010
0000
0000
0000
0000
0000
0000
0000
0000
0000
0000
0000
0100
0000
0000
0000
0000
0000
0000
0000
0000
0000
0000
0000
1000
0000
0000
0000
0000
0000
0000
0000
0000
0000
0000
0000
0002
0003
0000
0000
0000
0000
0000
0000
0000
0000
0000
0000
1000
0000
0000
0000
0000
0000
0000
0000
0000
0000
0000
0000
0100
0000
0000
0000
0000
0000
0000
0000
0000
0000
0000
0000
0010
0000
0000
0000
0000
0000
0000
0000
0000
0000
0000
0000
0001
0000
0000
0000
0000
0000
0000
0000
0000
0000
0000
0000
0010
0000
0000
0000
0000
0000
0000
0000
0000
0000
0000
0000
0100
0000
0000
0000
0000
0000
0000
0000
0000
0000
0000
0000
1000
0000
0000
0000
0000
0000
0000
0000
0000
0000
0000
0000
0002
0003
0000
0000
0000
0000
0000
0000
0000
0000
0000
0000
1000
0000
0000
0000
0000
0000
0000
0000
0000
0000
0000
0000
0100
0000
0000
0000
0000
0000
0000
0000
0000
0000
0000
0000
0010
0000
0000
0000
0000
0000
0000
0000
0000
0000
0000
0000
,
0001
0000
0000
0000
0000
0000
0000
0000
0000
0000
0000
0000
0010
0000
0000
0000
0000
0000
0000
0000
0000
0000
0000
0000
0100
0000
0000
0000
0000
0000
0000
0000
0000
0000
0000
0000
1000
0000
0000
0000
0000
0000
0000
0000
0000
0000
0000
0000
0002
0003
0000
0000
0000
0000
0000
0000
0000
0000
0000
0000
1000
0000
0000
0000
0000
0000
0000
0000
0000
0000
0000
0000
0100
0000
0000
0000
0000
0000
0000
0000
0000
0000
0000
0000
0010
0000
0000
0000
0000
0000
0000
0000
0000
0000
0000
0000
0001
0000
0000
0000
0000
0000
0000
0000
0000
0000
0000
0000
0010
0000
0000
0000
0000
0000
0000
0000
0000
0000
0000
0000
0100
0000
0000
0000
0000
0000
0000
0000
0000
0000
0000
0000
1000
0000
0000
0000
0000
0000
0000
0000
0000
0000
0000
0000
0002
0003
0000
0000
0000
0000
0000
0000
0000
0000
0000
0000
1000
0000
0000
0000
0000
0000
0000
0000
0000
0000
0000
0000
0100
0000
0000
0000
0000
0000
0000
0000
0000
0000
0000
0000
0010
0000
0000
0000
0000
0000
0000
0000
0000
0000
0000
0000
,
0001
0000
0000
0000
0000
0000
0000
0000
0000
0000
0000
0000
0010
0000
0000
0000
0000
0000
0000
0000
0000
0000
0000
0000
0100
0000
0000
0000
0000
0000
0000
0000
0000
0000
0000
0000
1000
0000
0000
0000
0000
0000
0000
0000
0000
0000
0000
0000
0002
0003
0000
0000
0000
0000
0000
0000
0000
0000
0000
0000
1000
0000
0000
0000
0000
0000
0000
0000
0000
0000
0000
0000
0100
0000
0000
0000
0000
0000
0000
0000
0000
0000
0000
0000
0010
0000
0000
0000
0000
0000
0000
0000
0000
0000
0000
0000
0001
0000
0000
0000
0000
0000
0000
0000
0000
0000
0000
0000
0000
0000
0000
0000
0000
0000
0000
0000
0000
0000
0000
0000
0000
0000
0000
0000
0000
0000
0000
0000
0000
0000
0000
0000
0000
0000
0000
0000
0000
0000
0000
0000
0000
0000
0000
0000
0000
0000
0000
0000
0000
0000
0000
0000
0000
0000
0000
0000
0000
0000
0000
0000
0000
0000
0000
0000
0000
0000
0000
0000
0000
0000
0000
0000
0000
0000
0000
0000
0000
0000
0000
0000
0000
0000
0000
0000
0000
0000
0000
0000
0000
0000
0000
0000
,
0001
0010
0100
1000
0001
0010
0100
1000
0100
0010
0001
1000
0001
1000
0001
0100
,
0001
0100
0001
0010
0001
0010
0001
1000
0100
1000
0100
0010
0001
0010
0001
1000
,
0100
0000
0000
0000
0000
0000
0000
0000
0000
0000
0000
0000
1000
0000
0000
0000
0000
0000
0000
0000
0000
0000
0000
0000
0100
0000
0000
0000
0000
0000
0000
0000
0000
0000
0000
0000
0010
0000
0000
0000
0000
0000
0000
0000
0000
0000
0000
0000
0002
0003
0000
0000
0000
0000
0000
0000
0000
0000
0000
0000
0010
0000
0000
0000
0000
0000
0000
0000
0000
0000
0000
0000
0001
0000
0000
0000
0000
0000
0000
0000
0000
0000
0000
0000
0010
0000
0000
0000
0000
0000
0000
0000
0000
0000
0000
0000
0001
0000
0000
0000
0000
0000
0000
0000
0000
0000
0000
0000
0010
0000
0000
0000
0000
0000
0000
0000
0000
0000
0000
0000
0100
0000
0000
0000
0000
0000
0000
0000
0000
0000
0000
0000
1000
0000
0000
0000
0000
0000
0000
0000
0000
0000
0000
0000
0001
0000
0000
0000
0000
0000
0000
0000
0000
0000
0000
0000
0010
0000
0000
0000
0000
0000
0000
0000
0000
0000
0000
0000
0100
0000
0000
0000
0000
0000
0000
0000
0000
0000
0000
0000
1000
0000
0000
0000
0000
0000
0000
0000
0000
0000
0000
0000
,
0001
0000
0000
0000
0000
0000
0000
0000
0000
0000
0000
0000
0010
0000
0000
0000
0000
0000
0000
0000
0000
0000
0000
0000
0100
0000
0000
0000
0000
0000
0000
0000
0000
0000
0000
0000
1000
0000
0000
0000
0000
0000
0000
0000
0000
0000
0000
0000
0002
0003
0000
0000
0000
0000
0000
0000
0000
0000
0000
0000
0010
0000
0000
0000
0000
0000
0000
0000
0000
0000
0000
0000
0100
0000
0000
0000
0000
0000
0000
0000
0000
0000
0000
0000
1000
0000
0000
0000
0000
0000
0000
0000
0000
0000
0000
0000
0001
0000
0000
0000
0000
0000
0000
0000
0000
0000
0000
0000
0100
0000
0000
0000
0000
0000
0000
0000
0000
0000
0000
0000
0001
0000
0000
0000
0000
0000
0000
0000
0000
0000
0000
0000
0100
0000
0000
0000
0000
0000
0000
0000
0000
0000
0000
0000
0001
0000
0000
0000
0000
0000
0000
0000
0000
0000
0000
0000
0010
0000
0000
0000
0000
0000
0000
0000
0000
0000
0000
0000
0001
0000
0000
0000
0000
0000
0000
0000
0000
0000
0000
0000
0010
0000
0000
0000
0000
0000
0000
0000
0000
0000
0000
0000
,
0001
0000
0000
0000
0000
0000
0000
0000
0000
0000
0000
0000
1000
0000
0000
0000
0000
0000
0000
0000
0000
0000
0000
0000
0100
0000
0000
0000
0000
0000
0000
0000
0000
0000
0000
0000
1000
0000
0000
0000
0000
0000
0000
0000
0000
0000
0000
0000
0200
0300
0000
0000
0000
0000
0000
0000
0000
0000
0000
0000
0010
0000
0000
0000
0000
0000
0000
0000
0000
0000
0000
0000
0001
0000
0000
0000
0000
0000
0000
0000
0000
0000
0000
0000
0010
0000
0000
0000
0000
0000
0000
0000
0000
0000
0000
0000
0001
0000
0000
0000
0000
0000
0000
0000
0000
0000
0000
0000
0010
0000
0000
0000
0000
0000
0000
0000
0000
0000
0000
0000
0100
0000
0000
0000
0000
0000
0000
0000
0000
0000
0000
0000
1000
0000
0000
0000
0000
0000
0000
0000
0000
0000
0000
0000
0001
0000
0000
0000
0000
0000
0000
0000
0000
0000
0000
0000
0010
0000
0000
0000
0000
0000
0000
0000
0000
0000
0000
0000
0100
0000
0000
0000
0000
0000
0000
0000
0000
0000
0000
0000
1000
0000
0000
0000
0000
0000
0000
0000
0000
0000
0000
0000
,
0001
0000
0000
0000
0000
0000
0000
0000
0000
0000
0000
0000
0010
0000
0000
0000
0000
0000
0000
0000
0000
0000
0000
0000
0100
0000
0000
0000
0000
0000
0000
0000
0000
0000
0000
0000
1000
0000
0000
0000
0000
0000
0000
0000
0000
0000
0000
0000
0002
0003
0000
0000
0000
0000
0000
0000
0000
0000
0000
0000
0010
0000
0000
0000
0000
0000
0000
0000
0000
0000
0000
0000
0100
0000
0000
0000
0000
0000
0000
0000
0000
0000
0000
0000
1000
0000
0000
0000
0000
0000
0000
0000
0000
0000
0000
0000
0001
0000
0000
0000
0000
0000
0000
0000
0000
0000
0000
0000
0010
0000
0000
0000
0000
0000
0000
0000
0000
0000
0000
0000
0001
0000
0000
0000
0000
0000
0000
0000
0000
0000
0000
0000
0010
0000
0000
0000
0000
0000
0000
0000
0000
0000
0000
0000
0001
0000
0000
0000
0000
0000
0000
0000
0000
0000
0000
0000
1000
0000
0000
0000
0000
0000
0000
0000
0000
0000
0000
0000
0100
0000
0000
0000
0000
0000
0000
0000
0000
0000
0000
0000
1000
0000
0000
0000
0000
0000
0000
0000
0000
0000
0000
0000
,
0100
0000
0000
0000
0000
0000
0000
0000
0000
0000
0000
0000
0010
0000
0000
0000
0000
0000
0000
0000
0000
0000
0000
0000
0001
0000
0000
0000
0000
0000
0000
0000
0000
0000
0000
0000
0010
0000
0000
0000
0000
0000
0000
0000
0000
0000
0000
0000
0002
0003
0000
0000
0000
0000
0000
0000
0000
0000
0000
0000
1000
0000
0000
0000
0000
0000
0000
0000
0000
0000
0000
0000
0100
0000
0000
0000
0000
0000
0000
0000
0000
0000
0000
0000
1000
0000
0000
0000
0000
0000
0000
0000
0000
0000
0000
0000
0202
0000
0000
0000
0000
0000
0000
0000
0000
0000
0000
0000
0000
0000
0000
0000
0000
0000
0000
0000
0000
0000
0000
0000
0000
0000
0000
0000
0000
0000
0000
0000
0000
0000
0000
0000
0000
0000
0000
0000
0000
0000
0000
0000
0000
0000
0000
0000
0000
0000
0000
0000
0000
0000
0000
0000
0000
0000
0000
0000
0000
0000
0000
0000
0000
0000
0000
0000
0000
0000
0000
0000
0000
0000
0000
0000
0000
0000
0000
0000
0000
0000
0000
0000
0000
0000
0000
0000
0000
0000
0000
0000
0000
0000
0000
0000
,
0000
0000
0000
0000
,
0000
0000
0303
0000
;
