#TITLE:Once in a Lifetime;
#SUBTITLE:Sonic Firestorm (2004);
#ARTIST:Dragonforce;
#TITLETRANSLIT:;
#SUBTITLETRANSLIT:;
#ARTISTTRANSLIT:;
#CREDIT:;
#BANNER:Once in a LifetimeBN.png;
#BACKGROUND:Once in a LifetimeBG.png;
#LYRICSPATH:;
#CDTITLE:Joe Dcd title.png;
#MUSIC:Once in a Lifetime (cut).mp3;
#OFFSET:-1.160;
#SAMPLESTART:129.200;
#SAMPLELENGTH:12.000;
#SELECTABLE:YES;
#BPMS:0.000=200.001;
#STOPS:;
#BGCHANGES:;
// cache tags:
#FIRSTBEAT:4.000;
#LASTBEAT:956.000;
#SONGFILENAME:Songs/Astronomic Metal Collection 2/(Joe D) Once in a Lifetime/Once in a Lifetime (cut).sm;
#HASMUSIC:1;
#HASBANNER:1;
#MUSICLENGTH:289.371;
// end cache tags

//---------------dance-single - ----------------
#NOTES:
     dance-single:
     :
     Hard:
     13:
     1.000,1.000,0.843,0.553,1.000,2459.000,244.000,160.000,0.000,5.000:
0000
0000
0000
0000
,
1001
0000
0000
1000
0000
0000
0001
0000
,
0010
0000
0000
0100
0000
0000
1000
0000
,
0101
0000
0000
0010
0000
0000
0100
0000
,
2000
0000
0000
3000
0110
0000
0000
0000
,
1001
0000
0000
1000
0000
0000
0010
0000
,
0100
0000
0000
0001
0000
0000
0010
0000
,
1100
0000
0000
0000
0000
0000
0000
0000
0000
0100
0000
0000
0000
0000
0000
0000
0000
0000
0010
0000
0000
0000
0000
0010
,
0002
0000
0000
0003
1100
0000
0010
0000
,
0101
0000
0000
0100
0000
0000
0001
0000
,
0010
0000
0000
1000
0000
0000
0001
0010
,
1001
0000
0000
0000
0000
0000
0000
0000
0100
0020
0000
0000
0000
0000
0000
0030
0000
0000
1000
0000
0000
0000
0000
0000
,
0200
0000
0000
0300
0001
0000
1000
0000
,
0110
0000
0000
0010
0000
0000
0001
0000
,
0100
0000
0000
1000
0000
0000
0010
0000
,
1001
0000
0000
0100
0000
0000
0010
0000
,
0002
0000
0000
0003
1100
0000
0010
0000
,
1001
0000
0000
0010
0000
0000
1000
0000
,
0200
0300
0010
0100
,
1001
0000
0000
0001
1100
0000
0010
0000
,
1100
0101
1010
1001
,
0110
0000
0000
0001
1010
0000
0100
0000
,
1001
0000
0000
0100
0011
0000
1000
0000
,
0210
0000
0000
0020
0000
0000
0330
0000
,
1000
0100
1000
0100
0010
0000
0000
0000
0001
0010
0001
0010
0100
0000
0000
0000
,
0010
0010
1000
1000
0001
0001
1000
1000
0100
0100
1000
1000
0010
0010
1000
1000
,
0001
0001
1000
1000
0010
0010
1000
1000
0100
0100
0010
0010
0001
0001
0010
0010
,
0001
0001
1000
1000
0010
0010
1000
1000
0100
0100
1000
1000
0001
0001
1000
1000
,
0010
0010
1000
1000
0001
0001
1000
1000
0001
0010
0001
1000
0100
1000
0001
0100
,
0001
0001
1000
1000
0010
0010
1000
1000
0001
0001
1000
1000
0100
0100
1000
1000
,
0010
0010
1000
1000
0001
0001
1000
1000
0100
0100
0010
0010
0001
0001
0010
0010
,
0001
0001
1000
1000
0100
0100
1000
1000
0010
0010
1000
1000
0001
0001
1000
1000
,
0010
0010
1000
1000
0100
0100
1000
1000
0010
0100
0010
0100
0001
0010
0100
1000
,
0010
0010
1000
1000
0001
0001
1000
1000
0100
0100
1000
1000
0010
0010
1000
1000
,
0001
0001
1000
1000
0100
0100
1000
1000
0100
0100
0010
0010
0001
0001
0010
0010
,
0001
0001
1000
1000
0010
0010
1000
1000
0100
0100
1000
1000
0001
0001
1000
1000
,
0100
0100
1000
1000
0010
0010
1000
1000
0100
0100
0010
0010
0001
0001
0010
0010
,
0001
0001
1000
1000
0100
0100
1000
1000
0010
0010
1000
1000
0001
0001
1000
1000
,
0100
0100
1000
1000
0010
0010
1000
1000
0100
0100
0010
0010
0001
0001
0010
0010
,
0001
0001
1000
1000
0010
0010
1000
1000
0100
0100
1000
1000
0001
0001
1000
1000
,
0010
0100
0010
0100
0010
0100
0010
0100
0001
0010
0001
1000
0100
1000
0010
0001
,
0010
0010
0100
0100
0001
0001
0100
0100
1000
1000
0100
0100
0001
0001
0100
0100
,
1000
1000
0100
0100
0001
0001
0100
0100
0001
0001
0010
0010
0100
0100
1000
1000
,
0001
0001
0100
0100
0010
0010
0100
0100
1000
1000
0100
0100
0001
0001
0100
0100
,
0010
0010
0100
0100
1000
1000
0100
0100
0001
0001
0010
0010
0100
0100
1000
1000
,
0010
0010
1000
1000
0001
0001
1000
1000
0010
0010
1000
1000
0100
0100
1000
1000
,
0001
0001
1000
1000
0010
0010
1000
1000
0100
0100
0010
0010
0001
0001
0010
0010
,
0001
0001
1000
1000
0001
0001
1000
1000
0100
0100
1000
1000
0010
0010
0001
0010
,
0100
1000
0010
0100
0001
1000
0001
0100
0010
0100
0010
0100
0010
0100
0010
0100
,
0001
0001
0100
0100
1000
1000
0100
0100
0001
0001
0100
0100
0010
0010
0100
0100
,
0001
0001
0100
0100
1000
1000
0100
0100
0001
0001
0010
0010
0100
0100
1000
1000
,
0010
0010
0100
0100
0001
0001
0100
0100
1000
1000
0100
0100
0010
0010
0100
0100
,
0001
0001
0100
0100
1000
1000
0100
0100
0001
0001
0010
0010
0100
0100
1000
1000
,
0010
0010
0100
0100
0001
0001
0100
0100
1000
1000
0100
0100
0010
0010
0100
0100
,
0001
0001
0100
0100
0010
0010
0100
0100
1000
1000
0100
0100
0010
0010
0001
0001
,
0010
0010
0001
0001
0100
0100
0001
0001
0010
0010
0001
0001
1000
1000
0001
0001
,
1000
0100
0010
0001
0010
0001
1000
0100
0010
0001
0010
0001
0010
0100
0010
0100
,
0020
0100
0000
0100
0000
0100
0000
0130
,
0011
1100
0110
1001
,
0011
0000
1100
0000
0001
0010
0001
0000
1000
0000
0110
0000
0001
0100
0001
0000
,
1100
0000
0110
0000
0001
1000
0001
0000
1000
0000
1100
0000
0010
0100
0010
0000
,
0200
0300
1000
0100
0010
0001
1000
0001
0100
0010
0100
1000
0010
1000
0001
0100
,
0002
0003
1000
0001
1000
0010
0200
0300
1000
0100
0010
0001
0100
0010
0100
0010
,
1001
0000
0011
0000
1000
0100
1000
0000
0001
0000
0101
0000
1000
0010
1000
0000
,
0110
0000
0011
0000
1000
0100
0010
0000
0001
0000
1010
0000
0100
0001
0100
0000
,
0020
0030
0001
1000
0100
0010
0200
0300
0001
0100
1000
0010
1000
0001
0010
0001
,
0100
0010
0100
0010
0100
0000
0010
0000
1000
0001
1000
0001
1000
0010
0100
1000
,
0011
0000
0110
0000
1000
0100
1000
0000
0001
0000
1010
0000
0001
0100
0001
0000
,
1100
0000
0101
0000
0010
0100
1000
0000
0010
0000
0110
0000
0001
1000
0001
0000
,
0020
0030
0100
1000
0001
1000
0010
0100
0010
0001
0010
0100
1000
0001
0100
0010
,
0200
0300
0001
1000
0001
0010
2000
3000
0001
0010
0100
1000
0001
1000
0010
0100
,
1001
0000
0011
0000
1000
0100
1000
0000
0010
0000
1001
0000
0010
0001
0010
0000
,
1100
0000
0011
0000
1000
0100
0010
0000
0001
0000
0101
0000
1000
0010
1000
0000
,
0110
0000
0000
0000
1000
0000
0000
0000
0001
0100
0001
0000
0010
0000
0000
0000
0010
0000
0000
0000
0100
1000
0100
0000
0001
0000
0000
0000
0001
0000
0000
0000
,
0010
0100
0010
0000
1000
0000
0000
0000
1000
0000
0000
0000
1000
0000
0000
0000
0010
0000
0100
0000
0010
0000
0100
0000
0001
0000
0010
0000
0100
0000
1000
0000
,
0012
0000
0100
0000
1000
0100
1000
0000
0010
0000
0100
0000
1000
0010
1000
0000
,
0010
0000
0100
0000
1000
0100
1000
0000
0010
0000
0100
0000
1000
0010
1003
0000
,
0020
0030
0100
1000
0100
0010
0001
1000
0001
0010
0100
0010
1000
0001
1000
0100
,
0020
0030
2000
3020
0000
0030
0002
0003
,
2001
0000
0010
0000
0001
0010
0001
0000
0100
0000
0010
0000
0001
0100
0001
0000
,
0010
0000
0100
0000
0010
0001
0010
0000
0100
0000
0001
0000
0010
0100
3010
0000
,
0201
0000
1000
0000
0010
0001
0010
0000
1000
0000
0001
0000
0010
1000
0310
0000
,
0021
0000
0100
0000
0001
0100
0001
0000
1000
0000
0001
0000
1000
0100
1030
0000
,
1002
0000
0100
0000
0010
1000
0010
0000
1000
0000
0010
0000
0100
1000
0100
0000
,
0010
0000
0100
0000
0010
1000
0010
0000
0100
0000
1000
0000
0010
0100
0013
0000
,
0200
0300
0010
0001
0010
0100
1000
0001
1000
0001
0010
0100
0010
0001
1000
0001
,
0020
0030
2000
3020
0000
0030
0002
0003
,
1001
0000
0100
0000
0010
0001
0010
0000
1000
0000
0001
0000
0100
0010
0100
0000
,
0001
0000
0000
0000
0000
0000
1000
0000
0000
0000
0000
0000
0010
0000
0000
0001
0000
0000
0010
0000
0000
0000
0000
0000
1100
0000
0000
0000
0000
0000
0000
0000
0011
0000
0000
0000
0000
0000
0000
0000
1001
0000
0000
0000
0000
0000
0000
0000
,
0220
0000
0000
0000
0000
0000
0000
0330
,
1000
0100
0010
0001
0010
0001
1000
0100
0010
0001
0010
0001
1000
0100
0010
0001
,
0110
1000
0011
0100
0110
1000
1001
0011
,
0100
1000
0110
1100
0101
0001
1010
0100
,
1000
0100
0011
0100
1010
0001
0110
1001
,
0010
1100
0011
1010
0110
0001
1001
0100
,
0010
1000
0011
1000
0110
0001
1100
0110
,
1000
0100
0011
0110
0001
1000
0011
1000
,
0110
0001
0010
1100
0010
0100
0011
0100
,
0001
1000
0001
1000
0100
0010
0001
1000
0001
1000
0100
0010
0001
1000
0010
0100
,
0010
1000
0011
0100
1100
0001
0110
0011
,
0100
1001
1100
0110
0011
1000
0110
0001
,
0010
1000
0011
0100
1010
0001
0110
0011
,
1000
0001
1100
0011
0110
0001
1001
0010
,
0100
0001
1100
0001
0110
1000
0011
0110
,
0001
0010
1100
0110
0001
0100
1001
0100
,
0011
0001
1100
0110
1000
0100
0011
1000
,
0100
2000
0000
3000
0000
0000
0010
0002
0000
0003
0000
0000
0100
0020
0000
0030
0000
0000
0000
0000
0000
0000
0000
0000
,
1001
0000
0100
0000
0010
0001
0010
0000
1000
0000
0001
0000
0100
0010
0100
0000
,
1010
0000
0001
0000
1000
0100
0011
0000
0100
0000
1000
0000
0110
0001
1000
0000
,
0110
0000
1000
0000
0001
0010
1100
0000
0001
0000
1000
0000
0011
1000
0110
0000
,
1100
0000
0010
0000
0100
0010
1001
0000
0010
0000
0100
0000
0011
0100
1000
0000
,
0110
0000
0001
0000
0010
0100
1010
0000
0001
0000
1000
0000
0110
0001
1000
0000
,
0011
0000
0100
0000
0001
1000
0011
0000
0100
0000
0001
0000
0110
1000
0001
0000
,
0010
0000
0100
0000
2001
0010
0001
0000
0100
0000
0001
0000
0010
0100
3010
0000
,
0002
0023
0230
2300
3020
0230
0302
2003
,
3110
0000
0001
0000
1000
0100
1000
0000
0010
0000
0100
0000
0001
0100
0001
0000
,
1010
0000
0100
0000
1000
0100
0011
0000
1000
0000
0001
0000
0110
0001
0100
0000
,
1010
0000
0001
0000
1000
0001
0110
0000
1000
0000
0100
0000
0011
0100
1000
0000
,
0110
0000
1000
0000
0001
0100
0001
0000
0110
0000
0001
0000
1010
0100
0001
0000
,
0110
0000
1000
0000
0011
1000
0101
0000
0010
0000
0001
0000
1100
0010
0001
0000
,
0110
0000
1000
0000
0010
0100
0011
0000
1000
0000
0001
0000
0110
1000
0001
0000
,
0100
0010
0100
0010
0100
0010
1000
0001
0100
0010
0100
0010
1000
0001
0100
0010
,
1001
0000
0000
0000
1001
0000
0000
0000
0110
0000
0000
0000
0110
0000
0000
0001
,
1100
0000
0010
1000
0001
0000
0100
0020
,
0030
1000
0001
1000
0020
0030
0001
0200
,
0300
1000
0100
1000
0001
0000
0010
0200
,
0300
0000
0000
0000
0000
0000
1000
0000
0000
0000
0000
0100
0020
0000
0000
0000
0000
0000
0030
0000
0000
0000
0000
0100
0020
0000
0000
0000
0000
0000
0030
0000
0000
0000
0000
0000
1000
0000
0000
0000
0000
0000
0002
0000
0000
0000
0000
0000
,
0003
1000
0100
1000
0010
0000
0001
0200
,
0300
1000
0002
2003
3002
0023
0230
2300
,
3000
1000
0001
0010
0001
0000
0200
0300
,
0002
0000
1003
0000
0100
0010
0001
0010
1000
0000
0001
0000
1000
0000
0200
0000
,
0300
1000
0001
1000
0001
0000
0100
0020
,
0030
0002
0023
0230
2300
3002
2003
3020
,
0030
1000
0001
1000
0100
0000
0001
0020
,
0030
1000
0100
1000
0002
0013
0100
0020
,
0030
1000
0001
1000
0010
0000
0100
0002
,
0003
1000
0010
1000
0001
0000
1000
0200
,
0300
1000
0010
1000
0010
0000
0002
0003
,
0020
0000
0031
0010
0100
1000
0010
0100
0001
1000
0010
0100
0001
1000
0010
0100
,
1001
0100
0010
0000
1000
0000
0100
0000
0010
0000
0100
0000
0001
0010
0100
0000
1000
0000
0001
0000
1000
0000
0010
0000
,
0101
0010
1000
0000
0100
0000
0010
0000
0100
0000
0010
0000
1001
0100
0001
0000
1000
0000
0100
0000
1000
0000
0010
0000
,
1001
0100
0010
0000
1000
0000
0100
0000
0010
0000
0100
0000
0001
0010
0100
0000
1000
0000
0001
0000
1000
0000
0010
0000
,
0101
0010
1000
0000
0100
0000
0010
0000
0100
0000
0010
0000
1001
0100
0001
0000
1000
0000
0100
0000
1000
0000
0010
0000
,
1001
0100
0010
0000
1000
0000
0100
0000
0010
0000
0100
0000
0001
0010
0100
0000
1000
0000
0001
0000
1000
0000
0010
0000
,
0101
0010
1000
0000
0100
0000
0010
0000
0100
0000
0010
0000
1001
0100
0001
0000
1000
0000
0100
0000
1000
0000
0010
0000
,
1001
0100
0010
0000
1000
0000
0100
0000
0010
0000
0100
0000
0001
0010
0100
0000
1000
0000
0001
0000
1000
0000
0010
0000
,
0101
0000
0010
0000
1000
0000
0000
0000
0100
0000
0000
0000
0010
0000
0000
0000
0100
0000
0000
0000
0010
0000
0000
0000
1100
0000
0001
0000
0000
0000
0100
0000
0000
1000
0000
0000
0001
0000
0010
0000
0000
0000
0100
0000
0000
1000
0000
0000
,
0110
0110
0101
0101
1100
0110
0011
0110
,
1010
1010
0101
0101
1100
0011
1001
1001
,
1100
1100
0011
0011
1100
0110
0011
0110
,
1010
0000
1010
0000
0101
0000
0101
0000
1000
0100
0010
0001
0010
0100
1000
0000
,
0011
0011
0101
0101
1100
0110
0011
0110
,
1010
1010
0101
0101
1100
0011
1100
1100
,
0011
0011
0101
0101
1100
0110
0011
0110
,
1010
0000
1010
0000
0101
0000
0101
0000
0001
1000
0001
1000
0001
1000
0001
1000
,
0001
0010
0100
1000
0010
1000
0100
1000
0001
0010
0100
1000
0010
1000
0100
1000
,
0001
0010
0100
1000
0010
1000
0100
1000
0001
0010
0100
1000
0010
1000
0100
1000
,
0001
0010
0100
1000
0010
1000
0100
1000
0001
0010
0100
1000
0010
1000
0100
1000
,
0012
0000
0010
0000
0010
0000
0010
0003
,
0110
0000
0100
0000
0100
0000
0010
1000
,
0001
0010
0001
0020
0030
0200
0300
0001
,
0100
0100
1000
1000
0010
0010
1000
1000
0001
0001
1000
1000
0001
0001
1000
1000
,
0001
0000
0000
0010
0000
0000
1000
0000
0000
0100
0000
0000
0010
0000
0000
0100
0000
0000
0010
0002
0000
0000
0000
0000
0000
0000
0000
0000
0000
0000
0000
0000
0000
0000
0000
0000
0000
0000
0000
0000
0000
0000
0003
0000
0000
0000
0000
0000
,
0001
0010
0100
1000
0010
0000
0001
1000
0010
0000
0100
1000
0010
0100
0010
1000
,
0001
0000
0000
0010
0000
0000
2000
0000
3000
0000
0100
0000
0020
0000
0000
0000
,
0031
0000
0000
0000
0000
0000
0000
0000
0000
0000
0000
0000
0100
0000
0000
0000
0000
0000
0000
0000
0000
0000
0000
0000
1000
0000
0000
0000
0000
0000
0000
0000
0000
0000
0000
0000
0100
0000
0000
0000
0000
0000
0000
0000
0000
0000
0000
0000
0001
0000
0000
0000
0000
0000
0000
0000
0000
0000
0000
0000
0010
0000
0000
0000
0000
0000
0000
0000
0000
0000
0000
0000
0100
0000
0000
0000
0000
0000
0000
0000
0000
0000
0000
0000
1000
0000
0000
0000
0000
0000
0000
0000
0000
0000
0000
0000
0010
0000
0000
0000
0000
0000
0000
0000
0000
0000
0000
0000
0100
0000
0000
0000
0000
0000
0000
0000
0000
0000
0000
0000
0010
0000
0000
0000
0000
0000
0000
0000
0000
0000
0000
0000
0100
0000
0000
0000
0000
0000
0000
0000
0000
0000
0000
0000
0001
0000
0000
0000
0000
0000
0000
0000
0000
0000
0000
0000
0000
0000
0000
0000
0000
0000
0000
0000
1000
0000
0000
0000
0000
0000
0000
0000
0000
0000
0000
0000
0000
0000
0000
0000
0000
0010
0000
0000
0000
0000
0000
0000
0000
0000
0000
0000
,
0002
0000
0000
0000
0000
0000
0000
0000
0000
0023
0000
0000
0000
0000
0000
0000
0000
0000
0130
0000
0000
0000
0000
0000
1000
0000
0000
1000
0000
0000
0100
0000
0000
0100
0000
0000
0002
0000
0000
0000
0000
0000
0000
0000
0003
0000
0000
0000
,
0001
0010
0100
0001
0010
0100
0001
0010
0100
0001
1000
0100
0010
0100
1000
0010
0100
1000
0010
0100
1000
0010
1000
0100
,
0001
0010
1000
0001
0010
1000
0001
0010
1000
0001
0010
1000
0100
0010
0001
0100
0010
0001
1000
0100
0010
1000
0100
0010
,
0001
0010
0100
1000
0001
0100
1000
0100
0010
1000
0100
1000
0001
0100
0010
0100
,
0001
0010
0100
1000
0100
0010
0002
0000
0000
0000
0103
1000
0100
1000
0020
0000
,
1030
0100
1000
0100
1000
0100
1000
0100
1000
0001
0100
0001
0100
0001
0100
0001
0100
0001
0010
0100
0010
0100
0010
0100
,
1000
0000
0010
0000
1000
0000
0010
0000
1000
0000
0010
0000
1000
0000
0010
0000
1000
0000
0001
0000
0010
0000
0001
0000
0010
0000
0001
0000
0010
0000
0001
0000
0010
0000
0001
0000
0010
0000
0100
0000
0010
0000
0100
0000
0000
0010
0000
0000
,
0100
0100
0100
0100
0010
0000
0001
0000
1000
1000
1000
1000
0100
0000
0010
0000
,
1000
0100
0010
0001
0100
1000
0010
1000
0001
0010
0100
1000
0010
0100
0010
1000
,
0010
0100
0001
1000
0010
0100
0001
1000
0020
0030
2000
3000
0002
2003
3200
0300
,
0001
0010
0100
1000
0001
0010
0100
1000
0002
0003
2000
3000
0020
0230
0302
0003
,
0010
0001
0010
0100
0000
0010
0000
0001
,
1000
0001
1000
0002
0000
0000
0000
0003
,
0020
0030
1000
1000
0100
0100
0010
0010
,
0001
0001
0010
0010
0100
0100
1000
1000
,
0001
0000
0010
0100
1000
0000
0002
0000
0003
0000
1000
0000
0100
0000
0010
0000
,
0001
0000
0010
0100
1000
0000
0020
0000
0000
0000
0000
0000
0030
0000
0000
0000
,
1000
0001
0010
1000
0001
0010
0001
0010
0100
1000
0001
1000
0010
0100
0010
0100
,
1000
0000
0100
0010
0001
0000
0010
0000
0100
0000
1000
0000
0100
0000
1000
0000
0001
0000
0010
0000
0100
0000
1000
0000
0010
0000
0100
0000
1000
0000
0100
0000
,
0010
0100
0010
0001
1000
0010
0001
0010
1000
0100
0010
0100
0001
1000
0010
0100
,
0001
1000
0100
0010
0001
1000
0010
0002
0000
0000
0000
0000
0003
0000
0000
0000
,
1000
0000
0100
0000
1000
0000
0100
0000
0010
0000
0001
0000
0010
0000
1000
0000
0100
0000
0001
0000
1000
0000
0010
0000
1000
0100
0001
0000
0010
0000
0100
0000
,
1000
0000
0100
0000
0010
0000
0100
0000
0001
1000
0010
0000
0100
0000
1000
0000
0100
0000
0010
0000
0100
0000
1000
0000
0020
0000
0000
0000
0000
0000
0030
0000
,
0001
0010
0001
1000
0010
0100
0010
0001
0100
1000
0100
0010
0200
0000
0000
0300
,
1000
0100
1000
0010
1000
0100
0010
1000
0100
0001
0010
0100
0001
0010
0100
1000
0100
0010
0100
1000
0100
0010
0100
0010
,
0001
1000
0100
0020
0000
0000
0001
0000
0000
1000
0000
0000
0200
0000
0000
0300
0000
0000
1030
0000
0000
0100
0000
0000
,
0010
0000
0000
0000
0000
0000
0000
0000
1000
0000
0000
0000
0000
0000
0000
0000
0000
0000
0000
0000
0000
0000
0000
0000
0100
0010
0000
0000
0000
0000
0000
0000
0000
0000
0000
0000
0000
0000
0000
0000
0100
0000
0000
0000
0000
0000
0000
0000
1000
0000
0000
0000
0000
0000
0000
0000
0100
0000
0000
0000
0000
0000
0000
0000
,
0001
0000
1000
0020
0000
0130
1000
0100
,
1000
0100
0010
0002
0000
0000
0000
0003
,
0100
0001
0100
0001
0100
0001
1000
0010
1000
0010
0100
0010
0100
0010
0001
1000
0001
1000
0010
0001
0010
0001
0010
0001
,
1000
0100
1000
0100
1000
0100
0010
0001
0010
0001
0100
0001
0100
0001
0100
0001
0100
0001
1000
0100
1000
0100
1000
0100
,
1000
0100
0010
0001
0000
1000
0010
0001
,
0000
0100
0010
0001
0000
0020
0000
0000
,
0030
0000
0000
0000
0000
0000
0000
0000
0000
0000
0000
0000
0000
0000
0000
1000
0010
0000
0000
0000
0000
0000
0000
0000
0000
0000
0000
0000
0000
0000
0000
0001
0100
0000
0000
0000
0000
0000
0000
0000
0000
0000
0000
0000
0000
0000
0000
0001
1000
0000
0000
0000
0000
0000
0000
0000
0100
0000
0000
0000
0000
0000
0000
0000
,
1000
0010
0001
0020
0000
0130
1000
0100
,
0010
0010
1000
0001
0100
1000
0010
1000
0001
0001
0010
0100
1000
1000
0010
0100
,
0010
0000
0000
0000
0000
0000
0000
0000
0100
0000
0000
0000
0000
0000
0000
0000
1000
0000
0000
0000
0000
0000
0000
0100
0020
0000
0000
0000
0000
0000
0000
0000
0000
0000
0000
0000
0000
0000
0000
0000
0000
0000
0000
0000
0000
0000
0000
0000
0000
0000
0000
0000
0000
0000
0000
0000
0030
0000
0000
0000
0000
0000
0000
0000
,
0100
1000
0010
0002
0000
0013
0200
0300
,
1000
0001
0000
0000
0000
0000
0000
0000
0100
0000
0000
0000
0000
0000
0000
0000
0010
0000
0000
0000
0000
0000
0000
0000
0002
0000
0000
0000
0000
0000
0000
0000
0000
0000
0000
0000
0000
0000
0000
0000
0013
0000
0000
0000
0000
0000
0000
0000
0100
0000
0000
0000
1000
0000
0000
0000
0100
0000
0000
0000
1000
0000
0000
0000
,
0001
0000
0010
0000
0100
0000
1000
0100
0001
0000
0010
0000
0100
0000
1000
0000
0100
0000
1000
0000
0001
0000
0010
0000
0100
0000
1000
0000
0100
0000
1000
0000
,
0210
0300
0020
0130
0001
0001
0010
0010
,
1200
0000
0000
0000
0300
0000
1000
0100
,
1000
0001
0000
0001
0000
0100
0000
0100
,
0021
0000
0000
0000
0000
0000
0000
0000
0000
0000
0000
0000
0000
0000
0000
0030
0020
0000
0000
0000
0000
0000
0000
0000
0000
0000
0000
0000
0000
0000
0000
0030
0020
0000
0000
0000
0000
0000
0000
0000
0000
0000
0000
0000
0000
0000
0000
0030
2000
0000
0000
0000
0000
0000
0000
0000
3002
0000
0000
0000
0000
0000
0000
0000
,
0000
0000
0000
0000
0000
0000
0000
0000
0003
0000
0010
0100
1000
0000
0010
0000
,
1001
0010
0100
1000
0100
0010
0001
0010
,
1001
0010
0100
1000
0100
0010
0001
0010
,
1001
0001
0010
0010
0100
0100
1000
1000
,
0010
0000
0000
0000
0001
0000
0000
0000
0010
0000
0000
0000
0100
0000
0000
0000
0100
2000
0000
0000
0000
0000
0000
0000
0000
0000
0000
0000
3000
0000
0000
0000
,
0001
0010
0100
1000
0010
1000
0001
0100
0001
0010
0100
0010
1000
0100
1000
0001
,
0010
0000
0000
0100
0000
0000
0010
0000
0000
0001
0000
0000
1000
0000
0000
0010
0000
0000
1000
0000
0000
0100
0000
0000
0010
0000
1000
0000
0001
0000
0100
0000
1000
0000
0001
0000
0020
0000
0000
0000
0000
0000
0000
0000
0000
0000
0000
0000
,
1032
0000
0000
0000
0000
0000
0000
0000
0000
0000
0000
0000
0000
0000
0000
0003
0002
0000
0000
0000
0000
0000
0000
0000
0000
0000
0000
0000
0000
0000
0000
0003
0002
0000
0000
0000
0000
0000
0000
0000
0000
0000
0000
0000
0000
0000
0000
0000
0013
0000
0000
0000
0000
0000
0000
0000
0100
0000
0000
0000
0000
0000
0000
0000
,
1000
0000
0000
0100
0010
0000
0001
0000
0010
0000
0000
0000
0200
0000
0000
0000
0000
0000
0000
0000
0000
0000
0000
0000
0300
0000
0000
0000
0000
0000
0000
0000
,
0001
0010
0100
0010
0001
1000
0100
1000
0001
0100
0010
0100
0001
1000
0100
0010
,
0001
0010
0100
1000
0010
1000
0010
1000
0100
1000
0010
0100
0002
0000
0000
0000
,
0023
0000
0031
0001
0010
0010
0100
0100
,
0010
0010
1000
1000
0001
0100
0010
1000
,
0110
2000
3200
0320
,
1031
0002
0023
0230
,
1302
0003
0100
0010
0001
1000
0001
0010
0100
1000
0010
1000
0001
0100
0010
1000
,
0002
0003
0010
0100
0010
1000
0200
0300
0001
0010
0100
1000
0001
1000
0010
1000
,
0210
0010
0010
0010
,
0010
0010
0010
0310
,
2100
0100
0100
3100
,
0100
0010
1000
0001
0100
0010
1000
0001
0100
0010
1000
0001
0100
0010
0100
0010
,
1001
0000
0010
0000
2000
0001
0010
0000
3200
0000
0001
0000
0320
1000
0100
0000
,
0031
0000
0100
0000
0002
0010
1000
0000
0023
0000
0001
0000
0230
1000
0010
0000
,
1302
0003
0010
0100
1000
0001
1000
0010
0100
0010
0001
1000
0010
1000
0001
0010
,
0200
0300
0001
0010
0100
1000
0020
0030
0100
1000
0100
0010
0001
1000
0001
0010
,
1001
0000
0001
0000
0020
1000
0001
0000
0230
0000
0010
0000
2300
0001
0010
0000
,
3002
0000
0010
0000
1000
0010
0203
0000
1000
0000
0010
0000
0302
0010
0100
0000
,
2003
0000
0100
0000
0001
0010
0100
0000
3020
0000
0001
0000
1000
0100
1000
0000
,
0031
0010
0001
0100
0001
0010
0100
0000
1000
0100
1000
0010
1000
0100
0010
0000
,
1001
0000
0000
0000
;
