#TITLE:Hyper Hyper;
#SUBTITLE:EXoduz Violation;
#ARTIST:☺;
#TITLETRANSLIT:;
#SUBTITLETRANSLIT:;
#ARTISTTRANSLIT:Smiley;
#CREDIT:;
#BANNER:../Banner.png;
#BACKGROUND:../Background.png;
#LYRICSPATH:;
#CDTITLE:;
#MUSIC:HyperHyper.ogg;
#OFFSET:2.000;
#SAMPLESTART:99.940;
#SAMPLELENGTH:12.000;
#SELECTABLE:YES;
#BPMS:0.000=155.020;
#STOPS:0.250=0.100
,105.000=1.160
,374.000=1.380
;
#BGCHANGES:;
// cache tags:
#FIRSTBEAT:5.000;
#LASTBEAT:658.000;
#SONGFILENAME:Songs/EXoduz Violation/Hyper Hyper EV/HH.sm;
#HASMUSIC:1;
#HASBANNER:1;
#MUSICLENGTH:255.978;
// end cache tags

//---------------dance-single - ----------------
#NOTES:
     dance-single:
     :
     Challenge:
     17:
     1.000,1.000,0.184,1.000,1.000,2574.000,47.000,283.000,1.000,6.000:

0000
0000
0000
0000
,
0000
0000
0000
0000
1000
0001
1000
0100
1000
0000
0010
0100
0000
0010
0100
0000
,
0001
0000
0000
0000
1000
0100
0010
0001
1000
0000
0010
0100
0000
0010
0100
0000
,
0001
0000
0000
0000
1000
0100
0010
0100
0010
0000
0001
0100
0000
0001
0100
0000
,
0001
0000
0000
0000
1000
0100
0010
0001
1000
0000
0100
0010
0000
0010
0001
0000
,
0100
0000
0000
0000
0010
1000
0010
1000
0010
0000
0110
0000
0100
0001
0100
0001
,
0100
0000
0011
0000
0010
0100
0010
0100
0010
0000
1100
0000
1000
0010
1000
0010
,
1000
0110
0202
0000
0000
0000
0000
0000
,
0000
0000
0000
0000
,
0000
0000
0303
0000
0110
0100
0001
1000
0010
0100
0001
0010
0100
1000
0100
1000
,
0010
1000
0010
0100
0010
0100
0001
0100
0001
0010
0100
1000
0001
0010
0100
1000
,
0010
1000
0010
0100
0010
0100
0001
0100
0001
1000
0001
1000
0001
1000
0100
0010
,
0100
1000
0001
0010
0100
0010
0001
1000
0010
0100
0001
0010
0100
1000
0001
0010
,
0100
0010
0001
1000
0100
0010
0001
1000
0001
1000
0001
0010
0100
1000
0100
0010
,
0001
1000
0010
0100
0001
1000
0010
0100
0010
0100
0001
0010
0100
1000
0100
0010
,
0001
1000
0100
0010
0100
1000
0001
0010
0100
0010
0001
1000
0010
1000
0010
0100
,
0001
0010
0100
1000
0001
0010
0001
1000
0001
0100
0001
0010
0001
1000
0001
0100
,
0001
0010
0100
0010
0001
1000
0100
0010
0100
1000
0010
1000
0010
1000
0100
1000
,
0010
0100
0001
0100
0001
0010
0001
1000
0001
0100
0001
0010
0100
0010
0001
1000
,
0100
0010
0100
1000
0010
1000
0001
1000
0100
0010
0001
0100
0001
0100
0010
1000
,
0100
0010
0100
1000
0010
0100
0001
0010
0001
0100
0001
1000
0001
1000
0001
1000
,
0010
0100
0001
1000
0010
1000
0010
0100
0001
1000
0001
1000
0100
0010
0100
1000
,
0001
0010
0100
0010
0001
1000
0010
0100
0001
0100
0001
1000
0010
0100
0001
0010
,
0100
0010
0001
1000
0100
0010
0100
1000
0010
0100
0001
1000
0100
1000
0100
0010
,
0001
1000
0100
0010
0001
0010
0001
1000
0100
0010
0001
0010
0001
1000
0100
0010
,
0001
0000
0000
0100
0000
0000
0010
0000
0000
1000
0000
0000
0001
0000
1000
0000
0001
0000
1000
0000
0000
0000
0000
0000
0100
0000
0010
0000
0000
0000
0000
0000
0000
0000
0100
0000
0010
0000
0000
0000
0100
0000
0010
0000
0000
0000
0000
0000
,
0001
0000
0000
0000
0000
0000
0000
0000
0100
0000
0000
0000
0000
0000
0000
0000
0010
0000
0000
0000
0000
0000
0000
0000
1000
0000
0000
0000
0000
0000
0000
0000
0001
0000
0000
0000
0000
0000
0000
0000
0100
0000
0000
0000
0000
0000
0000
0000
0010
0000
0000
0000
0000
0000
0000
0000
0000
0000
0000
0000
0000
0000
0000
0000
0000
0000
0000
0000
0000
0000
0000
0000
0100
0000
0000
0000
0000
0000
0001
0000
0000
0000
0000
0000
0100
0000
0000
0000
0000
0000
0001
0000
0000
0000
0000
0000
0100
0000
0000
0000
0000
0000
0000
0000
0000
0000
0000
0000
0001
0000
0000
0000
0000
0000
0000
0000
0000
0000
0000
0000
1000
0000
0000
0000
0000
0000
0000
0000
0000
0000
0000
0000
0010
0000
0000
0000
0000
0000
0000
0000
0000
0000
0000
0000
0100
0000
0000
0000
0000
0000
0000
0000
0000
0000
0000
0000
0001
0000
0000
0000
0000
0000
0000
0000
0000
0000
0000
0000
0010
0000
0000
0000
0000
0000
0000
0000
0000
0000
0000
0000
0100
0000
0000
0000
0000
0000
0000
0000
0000
0000
0000
0000
,
1000
0001
0010
0100
0010
0001
1000
0010
1000
0001
1000
0100
0010
0100
1000
0001
,
0010
0100
0010
0001
0100
0001
1000
0001
0100
0001
1000
0100
0010
0001
1000
0010
,
1000
0010
0100
0001
1000
0001
1000
0100
0010
0001
0010
0100
1000
0001
0010
0100
,
1000
0010
0100
0010
0100
0001
1000
0010
0100
0001
0010
0100
0010
0001
1000
0100
,
0010
0100
1000
0001
1000
0100
1000
0010
1000
0001
0100
0001
0010
0001
0100
0001
,
1000
0010
0100
0001
0100
0001
1000
0010
0100
0001
0010
0100
0010
0001
1000
0100
,
0010
0001
1000
0100
0010
0001
1000
0100
1000
0100
1000
0010
0100
0001
1000
0010
,
0100
0010
0100
0001
0100
0001
1000
0010
0100
0001
0010
0100
0010
0001
1000
0100
,
0010
0100
1000
0001
0010
0100
1000
0010
0100
0001
1000
0010
1000
0010
1000
0001
,
1000
0100
0010
0001
0100
0001
1000
0001
0100
0001
0010
0100
1000
0001
0010
0100
,
0010
0001
1000
0100
0010
0100
1000
0010
0100
0001
1000
0010
0100
0001
0010
0001
,
0010
0001
1000
0010
1000
0001
1000
0100
0010
0001
0100
0001
0100
0001
0010
0100
,
1000
0001
0010
0100
1000
0010
0100
0001
1000
0010
1000
0010
0100
0001
0100
0001
,
1000
0010
0100
0001
0010
0100
1000
0001
0010
0001
1000
0010
1000
0010
0100
0001
,
1000
0010
0100
0001
0010
0100
1000
0001
0010
0001
1000
0010
1000
0010
0100
0001
,
1000
0000
0000
0010
0000
0000
0100
0000
0000
0001
0000
0000
0010
0000
0000
0100
0000
0000
1000
0000
0000
0001
0000
0000
1000
0000
0100
0000
1000
0000
0100
0000
1000
0000
0100
0000
0010
0000
0100
0000
0010
0000
0100
0000
0010
0000
0100
0000
,
0010
0001
0010
0001
0010
0001
0100
0001
0100
0001
0100
0001
0400
0000
0000
0000
0000
0000
0000
0000
0000
0000
0000
0000
,
0000
0000
0000
0000
0000
0000
0300
0000
0100
0001
1000
0010
0100
0001
1000
0010
,
0100
0001
1000
0010
0100
0001
1000
0010
0100
0001
0010
0100
1000
0001
0010
0100
,
1000
0001
0010
0100
1000
0001
0010
0100
1000
0001
0010
0100
1000
0010
0100
0001
,
1000
0010
0100
0001
1000
0010
0100
0001
1000
0010
0100
0001
0010
0100
1000
0001
,
0010
0100
1000
0001
0010
0100
1000
0001
0110
1000
0001
0010
0100
1000
0010
0100
,
0001
1000
0010
0100
0001
0010
0100
1000
0010
0100
0001
0010
0100
1000
0010
0100
,
0001
0010
0100
1000
0010
0100
0001
1000
0010
0100
0001
1000
0010
0100
0001
1000
,
0100
1000
0001
1000
0010
1000
0001
1000
0100
1000
0001
1000
0010
1000
0100
1000
,
0001
1000
0010
1000
0100
1000
0001
1000
0110
0001
0100
0001
0010
0001
1000
0001
,
0100
0001
0010
0001
1000
0001
0100
0001
0010
0001
0100
0001
1000
0001
0100
0001
,
1000
0001
0010
0100
1000
0001
0010
0100
1000
0010
0100
0001
1000
0010
0100
0001
,
0010
0100
1000
0010
0100
0001
0010
0100
1000
0010
0100
0001
1000
0010
0100
0001
,
1000
0100
0010
0001
1000
0100
0010
0001
1000
0100
0010
0001
0010
0100
1000
0001
,
0010
0100
1000
0100
0010
0001
0010
0100
1000
0100
0010
0001
0010
0100
1000
0010
,
0100
0001
1000
0010
0100
0001
0010
0100
1000
0010
0100
0001
0010
0100
1000
0001
,
0010
0100
1000
0001
0010
0100
1000
0001
0220
0000
0000
0000
0000
0000
0000
0330
,
2200
0000
0000
0000
0000
0000
0000
0000
0000
3300
0000
0000
1000
0000
0001
0000
0100
0000
0001
0000
1000
0000
0010
0000
0200
0000
0001
0300
1000
0000
0010
0000
0100
0000
0001
0000
0010
0000
0100
0000
1000
0000
0001
0000
0010
0000
0001
0000
,
0010
0001
0010
0100
1000
0010
1000
0010
0100
0001
1000
0010
1000
0010
0100
0010
0100
0010
0100
0001
1000
0001
1000
0100
,
0010
0001
1000
0100
0010
0001
1000
0010
1000
0010
0100
0001
0010
0001
0010
0001
0010
0100
1000
0001
1000
0100
1000
0100
,
1000
0010
0100
0001
0010
0100
1000
0100
0010
0001
1000
0010
1000
0010
0100
0001
1000
0001
1000
0001
1000
0100
0010
0001
,
1000
0010
1000
0010
1000
0010
0100
0001
0100
0001
0100
0001
0010
0100
1000
0100
0010
0001
1000
0010
1000
0010
0100
0001
,
1000
0001
1000
0001
1000
0001
1000
0001
0100
0001
0010
0100
1000
0010
1000
0010
1000
0010
0100
0001
1000
0010
1000
0010
,
0100
0001
0010
0100
1000
0001
0010
0001
1000
0001
1000
0001
0100
0001
0100
0001
0100
0001
0010
0100
1000
0001
0010
0100
,
1000
0010
1000
0010
0100
0001
1000
0010
1000
0010
0100
0010
0100
0001
0010
0100
1000
0001
0010
0001
1000
0010
0100
0001
,
0010
0000
0100
0000
1000
0000
0001
0000
0010
0000
0001
0000
1000
0000
0001
0000
0100
0000
0001
0000
1000
0000
0000
0000
0110
0000
0000
0100
0000
0000
0001
0000
0000
0010
0000
0000
0100
0000
0000
1000
0000
0000
0010
0000
0000
1000
0000
0000
,
0010
0100
0001
0010
0100
1000
0001
0010
0100
1000
0010
1000
0010
0100
0001
1000
,
0100
0010
0001
1000
0010
0100
0001
0010
0100
1000
0001
0010
0001
1000
0001
0100
,
0001
0010
0100
1000
0100
0010
0001
1000
0100
0010
0100
1000
0001
0010
0100
0010
,
0001
1000
0010
0100
0001
1000
0010
1000
0010
0100
0001
1000
0100
0010
0001
0010
,
0100
1000
0010
1000
0010
0100
0001
1000
0100
1000
0010
1000
0001
1000
0100
0010
,
0001
0100
0001
1000
0001
0100
0001
0010
0001
1000
0001
1000
0001
1000
0100
0010
,
0001
0100
0010
1000
0001
0010
0100
1000
0010
0100
0001
1000
0220
0000
0000
0330
,
0220
0000
0000
0330
0022
0000
0000
0033
0110
0100
1000
0001
0010
0100
1000
0010
,
0100
0001
1000
0010
0100
0001
0010
0100
1000
0001
0010
0100
2000
0000
3000
0000
,
2222
3333
0000
0000
2222
3333
0000
0000
2000
0001
3100
0010
1000
0100
0010
0001
,
1000
0010
0100
0001
0010
0100
1000
0001
0010
0001
1000
0010
0100
0001
0010
0000
,
0110
0000
0000
1100
0011
0000
0110
0000
1100
0000
0100
0010
0001
1000
0010
0100
,
0001
1000
0001
0100
0001
0010
0001
0100
1000
0010
0100
0001
0020
0000
0030
0000
,
2222
3333
0000
0000
2222
3333
0000
0000
0020
0100
1030
0010
0100
0001
1000
0010
,
0100
0001
1000
0001
1000
0010
0100
0001
0010
0100
1000
0010
0100
0001
0000
0011
,
1100
0000
1001
1001
0000
0101
0100
0000
0110
0000
1000
0001
0100
0010
1000
0100
,
0010
0001
0010
0001
1000
0010
0100
0001
0010
0100
1000
0001
0020
0000
0030
0000
,
2222
3333
0000
0000
2222
3333
0000
0000
0040
0100
1030
0010
0100
0001
1000
0010
,
0100
0001
0010
0100
1000
0001
0010
0001
0100
0001
1000
0010
0100
0001
1000
0010
,
0100
0001
0010
0100
1000
0001
0010
0001
0100
0001
1000
0010
0100
0001
1000
0010
,
1000
0010
0100
0001
1000
0100
1000
0001
1000
0010
0100
0001
0010
0100
1000
0001
,
0010
0001
0100
0001
1000
0010
0100
0001
0010
0100
1000
0010
1000
0010
0100
0001
,
1000
0010
0100
0001
0010
0100
1000
0001
0010
0001
0100
0001
1000
0010
0100
0001
,
0010
0100
1000
0010
0100
0001
1000
0010
0220
0000
0000
0330
2020
0000
0000
3030
,
0202
0000
0000
0303
0220
0000
0000
0330
1100
0000
0001
1000
0001
0100
0010
1000
,
0100
0010
0001
1000
0010
0100
0001
0010
0100
1000
0001
0010
0001
1000
0010
0100
,
0001
1000
0010
0100
0001
0010
0100
1000
0100
1000
0010
0100
0001
1000
0001
1000
,
0001
0010
0100
1000
0100
0010
0001
1000
0010
0100
0001
1000
0001
0100
0001
0010
,
0100
1000
0010
1000
0100
1000
0010
0100
0001
1000
0010
0100
0001
0100
0001
0010
,
0100
1000
0010
0100
0001
1000
0001
0100
0001
0010
0100
1000
0100
0010
0001
1000
,
0010
1000
0010
1000
0001
1000
0100
0010
0001
1000
0100
0010
0001
1000
0010
0100
,
0001
1000
0001
0100
0001
0010
0100
1000
0001
0010
0100
1000
0010
0100
0001
1000
,
0010
0100
0001
1000
0001
1000
0100
0010
0001
1000
0200
0310
0001
1000
0010
0100
,
0001
1000
0001
0100
0010
1000
0100
0010
0001
1000
0010
0100
0001
1000
0010
0100
,
0001
0010
0001
0010
0100
1000
0010
0100
0001
1000
0020
0130
0001
0010
0100
1000
,
0001
0010
0001
0100
0010
1000
0100
0010
0001
1000
0100
0010
0001
1000
0010
0100
,
0001
0010
0100
1000
0001
0010
0001
1000
0001
0100
0001
1000
0010
1000
0001
1000
,
0100
0010
0001
1000
0100
0010
0001
1000
0010
0100
0001
1000
0100
0010
0001
1000
,
0010
0100
0001
0010
0100
1000
0001
0010
0100
1000
0010
0100
0001
0100
0001
1000
,
0010
0100
0001
1000
0100
0010
0001
1000
0010
0100
0001
0010
0100
1000
0001
0010
,
0100
1000
0010
0100
0001
1000
0100
0010
0001
1000
0020
0230
0302
0023
0230
2300
,
3020
0230
0302
2003
3020
0230
0302
0023
0230
2300
3002
0023
0230
2300
3020
0230
,
0302
0203
0302
0023
0230
2300
3002
0000
0000
0000
0000
0000
0000
0000
2003
3002
,
0203
0320
2030
3200
0320
0032
0023
0032
2003
3020
0230
0302
0023
0230
2300
3020
,
0230
0302
2003
3020
2030
3200
0320
0000
0000
0000
0000
0000
0000
0000
0032
2003
,
3020
0230
0302
0023
0230
2300
3020
0230
0302
2003
3020
0230
0302
0023
0230
2300
,
3002
0023
0032
2003
3020
2030
3200
0000
0000
0000
0000
0000
0000
0000
0320
0032
,
2003
3020
0230
0320
2030
3200
0320
0032
2003
3020
0230
0302
0023
0230
2300
3002
,
2003
3002
2003
3020
0230
0302
2003
0000
0000
0000
0000
0000
0000
0000
3002
0203
,
0320
2030
3200
0320
0032
2003
3020
0230
0302
2003
3020
2030
3200
0320
0032
0203
,
0302
0023
0230
2300
3020
0230
0304
0000
0000
0000
0000
0000
0000
0000
2003
3002
,
0203
0320
2030
3200
0320
0032
2003
3020
2030
3200
0320
0032
0203
0302
0023
0230
,
2300
3200
0320
0032
2003
3020
0430
0000
0000
0000
0000
0000
0000
0000
0302
2003
,
3020
0230
0302
2003
3020
0230
0302
0023
0230
2300
3020
0230
0302
2003
3020
2030
,
3200
0320
0032
0203
0302
0023
0430
0000
0000
0000
0000
0000
0000
0000
2300
3002
,
0203
0320
2030
3200
0320
0032
2003
3020
2030
3200
0310
0000
0022
0033
0202
0303
,
0202
0303
0220
0000
0000
0330
2200
0000
0000
3300
1000
0001
0100
0010
1000
0100
,
0010
0001
1000
0010
0100
0001
0010
0100
1000
0010
1000
0010
1000
0100
0010
0001
,
0100
0000
0000
0010
0000
0000
1000
0000
0001
0000
0100
0000
0020
0000
0000
0000
0000
0000
1030
0000
0001
0000
0100
0000
0010
0000
0000
0000
0000
0000
1000
0000
0000
0001
0000
0000
0100
0000
0000
0010
0000
0000
1000
0000
0000
0100
0000
0000
,
0010
0001
1000
0010
0100
0001
1000
0010
0100
0001
0010
0100
1000
0010
0100
0001
,
1000
0000
0000
0010
0000
0000
1000
0000
0001
0000
0100
0000
0010
0000
0000
1000
0000
0000
0100
0000
0000
0010
0000
0000
0001
0000
0000
1000
0000
0000
0010
0000
0000
0100
0000
0000
0001
0000
0000
1000
0000
0000
0010
0000
0000
0100
0000
0000
,
0001
0010
0001
0100
0001
1000
0010
1000
0100
0010
0001
0100
0010
1000
0100
0010
,
0001
0000
0000
0010
0000
0000
0001
0000
1000
0000
0010
0000
0100
0000
0000
0000
0000
0000
1000
0000
0001
0000
0100
0000
0010
0000
0000
0000
0000
0000
1000
0000
0000
0001
0000
0000
0100
0000
0000
0001
0000
0000
1000
0000
0000
0010
0000
0000
,
1000
0010
1000
0100
0010
0001
1000
0010
1000
0100
0010
0001
0100
0001
0100
0010
,
1000
0000
0001
0000
0100
0000
0010
0000
0000
1000
0000
0000
0001
0000
0000
0100
0000
0000
0010
0000
0000
1000
0000
0000
0001
0000
0000
0100
0000
0000
0001
0000
0000
0100
0000
0000
0001
0000
0000
1000
0000
0000
0010
0000
0000
0100
0000
0000
,
0001
0010
0100
1000
0010
1000
0010
0100
0001
0010
0100
1000
0001
0010
0001
1000
,
0001
0000
0000
0100
0000
0000
0010
0000
1000
0000
0001
0000
0100
0000
0000
0000
0000
0000
0010
0000
1000
0000
0100
0000
1000
0000
0000
0000
0000
0000
0100
0000
0000
0010
0000
0000
0001
0000
0000
1000
0000
0000
0010
0000
0000
0100
0000
0000
,
0001
0100
0001
1000
0010
1000
0010
1000
0100
0010
0001
0100
0010
1000
0001
0100
,
0010
0000
1000
0000
0100
0000
0010
0000
0000
0001
0000
0000
1000
0000
0000
0010
0000
0000
0100
0000
0000
0001
0000
0000
0010
0000
0000
0100
0000
0000
1000
0000
0000
0100
0000
0000
0010
0000
0000
0001
0000
0000
1000
0000
0000
0010
0000
0000
,
1000
0010
0100
0001
0010
0100
0010
0001
1000
0100
0010
0100
1000
0010
0100
0001
,
1000
0000
0000
0010
0000
0000
0100
0000
0001
0000
1000
0000
0010
0000
0000
0000
0000
0000
0100
0000
0001
0000
0100
0000
0001
0000
0000
0000
0000
0000
1000
0000
0000
0001
0000
0000
0100
0000
0000
0010
0000
0000
1000
0000
0000
0100
0000
0000
,
0010
0001
0010
0001
1000
0010
0100
0001
0010
0100
1000
0100
1000
0010
0100
0001
,
2000
3002
0203
0320
2030
3200
0320
0032
2003
3020
0430
0304
0043
0430
4300
3040
,
0430
0000
0000
0304
0000
0000
4003
0000
0000
3400
0000
0000
4300
0000
0000
3400
0000
0000
4300
0000
0000
3040
0000
0000
0430
0000
0000
0304
0000
0000
1003
0000
0001
0000
0100
0000
0010
0000
1000
0000
0100
0000
1000
0000
0010
0000
0100
0000
,
0001
0100
0001
1000
0010
0100
0001
0010
0001
0010
0100
0010
0200
0000
0000
1300
0010
0100
0001
0010
0001
0010
0001
0100
,
0010
1000
0010
1000
0100
0010
0001
0100
0001
0100
0010
1000
0020
0000
0000
0130
0001
0100
0001
1000
0010
0100
0001
0010
,
0100
1000
0100
1000
0010
0100
0001
1000
0010
1000
0010
0100
0002
0000
0000
0103
0010
1000
0010
1000
0100
0010
0001
0100
,
0001
0100
0010
1000
0100
0010
0001
0010
0001
1000
0010
0100
0002
0000
0000
1003
0001
1000
0001
1000
0001
1000
0010
1000
,
0010
0100
0001
0010
0100
1000
0100
1000
0100
1000
0010
0100
0002
0000
0000
1003
0001
1000
0010
0100
0001
0010
0001
0010
,
0100
1000
0010
1000
0010
0100
0001
1000
0100
0010
0100
1000
0002
0000
0000
1003
0001
1000
0010
0100
0010
0100
0001
1000
,
0010
0100
0001
0010
0001
0010
0001
1000
0010
1000
0010
0100
0002
0000
0000
1003
0100
0010
0001
1000
0010
1000
0010
1000
,
0010
1000
0100
0010
0001
0100
0001
1000
0010
1000
0100
1000
0020
0000
0000
0130
0001
1000
0010
0100
0010
1000
0100
0010
,
0001
0100
0001
0100
0001
1000
0010
1000
0010
1000
0100
0010
0002
0000
0000
0103
0010
1000
0100
0010
0001
0100
0010
0100
,
0010
1000
0100
0010
0001
1000
0010
1000
0010
0100
0001
0010
0200
0000
0000
1300
0001
1000
0010
1000
0010
1000
0001
0100
,
0001
0100
0001
0100
0010
1000
0100
0010
0001
1000
0100
0010
0002
0000
0000
1003
0001
0100
0001
1000
0010
1000
0010
0100
,
0001
1000
0010
1000
0100
0010
0001
1000
0100
0010
0001
1000
0200
0000
0000
0310
0001
1000
0010
0100
0001
0100
0001
1000
,
0010
0100
0001
0010
0100
1000
0001
0010
0001
1000
0010
0100
0002
0000
0000
1003
0001
1000
0010
0100
0001
0010
0100
1000
,
0100
1000
0001
1000
0100
1000
0001
1000
0010
0100
0001
1000
0020
0000
0000
0130
0001
1000
0010
0100
0001
0010
0001
0010
,
0001
1000
0010
1000
0010
0100
0001
0010
0100
1000
0010
0100
0002
0000
0000
1003
0010
0100
0010
1000
0100
0010
0001
0010
,
0100
1000
0010
0100
0001
0010
0100
0010
0001
1000
0100
0010
0200
0000
0000
1300
0010
0100
0001
1000
0010
1000
0010
1000
,
0010
1000
0010
0100
0001
0010
0100
1000
0001
0010
0100
1000
0002
0000
0000
0013
0100
1000
0001
0010
0100
1000
0010
0100
,
0010
1000
0100
0010
0001
0100
0001
0100
0001
0010
0100
1000
0020
0000
0000
0130
0001
1000
0010
0100
0001
0010
0100
1000
,
0100
1000
0010
0100
0001
1000
0010
1000
0010
0100
0001
0010
0200
0000
0000
1300
0001
0010
0100
1000
0010
0100
0001
1000
,
0010
0100
0001
0010
0100
1000
0100
1000
0010
0100
0001
1000
0020
0000
0000
0130
0001
1000
0010
0100
0001
0010
0100
1000
,
0100
1000
0001
0010
0100
1000
0100
1000
0010
0100
0001
1000
0020
0000
0000
0230
0000
0000
M000
0000
0000
0000
0000
0000
,
0000
0000
0300
0000
;
