#TITLE:blur;
#SUBTITLE:;
#ARTIST:Arch0wl;
#TITLETRANSLIT:;
#SUBTITLETRANSLIT:;
#ARTISTTRANSLIT:;
#CREDIT:;
#BANNER:blur.png;
#BACKGROUND:blur-bg.png;
#LYRICSPATH:;
#CDTITLE:!a0Title.png;
#MUSIC:blur.mp3;
#OFFSET:-0.715;
#SAMPLESTART:13.215;
#SAMPLELENGTH:12.000;
#SELECTABLE:YES;
#BPMS:0.000=480.000;
#STOPS:;
#BGCHANGES:;
// cache tags:
#FIRSTBEAT:4.000;
#LASTBEAT:465.000;
#SONGFILENAME:Songs/IzzySM Keyboard Mega Pack/blur (Keyboard Only)/blur.sm;
#HASMUSIC:1;
#HASBANNER:1;
#MUSICLENGTH:61.084;
// end cache tags

//---------------dance-single - ----------------
#NOTES:
     dance-single:
     :
     Hard:
     14:
     1.000,1.000,1.000,0.098,0.000,469.000,84.000,6.000,0.000,0.000:  // measure 1
0000
0000
0000
0000
,  // measure 2
1000
0100
1000
0100
0010
0001
0010
0001
,  // measure 3
1000
0001
1000
0001
0100
0010
0100
0010
,  // measure 4
1000
0100
0010
0001
0100
0010
0000
0000
,  // measure 5
0000
0000
0000
0000
,  // measure 6
0000
0000
0000
0000
0000
0010
0001
0010
,  // measure 7
0001
1000
0100
1000
0100
1000
0001
1000
,  // measure 8
0001
0100
0010
0100
0010
1000
0010
0100
,  // measure 9
0001
0000
0000
0000
,  // measure 10
0000
0000
0000
0000
,  // measure 11
1000
0001
1000
0001
0100
0010
0100
0010
,  // measure 12
1000
0100
1000
0100
0010
0001
0010
0001
,  // measure 13
1000
0100
0010
0001
0000
0000
0000
0000
,  // measure 14
0000
0000
0000
0000
,  // measure 15
0000
0000
0000
0100
1000
0100
1000
0100
,  // measure 16
0010
0100
0010
0001
1000
0001
1000
0100
,  // measure 17
1000
0100
0010
0100
0010
0100
0010
0001
,  // measure 18
0010
0001
1000
0010
2002
0000
0000
0000
,  // measure 19
0000
0000
0000
0000
,  // measure 20
3003
0000
0000
0000
,  // measure 21
0000
0000
0000
0000
,  // measure 22
0000
0000
0000
0000
,  // measure 23
0000
0000
0000
0000
,  // measure 24
0000
0000
0000
0000
,  // measure 25
0000
0000
0000
0000
,  // measure 26
0100
1000
0100
1000
0010
0100
0010
0100
,  // measure 27
0001
0010
0001
0010
0100
1000
0100
1000
,  // measure 28
0001
1000
0001
1000
0010
1000
0010
1000
,  // measure 29
0001
0010
0001
0010
0100
0010
0100
0010
,  // measure 30
0001
1000
0001
1000
0010
0100
0010
0100
,  // measure 31
0001
0100
0001
0010
2200
0000
0000
0000
,  // measure 32
0000
0000
0000
0000
,  // measure 33
3300
0000
0000
0000
,  // measure 34
0000
0000
0000
0000
,  // measure 35
0000
0000
0000
0000
0010
0001
0010
0001
,  // measure 36
0010
0100
0010
0100
1000
0001
1000
0001
,  // measure 37
1000
0100
1000
0100
0010
0100
0010
0100
,  // measure 38
1000
0001
1000
0001
0010
0001
0100
2020
,  // measure 39
0000
0000
0000
0000
,  // measure 40
0000
0000
0000
0000
0000
3030
0000
0000
,  // measure 41
0000
0000
0000
0000
,  // measure 42
0000
0000
0000
0000
0000
0000
0000
0110
,  // measure 43
1001
0000
0000
0011
0100
1010
0000
0000
,  // measure 44
1010
0100
0011
0000
0000
0101
0010
1100
,  // measure 45
0000
0000
1000
1000
1000
0000
0000
0100
,  // measure 46
0100
0100
0000
0000
0010
0010
0010
0000
,  // measure 47
0000
0001
0001
0001
0000
0000
1000
1000
,  // measure 48
1000
1000
0100
0100
0100
0100
0010
0010
,  // measure 49
0010
0010
0001
0001
0001
0001
1000
1000
,  // measure 50
1000
1000
0100
0100
0100
0100
0010
0010
,  // measure 51
0010
0010
0001
0001
0001
0001
1100
1100
,  // measure 52
1100
1100
0110
0110
0110
0110
0011
0011
,  // measure 53
0011
0011
1001
1001
1001
1001
0110
0110
,  // measure 54
0110
0110
1001
1001
1001
1001
0110
0110
,  // measure 55
0110
0110
1001
1001
1001
1001
0110
0110
,  // measure 56
0110
0110
1001
1001
1001
1001
0110
0110
,  // measure 57
0110
0110
1001
1001
1001
1001
0110
1001
,  // measure 58
0110
1001
0110
0000
0000
0000
0000
0000
,  // measure 59
0000
0000
0000
0000
,  // measure 60
0000
0000
0000
0000
,  // measure 61
0000
0000
0000
0000
,  // measure 62
0000
0000
0000
0000
0000
0000
0000
1000
,  // measure 63
0100
0010
0001
0010
0100
1000
0100
0010
,  // measure 64
0001
0010
0100
1000
0100
0010
0001
0010
,  // measure 65
0100
1000
0100
0010
0001
0010
0100
1000
,  // measure 66
0100
0010
0001
0010
0100
1000
0100
0010
,  // measure 67
0001
0010
0100
1000
0001
0010
0100
1000
,  // measure 68
0001
0010
0100
1000
0001
0010
0100
1000
,  // measure 69
0001
0010
0100
1000
0100
1000
0100
0010
,  // measure 70
0001
1000
0100
0010
0001
1000
0100
0010
,  // measure 71
0001
1000
0100
0010
0001
0010
0100
1000
,  // measure 72
0001
0010
0100
1000
0001
0010
0100
1000
,  // measure 73
0001
0010
0100
1000
0100
0010
0001
1000
,  // measure 74
0100
0010
0001
1000
0100
0010
0001
1000
,  // measure 75
0100
0010
0001
0010
0100
1000
0001
0010
,  // measure 76
0100
1000
0001
0010
0100
1000
0001
0010
,  // measure 77
0000
0000
0000
0000
,  // measure 78
0000
0000
0000
0000
,  // measure 79
0000
0000
0000
0000
,  // measure 80
0000
0000
0000
0000
,  // measure 81
0000
1001
0110
1001
0000
0000
0000
0011
,  // measure 82
1100
0011
0000
0000
0000
1010
0101
1010
,  // measure 83
0000
0000
0000
0101
1010
0101
0000
0000
,  // measure 84
0000
1001
0110
1001
0000
0000
0000
0110
,  // measure 85
1001
0110
0000
0000
0000
1001
0000
0000
,  // measure 86
0000
0000
0000
0000
,  // measure 87
0000
0000
0000
0000
,  // measure 88
0000
0000
0000
0000
,  // measure 89
0000
0000
0000
1000
0000
0000
0000
0000
,  // measure 90
0000
0000
0000
0000
,  // measure 91
0000
0000
0000
0100
0000
0000
0000
0000
,  // measure 92
0000
0000
0000
0000
,  // measure 93
0000
0000
0000
0010
0000
0000
0000
0000
,  // measure 94
0000
0000
0000
0000
,  // measure 95
0000
0000
0000
0001
0000
0000
0000
0000
,  // measure 96
0000
0000
0000
0000
,  // measure 97
0000
0000
0000
1000
0000
0000
0000
0000
,  // measure 98
0000
0000
0000
0100
0000
0000
0000
0000
,  // measure 99
0000
0000
0000
0010
0000
0000
0000
0000
,  // measure 100
0000
0000
0000
0001
0000
0000
0000
0000
,  // measure 101
0000
0000
0000
1000
0000
0000
0000
0000
,  // measure 102
0000
0000
0000
0100
0000
0000
0000
0000
,  // measure 103
0000
0000
0000
0010
0000
0000
0000
0000
,  // measure 104
0000
0000
0000
0001
0000
0000
0000
0000
,  // measure 105
0000
0000
0000
1000
0000
0000
0000
0100
,  // measure 106
0000
0000
0000
0010
0000
0000
0000
0001
,  // measure 107
0000
0000
0000
1000
0000
0000
0000
0100
,  // measure 108
0000
0000
0000
0010
0000
0000
0000
0001
,  // measure 109
0000
0000
0000
1000
0000
0100
0000
0010
,  // measure 110
0000
0001
0000
1000
0000
0100
0000
0010
,  // measure 111
0000
0001
0000
1000
0000
0100
0000
0010
,  // measure 112
0000
0001
0000
1000
0000
0100
0000
0010
,  // measure 113
0000
0001
0000
1000
0100
0010
0001
1000
,  // measure 114
0100
0010
0001
1000
0100
0010
0001
1000
,  // measure 115
0100
0010
0001
1000
0100
0010
0001
1000
,  // measure 116
0100
0010
0001
1000
0100
0010
0001
1000
,  // measure 117
0100
0010
1001
0000
0000
0000
0000
0000
;
