#TITLE:Temperature;
#SUBTITLE:;
#ARTIST:Sean Paul;
#TITLETRANSLIT:;
#SUBTITLETRANSLIT:;
#ARTISTTRANSLIT:;
#CREDIT:;
#BANNER:Temperature.png;
#BACKGROUND:Temperature-bg.png;
#LYRICSPATH:;
#CDTITLE:;
#MUSIC:Temperature.ogg;
#OFFSET:-0.069;
#SAMPLESTART:25.952;
#SAMPLELENGTH:15.000;
#SELECTABLE:YES;
#BPMS:0.000=125.000;
#STOPS:;
#BGCHANGES:;
// cache tags:
#FIRSTBEAT:8.500;
#LASTBEAT:185.500;
#SONGFILENAME:Songs/DDR 4 ITG/Temperature/Temperature.sm;
#HASMUSIC:1;
#HASBANNER:1;
#MUSICLENGTH:89.129;
// end cache tags

//---------------dance-single - ----------------
#NOTES:
     dance-single:
     :
     Beginner:
     1:
     0.128,0.151,0.090,0.000,0.000,72.000,8.000,0.000,0.000,0.000:




0000
0000
0000
0000
,
0000
0000
0000
0000
,
0000
0000
0000
0000
,
0000
0000
0000
0000
,
1000
0000
0000
0000
,
0100
0000
0000
0000
,
0001
0000
0000
0000
,
0010
0000
0000
0000
,
1000
0000
0001
0000
,
0010
0000
0100
0000
,
1000
0000
0001
0000
,
1000
0000
0001
0000
,
0100
0000
0010
0000
,
0001
0000
1000
0000
,
1001
0000
0000
0000
,
1001
0000
0000
0000
,
0001
0000
1000
0000
,
0010
0000
0100
0000
,
0001
0000
1000
0000
,
0001
0000
0001
0000
,
1000
0000
0001
0000
,
1000
0000
1000
0000
,
0010
0000
0100
0000
,
0010
0000
0010
0000
,
0100
0000
0010
0000
,
0100
0000
0100
0000
,
0110
0000
0000
0000
,
0110
0000
0000
0000
,
1000
0000
0010
0000
,
0100
0000
0001
0000
,
1000
0000
1000
0000
,
0001
0000
0001
0000
,
0100
0000
0100
0000
,
0010
0000
0010
0000
,
0010
0000
0100
0000
,
0001
0000
1000
0000
,
0100
0000
0010
0000
,
1000
0000
0001
0000
,
0100
0000
0100
0000
,
0001
0000
0001
0000
,
1000
0000
1000
0000
,
0010
0000
0010
0000
,
0110
0000
0000
0000
,
1001
0000
0000
0000
,
0110
0000
0000
0000
,
1001
0000
0000
0000
;

//---------------dance-single - ----------------
#NOTES:
     dance-single:
     :
     Easy:
     3:
     0.191,0.230,0.045,0.011,0.000,114.000,4.000,1.000,0.000,0.000:




0000
0000
0000
0000
,
0000
0000
0000
0000
,
0000
0000
0000
0000
,
0000
0000
0000
0000
,
1000
0000
1000
0000
,
0001
0000
0001
0000
,
0010
0000
0010
0000
,
0100
0100
0100
0000
,
0010
0100
0010
0000
,
0100
0000
0100
0000
,
0100
1000
0001
0000
,
0100
0001
1000
0000
,
1000
0001
1000
0000
,
0001
1000
0001
0000
,
1000
0100
1000
0000
,
0001
0010
0001
0000
,
0010
0100
0001
0000
,
0010
0000
1000
0000
,
0001
0010
1000
0000
,
1000
0100
0001
0000
,
0000
0010
0001
0000
,
0001
0000
1000
0000
,
0000
0100
0100
0000
,
0010
0100
0010
0000
,
0000
1000
0100
0000
,
1000
0000
0010
0000
,
0001
0010
0001
0000
,
1000
0100
1000
0000
,
0100
0010
1000
0000
,
0100
0000
0001
0000
,
0100
0100
0001
0000
,
0010
0010
1000
0000
,
0100
0100
1000
0000
,
0010
0010
0001
0000
,
0100
1000
0001
0000
,
0010
0001
1000
0000
,
0010
1000
0100
0000
,
0010
0000
0100
0000
,
0100
0010
0110
0000
,
1000
0001
1001
0000
,
0010
0100
0110
0000
,
0001
1000
1001
0000
,
0010
1000
0001
0001
,
0010
0001
1000
1000
,
0010
0100
0010
0000
,
2000
0000
3000
0000
;

//---------------dance-single - ----------------
#NOTES:
     dance-single:
     :
     Medium:
     5:
     0.332,0.310,0.236,0.056,0.000,181.000,21.000,5.000,0.000,0.000:




0000
0000
0000
0000
,
0000
0000
0000
0000
,
0000
0000
0000
0000
,
0000
0000
0000
0000
,
1000
0000
0010
0001
0100
0000
1000
0000
,
0001
0000
0010
1000
0100
0000
0000
0000
,
1000
0000
0010
0000
0100
0001
0010
0000
,
0001
0010
0100
0000
1000
0010
0100
0000
,
1000
0000
0100
0000
0010
0001
0100
0000
,
0001
0100
0010
0000
1000
0100
0010
0000
,
0001
0000
0100
1000
0010
0000
0001
0000
,
1000
0000
0100
0001
0010
0000
0000
0000
,
0001
0000
0100
0000
0010
1000
0100
0000
,
1000
0100
0010
0000
0001
0010
0010
0000
,
1000
0000
0001
0000
1000
0001
0001
0000
,
0001
0000
1000
0000
0001
1000
1000
0000
,
0110
0000
1001
0000
,
1100
0110
0101
0000
,
0010
0000
0010
0100
0001
0000
1000
0000
,
0001
0000
0100
0000
0010
0000
1000
0010
,
0100
0000
0100
0010
1000
0000
0001
0000
,
1000
0000
0010
0000
0100
0000
0001
0100
,
0010
0000
0010
0100
1000
0000
0001
0000
,
1000
0000
0100
0000
0010
0000
0001
0010
,
0100
0000
0100
0010
0001
0000
1000
0000
,
0001
0010
0100
1000
,
0001
0000
1000
0000
0001
1000
1000
0000
,
1000
0000
0001
0000
1000
0001
0001
0000
,
0110
0000
1001
0000
,
0011
0000
0110
0000
1000
0100
0010
0000
,
0100
0010
0000
1000
0100
0000
0000
0000
,
0001
0000
0110
0000
1100
0000
0000
1000
,
0100
0010
0000
0001
0100
0000
0000
0000
,
1000
0000
0110
0000
0101
0000
0000
0001
,
1000
0000
0110
0000
0011
0000
0000
0001
,
0010
0100
0000
1000
0010
0000
0000
0100
,
0001
0000
0110
0000
1010
0000
0000
1000
,
0100
0010
1000
0001
,
0020
0030
0200
0300
,
0002
0003
2000
3000
,
0100
0010
0001
1000
,
0010
0100
0001
1000
,
0010
1000
0110
0011
,
0100
0001
0100
0000
,
0100
1000
0110
0101
,
0010
0001
0020
0000
,
0030
0000
0000
0000
;

//---------------dance-single - ----------------
#NOTES:
     dance-single:
     :
     Hard:
     8:
     0.548,0.513,0.606,0.213,0.252,269.000,54.000,19.000,0.000,0.000:




0000
0000
0000
0000
,
0000
0000
0000
0000
,
0000
0000
1000
0010
1000
0010
1000
0000
0000
0000
0001
0100
0001
0100
0001
0000
,
0000
0000
1000
0100
1000
0100
1000
0000
0000
0010
0100
0000
0001
0000
0000
0000
,
1001
0000
0000
0000
1100
0000
0000
0000
1001
0000
0000
0100
1000
0000
0010
0000
,
1001
0000
0000
0000
0101
0000
0000
0000
1001
0000
0000
0100
0001
0000
1000
0000
,
1100
0000
0000
0000
0110
0000
0000
0000
1100
0000
0000
0100
1000
0000
0001
0000
,
0101
0000
0000
0000
0011
0000
0000
0000
0101
0000
0000
0010
1000
0000
0001
0000
,
1000
0000
0001
0000
0010
0000
0000
0000
1100
0000
0000
0001
0100
0000
0010
0000
,
1010
0000
0000
0000
0110
0000
0000
0000
1010
0000
0000
0001
0010
0000
0001
0000
,
1000
0000
0001
0000
1000
0000
0000
0000
0110
0000
0000
0100
0010
0000
0100
0000
,
1001
0000
0000
0000
0101
0000
0000
0000
1001
0000
0000
1000
0010
0000
1000
0000
,
0001
1000
0001
0000
0110
0000
1100
0000
,
1000
0001
0000
1000
0001
0000
0100
0000
0000
0000
0100
0000
0010
1000
0000
0010
,
1000
0000
0001
0000
0020
0000
0000
0000
0130
0000
1000
0000
0001
0100
0001
0000
,
1000
0100
0010
0002
0000
0103
0010
1000
,
0002
0000
0103
0010
0100
0001
1000
0001
,
0010
0100
1000
0002
0000
0003
1010
0000
,
0101
0000
0000
0100
1000
0000
0000
0001
0100
0000
0000
0010
1000
0000
0000
0000
,
1001
0000
0000
0010
0001
0000
0000
1000
0010
0000
0000
0100
0001
0000
1000
0000
,
0002
0000
0000
0100
0013
0000
0000
1000
0100
0000
0000
0010
0001
0000
0000
0000
,
1001
0000
0000
0010
0100
0000
0000
0001
0010
0000
0000
0100
1000
0000
0001
0000
,
2000
0000
0000
3100
0010
0000
0000
0001
1000
0000
0000
0100
0010
0000
0000
0001
,
1000
0000
0000
0010
0100
0000
0000
0001
1000
0000
0000
0010
0100
0000
0001
0000
,
1000
0000
0110
0000
1100
0000
0101
0001
,
1000
0000
0010
0000
0100
0000
0001
1000
0000
0000
0000
0000
1001
0000
0000
0000
,
0001
0000
1000
0000
0200
0000
0000
0000
0310
0000
0001
0000
1000
0010
1000
0000
,
0001
0010
0100
2000
0000
3010
0100
0010
,
2000
0000
3100
1000
0010
0100
0001
1000
,
0100
0010
0001
2000
0000
0010
3010
0000
,
1100
0000
0000
0000
0101
0000
0000
0000
0011
0000
0000
0100
0001
0000
0000
0000
,
1100
0000
0000
0000
1010
0000
0000
0000
0011
0000
0000
0100
0001
0000
1000
0000
,
1100
0000
0000
0000
0110
0000
0000
0000
0101
0000
0000
1000
0100
0000
0000
0000
,
1010
0000
0000
0000
0110
0000
0000
0000
0011
0000
0000
0100
0002
0000
0010
0000
,
0013
0100
1000
0100
1000
0000
0010
0000
,
0100
0001
0100
0001
0010
0000
2000
0001
,
3001
1000
0100
1000
0100
0000
0010
0000
,
0001
0100
0001
0100
0010
0000
1000
0100
,
2100
0000
0001
0010
,
3002
0000
1000
0100
,
2003
0000
0100
3001
,
1001
0000
1001
0000
,
1100
0101
1200
0301
,
1010
0000
0011
0000
1020
0000
0031
0010
,
1010
1100
0120
0031
,
2000
0000
0010
3001
;

//---------------dance-double - ----------------
#NOTES:
     dance-double:
     :
     Easy:
     3:
     0.192,0.181,0.034,0.056,0.000,112.000,3.000,5.000,0.000,0.000:




00000000
00000000
00000000
00000000
,
00000000
00000000
00000000
00000000
,
00000000
00000000
00000000
00000000
,
00000000
00000000
00000000
00000000
,
00000100
00000001
00001000
00000000
,
00000100
00001000
00000100
00000000
,
00010000
00001000
00010000
00000000
,
00001000
00010000
00001000
00000000
,
00100000
00000000
10000000
00000000
,
00010000
10000000
01000000
00000000
,
00010000
00001000
00010000
00000000
,
00001000
00010000
00001000
00000000
,
00000100
00000000
00000100
00000000
,
00001000
00000001
00000010
00000000
,
00000001
00000100
00001000
00000000
,
00010000
00001000
00010000
00000000
,
00001000
00010000
01000000
00000000
,
10000000
01000000
00010000
00000000
,
00000000
10000000
00100000
00000000
,
00000000
01000000
00001000
00020000
,
00030000
00000100
00001000
00000000
,
00000000
00000010
00000001
00002000
,
00003000
00000001
00000010
00000000
,
00000000
00000100
00010000
00002000
,
00003000
01000000
00010000
00000000
,
01000000
10000000
00100000
00010000
,
00100000
01000000
00010000
00000000
,
00001000
00010000
00001000
00000000
,
00010000
00001000
00000100
00000000
,
00000001
00000100
00001000
00000000
,
00000010
00000000
00000001
00000000
,
00000000
00000001
00000010
00001000
,
00001000
00000000
00010000
00000000
,
00100000
10000000
00100000
00010000
,
00100000
00000000
01000000
00000000
,
00000000
01000000
10000000
00100000
,
00010000
00000000
00001000
00000000
,
00000000
00000010
00000001
00000100
,
00000110
00000000
00001000
00000000
,
00011000
00000000
00010000
00000000
,
00100000
00000000
01000000
00000000
,
10010000
00000000
00100000
00000000
,
10000000
00000000
00100000
00001000
,
00100000
00000000
00020000
00030000
,
00001000
00000000
00000001
00000001
,
00000010
00000000
00002000
00000000
,
00003000
00000000
00000000
00000000
;

//---------------dance-double - ----------------
#NOTES:
     dance-double:
     :
     Medium:
     6:
     0.330,0.332,0.000,0.079,0.000,199.000,0.000,7.000,0.000,0.000:




00000000
00000000
00000000
00000000
,
00000000
00000000
00000000
00000000
,
00000000
00000000
00000000
00000000
,
00000000
00000000
00000000
00000000
,
10000000
01000000
00100000
00010000
,
01000000
00010000
00001000
00000010
,
00000100
00000000
00000001
00000100
00001000
00000000
00000100
00000000
,
00000010
00010000
00001000
00000000
00001000
00100000
00001000
00000000
,
01000000
00010000
10000000
00100000
,
01000000
00100000
00010000
00000000
00010000
00100000
10000000
00000000
,
01000000
00100000
00010000
00001000
,
00010000
00001000
00000100
00000000
00000100
00000010
00000001
00000000
,
00000100
00001000
00000100
00001000
,
00001000
00010000
00100000
00000000
00100000
10000000
01000000
00000000
,
00010000
10000000
00100000
00000000
10000000
00010000
01000000
00000000
,
00100000
01000000
00100000
00020000
00000000
00000000
00030000
00000000
,
00001000
00010000
00000010
00001000
,
00001000
00000001
00000100
00000000
00000000
00000000
00000010
00000000
,
00000000
00000100
00001000
00000000
00001000
00010000
00000000
00100000
,
00000000
00010000
01000000
00000000
10000000
00000000
00100000
00000000
,
00000000
10000000
01000000
00000000
00100000
00010000
00000000
00001000
,
00000000
00010000
00001000
00000000
00000100
00001000
00000010
00000000
,
00000000
00000001
00000100
00000000
00001000
00000100
00000000
00010000
,
00000000
00001000
00010000
00000000
00000100
00000000
00001000
00000000
,
00000010
00000000
00000100
00010000
00001000
00000000
00010000
00000000
,
00100000
00000000
10000000
01000000
00100000
00000000
00010000
00000000
,
00001000
00100000
00001000
00000000
00010000
00000100
00010000
00000000
,
00000100
00000001
00000100
00002000
00000000
00000000
00003000
00000000
,
00010000
00001000
01000000
00010000
,
00010000
10000000
00100000
10000000
00000000
00010000
00010000
00000000
,
00100000
00000000
00100000
00001000
00010000
00000000
00000100
00000000
,
00000010
00000000
00001000
00000000
00000100
00000000
00010000
00001000
,
00010000
00000000
00000100
00001000
00000100
00000000
00000001
00000000
,
00000010
00000000
00000100
00000000
00000001
00000010
00001000
00000000
,
00000100
00000000
00010000
00001000
00010000
00000000
00001000
00000000
,
01000000
00000000
00010000
00000000
00000000
00000000
00100000
10000000
,
00010000
00000000
00100000
00010000
00100000
00000000
01000000
00000000
,
10000000
00000000
00100000
00000000
00010000
00001000
00010000
00000000
,
00000200
00001300
00002000
00003001
,
00000020
00000000
00000130
00000000
00010000
00001000
00010000
00000000
,
00010000
01000000
00100000
00000000
20000000
00000000
31000000
00000000
,
00010000
00000000
00100000
00000000
00000000
00010000
00001000
00000000
,
00000100
00000000
00001000
00000000
00000001
00001000
00000100
00000000
,
00010000
00000000
00001000
00000000
00010000
00001000
01000000
00000000
,
00010000
01000000
00100000
00000000
00100000
01000000
10000000
00000000
,
00020000
00000000
00030000
00000000
;

//---------------dance-double - ----------------
#NOTES:
     dance-double:
     :
     Hard:
     8:
     0.518,0.488,0.269,0.292,0.202,273.000,24.000,26.000,0.000,0.000:




00000000
00000000
00000000
00000000
,
00000000
00000000
00000000
00000000
,
00000000
00000000
01000000
10000000
01000000
00000000
02000000
00000000
00000000
00000000
03100000
00010000
00100000
00000000
00200000
00000000
,
00000000
00000000
00301000
00010000
00001000
00000000
00010000
00000000
00000000
00000100
00001000
00000000
00000010
00000000
00000000
00000000
,
00000102
00000000
00000000
00000000
00000010
00000000
00000000
00000000
00000103
00000000
00000000
00000010
00001000
00000000
00000100
00000000
,
00002100
00000000
00000000
00000000
00000010
00000000
00000000
00000000
00003100
00000000
00000000
00010000
00001000
00000000
01000000
00000000
,
01020000
00000000
00000000
00000000
10000000
00000000
00000000
00000000
01030000
00000000
00000000
00010000
10000000
00000000
01000000
00000000
,
21000000
00000000
00000000
00000000
00010000
00000000
00000000
00000000
31000000
00000000
00000000
10000000
00010000
00000000
00100000
00000000
,
00100000
00000000
00000000
00010000
00100000
00000000
00000000
00001000
00010000
00000000
00000000
00000100
00001000
00000000
00000010
00000000
,
00000100
00000000
00000000
00000001
00000010
00000000
00000000
00000100
00001000
00000000
00000000
00000001
00000100
00000000
00000010
00000000
,
00000210
00000000
00000000
00000000
00001000
00000000
00000000
00000000
00000310
00000000
00000000
00001000
00010000
00000000
00001000
00000000
,
00012000
00000000
00000000
00000000
00100000
00000000
00000000
00000000
00013000
00000000
00000000
00100000
00010000
00000000
01000000
00000000
,
01000000
00000000
00000000
00100000
10000000
00000000
00000000
00010000
01000000
00000000
00000000
00001000
00010000
00000000
00000100
00000000
,
00001000
00000000
00000000
00000001
00000010
00000000
00000000
00000100
00001000
00000000
00000001
00000000
00001000
00000000
00000000
00000000
,
00000010
00000000
00000100
00000000
00000020
00000000
00000000
00000000
00000130
00000000
00001000
00000000
00010000
00001000
00010000
00000000
,
00001000
00010000
01000000
20000000
00000000
30100000
01000000
00010000
,
00200000
00000000
01300000
00010000
01000000
10000000
00100000
01000000
,
00001000
00010000
00000100
00000020
00000000
00000000
00000032
00000000
,
00001003
00000000
00000000
00000010
00001000
00000000
00000100
00000000
00001000
00000000
00000000
00000001
00000100
00000000
00000001
00000000
,
00000010
00001000
00010000
00001000
00000100
00001000
00010000
00001000
,
00002000
00000000
00000000
01003000
00010000
00000000
00100000
00000000
00010000
00000000
00000000
10000000
00100000
00000000
10000000
00000000
,
01000000
00010000
00001000
00010000
00100000
00010000
00001000
00010000
,
00020000
00000000
00000000
00030100
00001000
00000000
00000001
00000000
00001000
00000000
00000000
00000010
00000100
00000000
00000001
00000000
,
00001000
00000001
00000010
00000100
00010000
00001000
01000000
00001000
,
00010000
00000000
00000000
00000000
00000100
00000000
00010000
00000000
00001000
00000000
00100000
00010000
00000000
00000000
10000000
00000000
,
00100000
00000000
01000000
00000000
00010000
00000000
10000000
00100000
00000000
00000000
00000000
00000000
10010000
00000000
00000000
00000000
,
01000000
00000000
00010000
00000000
02000000
00000000
00000000
00000000
03100000
00000000
00010000
00000000
00001000
00010000
00001000
00000000
,
00010000
00001000
00000010
00000002
00000000
00000103
00000010
00001000
,
00000200
00000000
00000310
00001000
00000010
00000001
00000100
00000010
,
00010000
00001000
00100000
02000000
00000000
10000000
13000000
00000000
,
10010000
00000000
00000000
00000000
11000000
00000000
00000000
00000000
10010000
00000000
00000000
00100000
00010000
00000000
00000000
00000000
,
01010000
00000000
00000000
00000000
01001000
00000000
00000000
00000000
01010000
00000000
00000000
00001000
00010000
00000000
00000100
00000000
,
00001100
00000000
00000000
00000000
00010100
00000000
00000000
00000000
00001100
00000000
00000000
00000001
00000100
00000000
00000000
00000000
,
00001001
00000000
00000000
00000000
00001010
00000000
00000000
00000000
00001001
00000000
00000000
00000100
00000001
00000000
00001000
00000000
,
00000010
00000100
00000010
00000100
00000001
00000000
00001001
00000000
,
00000100
00000000
00010000
00000000
00000100
00000000
00010000
00000000
00001000
00000000
00000000
00100000
00010000
00000000
01000000
00000000
,
01000000
00100000
01000000
00100000
10000000
00000000
10010000
00000000
,
01000000
10000000
01000000
10000000
00010000
00000000
01000000
00001000
,
00012000
00000000
00100000
00100000
,
00023000
00000000
00000010
00000010
,
00032000
00000000
01000000
01003000
,
01001000
00000000
00010100
00000000
,
00002000
00000100
00000001
00003100
,
00020000
00100000
10000000
00130000
,
00002000
00000010
00000001
00003010
,
00020000
00000000
10000000
01030000
;

//---------------dance-single - retard_gamer----------------
#NOTES:
     dance-single:
     retard_gamer:
     Challenge:
     10:
     0.633,0.624,0.269,0.269,0.494,347.000,24.000,24.000,29.000,8.000:

0000
0000
0000
0000
,
0000
0000
0000
0000
,
0000
0000
1000
0100
1000
0100
1000
0000
0000
0000
0001
0100
0001
0100
0001
0000
,
0000
0000
0100
0010
0100
0010
0100
0000
0000
0010
1000
0000
1001
0000
0000
0000
,
1100
0000
0000
1000
0010
0000
0010
0000
0100
0000
0000
0100
0001
0000
0000
0001
,
0000
2000
0000
0000
3100
0000
0000
0000
0000
0010
0000
0001
0100
0000
0000
0000
,
0000
0000
0000
0000
0010
1000
0010
0100
0001
0010
0000
0100
1000
0000
0001
0100
,
0001
0000
0000
1000
0000
0000
0010
0000
0000
1000
0000
0000
0001
0000
0000
0010
0000
0000
0000
0000
0000
0100
0000
0000
1000
0000
0000
0000
0010
0000
0000
0000
0100
0000
0000
0000
0001
0000
0000
0000
0000
0000
1000
0000
0000
0000
0000
0000
,
0000
0000
0001
0010
0100
1000
0000
0010
0100
0000
0001
1000
0000
0100
0000
0010
,
0001
0000
0000
0000
0000
0000
1000
0000
0000
0000
0000
0000
0010
0000
0000
1000
0000
0000
0100
0000
0000
1000
0000
0000
0010
0000
0000
0000
0100
0000
0000
0000
0001
0000
0000
0000
0010
0000
0000
0000
0000
0000
0011
0000
0000
0000
0000
0000
,
0000
0000
0210
0000
1300
0000
0010
0100
0001
0000
1000
0000
0001
0000
0010
0100
,
0000
1000
0010
0000
0100
0000
0010
0000
1000
0100
0000
1000
0010
0000
0100
0000
,
0001
0000
0010
0000
0001
0100
0000
0010
1000
0100
1000
0010
0100
0001
0010
0100
,
1000
0010
0000
0100
0001
0000
0010
0000
0000
0000
0100
0000
1000
0010
0000
0010
,
1000
0000
0100
0000
0010
0000
0000
0000
0010
0000
0001
0000
1000
0100
1000
0000
,
0010
0001
1000
0100
0001
1000
0100
0010
,
0011
0000
1100
1000
1010
0100
0001
0010
,
1000
0010
0001
0100
0010
0000
2000
0000
,
3001
0000
0010
0000
0100
0000
1000
0010
1000
0000
0100
1000
0000
0010
0100
0000
,
0001
0010
0001
0100
0001
0010
0001
0000
1000
0000
0100
1000
0000
0000
MM1M
0000
,
MM1M
0000
1000
0000
0010
1000
0001
0000
0010
0000
0100
1000
0000
0010
0100
0000
,
0010
0000
0001
0000
0010
0100
0010
0000
1000
0000
0001
1000
0000
0000
MMM1
0000
,
MMM1
0000
0000
0010
0100
0000
1000
0000
0001
0000
0100
0001
0000
1000
0100
1000
,
0010
0000
0100
0000
0001
0000
0010
0000
1000
0000
0010
0100
0000
0000
1MM1
0000
,
1MM1
0000
1000
0000
0010
1000
0100
1000
0010
0000
0100
0001
0000
0000
1000
0000
,
0010
1000
0100
1000
0010
0000
0100
0001
0000
0000
1000
0000
0010
0100
0000
0100
,
0010
0000
1000
0000
1002
0000
0000
0000
0013
0000
0100
0000
1000
0010
0001
0000
,
0010
0100
0010
2000
0001
3100
1000
0001
,
0200
0000
1300
0100
0010
0100
0001
1000
,
0100
0001
0100
0010
0001
M1M0
M1MM
0000
,
1010
0000
0100
0001
0100
0000
0010
0000
1000
0000
0001
0100
0001
1000
0100
0000
,
0010
0000
0100
1000
0100
0000
0010
0000
0001
0000
1000
0010
0100
0010
1000
0000
,
0001
0000
0010
0100
1000
0000
0010
0000
0100
0000
1000
0100
0010
0100
0001
0000
,
1000
0000
0001
0010
0100
0000
0001
0000
0100
0000
0010
0100
1000
0001
1000
0000
,
2000
0200
0001
3310
,
0200
0020
0001
1330
,
0020
0002
0100
1033
,
0002
0200
1000
0313
,
0002
0000
0100
0000
0200
0003
1000
0000
,
2000
0300
0010
0000
0020
3000
0001
0000
,
0002
0030
0100
0000
0200
0003
1000
0000
,
2000
0300
0010
0000
0020
3000
000M
0000
,
103M
1100
0001
0101
,
1000
1010
0001
0011
,
0110
1100
0101
0110
,
1010
0100
0101
0001
0011
0100
1100
2MM2
,
0000
0000
3MM3
M00M
0000
0000
0000
0000
;
