#TITLE:Typhoon Impulse;
#SUBTITLE:;
#ARTIST:Nexus;
#TITLETRANSLIT:;
#SUBTITLETRANSLIT:;
#ARTISTTRANSLIT:;
#CREDIT:Zeph;
#BANNER:../Zeppelin_bn.png;
#BACKGROUND:../bg_Zeppelin.png;
#LYRICSPATH:;
#CDTITLE:../cdtitle_ZAiA.png;
#MUSIC:Nexus - Typhoon Impulse.ogg;
#OFFSET:-0.084;
#SAMPLESTART:117.880;
#SAMPLELENGTH:23.380;
#SELECTABLE:YES;
#BPMS:0.000=165.020;
#STOPS:;
#BGCHANGES:;
// cache tags:
#FIRSTBEAT:16.000;
#LASTBEAT:576.000;
#SONGFILENAME:Songs/Cirque du Zeppelin/Typhoon Impulse - [Zaia]/Typhoon Impulse.sm;
#HASMUSIC:1;
#HASBANNER:1;
#MUSICLENGTH:213.942;
// end cache tags

//---------------dance-single - 33/20/8/16/4/16----------------
#NOTES:
     dance-single:
     33/20/8/16/4/16:
     Challenge:
     14:
     1.000,1.000,0.154,0.266,1.000,1775.000,33.000,57.000,0.000,1.000:
0000
0000
0000
0000
,
0000
0000
0000
0000
,
0000
0000
0000
0000
,
0000
0000
0000
0000
,
0001
0000
0100
0010
0000
0100
0001
0100
0001
0000
0010
0001
0000
1000
0100
1000
,
0001
0000
0100
0010
0000
1000
0001
1000
0001
0000
0010
0100
0000
1000
0001
0010
,
0001
0000
0100
0010
0000
1000
0010
1000
0010
0000
0100
0001
0000
0010
0100
0010
,
0001
0000
1000
0010
0000
1000
0100
1000
0100
0000
1000
0001
0000
0100
0001
1000
,
0001
0100
0010
1000
0001
1000
0010
1000
0001
0010
0001
0100
0010
0100
0001
1000
,
0100
1000
0001
0010
0100
1000
0001
0100
0010
1000
0100
0010
0100
1000
0001
1000
,
0010
1000
0001
0100
0010
1000
0001
0010
0001
1000
0010
1000
0100
0010
0100
1000
,
0001
0100
0001
1000
0010
0100
0001
1000
0100
0010
0001
0100
0010
0100
0001
1000
,
0001
0010
0001
1000
0100
0010
0001
1000
0001
0100
0001
0010
0100
0010
0001
1000
,
0010
1000
0001
0100
0010
1000
0001
0010
0100
1000
0010
0100
0010
1000
0001
1000
,
0100
1000
0001
0010
0100
1000
0001
0100
0001
1000
0100
1000
0010
0100
0010
1000
,
0001
0010
0001
1000
0100
0010
0001
1000
0010
0100
0001
0010
0100
0010
0001
1000
,
0001
0100
0001
0100
0010
1000
0001
1000
0100
0010
0100
1000
0001
0010
0001
1000
,
0001
0100
0010
0100
0001
1000
0001
0010
0100
1000
0100
1000
0001
0100
0010
1000
,
0001
0010
0001
0010
0100
1000
0001
1000
0010
0100
0010
1000
0001
0100
0001
1000
,
0001
0010
0100
0010
0001
1000
0010
0100
0001
1000
0001
1000
0100
0010
0100
1000
,
0001
0100
0001
1000
0010
1000
0100
0010
0001
1000
0100
1000
0001
0100
0010
1000
,
0001
0010
0001
1000
0100
1000
0010
0100
0001
1000
0010
1000
0001
0010
0100
1000
,
0010
1000
0001
0100
0001
0010
0100
1000
0001
0010
0001
1000
0010
0100
0001
1000
,
0100
1000
0001
0010
0001
0100
0010
1000
0001
0100
0001
1000
0001
1000
0100
1000
,
0001
0010
0001
0100
0001
1000
0100
0010
0100
1000
0001
0100
0001
0010
0100
1000
,
0001
1000
0010
0100
0001
1000
0100
0010
0100
1000
0001
1000
0010
0100
0001
1000
,
0100
0010
0001
0100
0010
1000
0001
0010
0001
0010
0100
1000
0010
0100
0001
1000
,
0001
0100
0001
0100
0010
1000
0100
0010
0100
1000
0001
0010
0100
1000
0001
0100
,
0001
1000
0100
1000
0010
1000
0001
0010
0100
0010
0001
1000
0010
1000
0100
0010
,
0001
1000
0001
0100
0010
1000
0001
0010
0100
0010
0001
1000
0001
0100
0010
1000
,
0001
0010
0100
1000
0010
0100
0001
1000
0100
1000
0100
0010
0001
0100
0010
1000
,
0001
1000
0010
1000
0010
0100
0001
0010
0100
0010
0001
1000
0100
0010
0001
1000
,
0001
0100
0010
1000
0100
0010
0100
1000
0001
0010
0001
1000
0010
0100
0001
0010
,
0100
1000
0001
1000
0100
1000
0001
0100
0010
0100
0001
1000
0100
1000
0010
0100
,
0001
1000
0001
0010
0100
1000
0001
0100
0010
0100
0001
1000
0001
0010
0100
1000
,
0001
0100
0010
1000
0100
0010
0001
1000
0010
1000
0010
0100
0001
0010
0100
1000
,
0001
1000
0100
1000
0100
0010
0001
0100
0010
0100
0001
1000
0001
0010
0001
1000
,
0100
1000
0001
0100
0001
0010
0001
1000
0010
0100
0010
1000
0001
0010
0001
0100
,
0010
1000
0001
1000
0100
0010
0001
1000
0010
0100
0010
1000
0001
1000
0100
0010
,
0001
1000
0010
0100
0001
0010
0100
1000
0001
0100
0001
0100
0010
1000
0100
0010
,
0001
1000
0001
0010
0001
0010
0100
1000
0010
0100
0010
1000
0001
0010
0001
1000
,
0002
0000
0003
2000
0000
3000
0002
0000
0003
0020
0000
0030
0200
0000
2300
0000
,
3020
0000
0030
0200
0000
0300
0002
0000
0003
0020
0000
0030
0002
0000
2003
0000
,
3020
0000
0030
0200
0000
0300
0020
0000
0030
2000
0000
3000
0002
0000
0023
0000
,
0230
0000
0300
2000
0000
3000
0002
0000
0003
0200
0000
0300
0020
0000
2030
0000
,
3001
0100
0001
0100
0010
0100
0001
1000
0001
0010
0100
1000
0010
1000
0001
0100
,
0001
1000
0100
0010
0001
0100
0010
0100
0001
1000
0001
0010
0100
1000
0001
1000
,
0010
0100
0001
1000
0010
1000
0010
0100
0001
1000
0100
0010
0100
1000
0001
0010
,
0001
1000
0010
0100
0001
1000
0100
1000
0001
0100
0010
0100
0010
1000
0100
1000
,
0001
0100
0010
1000
0100
1000
0001
0010
0100
0010
0001
1000
0010
1000
0100
0010
,
0001
1000
0001
0100
0010
1000
0001
0010
0100
0010
0001
1000
0001
0100
0010
1000
,
0001
0010
0100
1000
0010
0100
0001
1000
0100
1000
0100
0010
0001
0100
0010
1000
,
0001
1000
0010
1000
0010
0100
0001
0010
0100
0010
0001
1000
0001
0100
0001
1000
,
0010
1000
0001
0010
0001
0100
0001
1000
0100
0010
0100
1000
0001
0100
0001
0010
,
0100
1000
0001
1000
0010
0100
0001
1000
0100
0010
0100
1000
0001
1000
0010
0100
,
0001
1000
0100
0010
0001
0100
0010
1000
0001
0010
0001
0010
0100
1000
0010
0100
,
0001
1000
0001
0100
0001
0100
0010
1000
0100
0010
0100
1000
0001
0100
0001
1000
,
0001
0010
0100
1000
0010
1000
0001
0100
0010
0100
0001
1000
0100
1000
0010
0100
,
0001
1000
0001
0010
0100
1000
0001
0100
0010
0100
0001
1000
0001
0010
0100
1000
,
0001
0100
0010
1000
0100
0010
0001
1000
0010
1000
0010
0100
0001
0010
0100
1000
,
0001
1000
0100
1000
0100
0010
0001
0100
0010
0100
0001
1000
0001
0010
0001
1000
,
0100
1000
0001
0100
0001
0010
0001
1000
0010
0100
0010
1000
0001
0010
0001
0100
,
0010
1000
0001
1000
0100
0010
0001
1000
0010
0100
0010
1000
0001
1000
0100
0010
,
0001
1000
0010
0100
0001
0010
0100
1000
0001
0100
0001
0100
0010
1000
0100
0010
,
0001
1000
0001
0010
0001
0010
0100
1000
0010
0100
0010
1000
0001
0010
0001
1000
,
0002
0000
0000
0000
0000
0000
0000
0000
0103
0001
0000
0200
0000
0300
0000
0000
,
0020
0000
0000
0000
0000
0000
0000
0000
1030
0010
0000
2000
0000
0000
0000
0000
,
3200
0000
0000
0000
0000
0000
0000
0000
0310
0100
0000
0020
0000
0030
0000
0000
,
0002
0000
0000
0000
0000
0000
0000
0000
0013
0001
0000
0020
0000
0000
0000
0000
,
0230
0000
0000
0000
0000
0000
0000
0000
1300
0100
0000
2000
0000
3000
0000
0000
,
0020
0000
0000
0000
0000
0000
0000
0000
0130
0010
0000
0200
0000
0000
0000
0000
,
0302
0000
0000
0000
0000
0000
0000
0000
0103
0001
0000
0200
0000
0300
0000
0000
,
0002
0000
0000
0000
0000
0000
0000
0000
1003
0001
0000
2000
0000
0000
0000
0000
,
3101
0100
0000
0110
0000
0000
0000
1010
,
0000
1000
1001
0000
0011
0011
0001
1000
,
1001
1001
0000
0101
0000
0110
2020
0000
,
0000
0000
0000
3030
,
1001
0001
0000
1100
0000
0000
0000
0110
,
0000
0010
0011
0000
1001
1001
0001
0100
,
0101
0101
0000
0110
0000
0010
2002
0000
,
0000
0000
0000
3003
,
1000
0010
0100
0001
0010
0001
1000
0010
1000
0100
0010
0001
1000
0001
0100
0010
,
1000
0001
0010
0001
1000
0001
0100
0010
0100
0001
0100
0001
1000
0100
0010
0100
,
1000
0010
1000
0001
0100
0001
0010
0100
0010
0001
1000
0001
0100
0010
1000
0001
,
1000
0010
0100
0001
1000
0001
1000
0100
0010
0001
1000
0010
1000
0001
1000
0100
,
1000
0001
0100
0010
1000
0100
1000
0001
0100
0001
0010
0100
1000
0001
1000
0010
,
0100
0001
1000
0100
1000
0001
1000
0010
0100
0010
1000
0010
1000
0001
0010
0100
,
0010
0001
0100
0001
1000
0010
1000
0100
0010
0100
1000
0001
1000
0010
0100
0001
,
1000
0001
0100
0010
1000
0001
1000
0001
0010
0100
1000
0001
0100
0001
1000
0001
,
0020
0030
0000
0200
0300
0000
2000
3000
0000
0000
0000
0000
0002
0003
0000
0010
0000
0000
0200
0300
0000
0000
0000
0000
0000
0000
0000
0000
0000
0000
0000
0000
0000
0000
0000
0000
0000
0000
0000
0000
0000
0000
0000
0000
0000
0000
0000
0000
,
2000
3000
0000
0020
0030
0000
0200
0300
0000
0000
0000
0000
0020
0030
0000
0200
0300
0000
0002
0003
0000
0000
0000
0000
0000
0000
0000
0000
0000
0000
0000
0000
0000
0000
0000
0000
0000
0000
0000
0000
0000
0000
0000
0000
0000
0000
0000
0000
,
1000
0010
0100
0001
1000
0001
0010
0100
0010
0001
1000
0001
0010
0001
0010
0100
,
1000
0010
0100
0001
1000
0100
1000
0001
0010
0001
1000
0001
0100
0010
0100
0010
,
1000
0100
1000
0001
0010
0100
1000
0001
1000
0010
0100
0010
1000
0001
0010
0001
,
1000
0001
0100
0010
0100
0001
1000
0100
1000
0001
1000
0001
0100
0010
1000
0001
,
0010
0100
1000
0100
0010
0001
1000
0001
0100
0010
0100
0001
1000
0100
1000
0100
,
0010
0100
1000
0001
0100
0010
1000
0001
0010
0100
0010
0001
1000
0010
0100
0001
,
0010
0001
1000
0100
1000
0001
0100
0001
1000
0010
0100
0001
1000
0001
0010
0100
,
0010
0001
1000
0001
1000
0010
1000
0010
0100
0010
1000
0001
0010
0100
0010
0001
,
0100
0001
1000
0010
1000
0001
0100
0001
0010
0100
1000
0001
1000
0010
0100
0001
,
0010
0100
1000
0001
1000
0010
0100
0001
0010
0001
1000
0010
0100
0001
1000
0001
,
0010
0001
0100
0010
1000
0001
0010
0001
0100
0010
1000
0001
1000
0100
0010
0001
,
0100
0010
1000
0001
1000
0100
0010
0001
0100
0001
1000
0100
0010
0100
1000
0001
,
0100
0010
1000
0001
0010
0001
1000
0010
1000
0100
0010
0001
1000
0001
0100
0010
,
1000
0100
0010
0001
1000
0001
0100
0010
1000
0100
1000
0001
0100
0010
1000
0001
,
1000
0100
1000
0010
0100
0001
1000
0100
1000
0010
0100
0001
1000
0001
0010
0001
,
0100
0010
1000
0001
1000
0100
0010
0001
0100
0001
2000
0000
0000
0000
0000
0000
,
3001
0100
0100
0100
0000
0010
0000
1000
,
0000
0001
0001
0000
1001
0000
1001
0000
,
1000
0100
0100
0100
0000
0010
0000
0001
,
0000
1000
0010
0000
0110
0000
0110
0000
,
0001
0100
0001
1000
0100
0010
0100
1000
0001
1000
0010
0100
0001
1000
0100
1000
,
0100
0010
0001
1000
0010
0100
0010
1000
0001
0010
0001
1000
0010
1000
0001
0100
,
0001
0010
0100
1000
0001
0010
0001
1000
0010
0100
0001
1000
0100
0010
0100
1000
,
0001
0100
0010
0100
0001
1000
0001
0010
0001
0010
0100
1000
0001
1000
0010
0100
,
0001
0000
0000
0000
0000
0000
0000
0000
1000
0000
0000
1000
0000
0000
1000
0000
,
0000
0010
0000
0100
0000
0000
0000
0000
0001
0000
0000
0001
0000
0000
0001
0000
,
0000
1000
0000
0100
0000
0000
0000
0000
0010
0000
0000
0010
0000
0000
0010
0000
,
0000
0001
0000
1000
0000
0000
0000
0000
0001
0100
0001
0000
1000
0000
0001
0000
,
1000
0100
1000
0001
0100
0010
0100
0001
1000
0001
0010
0100
1000
0001
0100
0001
,
0100
0010
1000
0001
0010
0100
0010
0001
1000
0010
1000
0001
0010
0001
1000
0100
,
1000
0010
0100
0001
1000
0010
1000
0001
0010
0100
1000
0001
0100
0010
0100
0001
,
1000
0100
0010
0100
1000
0001
1000
0010
1000
0010
0100
0001
1000
0001
0010
0100
,
1000
0010
1000
0001
0010
0100
0010
0001
1000
0001
0100
0010
1000
0001
0010
0001
,
0010
0100
1000
0001
0100
0010
0100
0001
1000
0100
1000
0001
0100
0001
1000
0010
,
1000
0100
0010
0001
1000
0100
1000
0001
0100
0010
1000
0001
0010
0100
0010
0001
,
1000
0010
0100
0010
1000
0001
1000
0100
1000
0100
0010
0001
1000
0001
0100
0010
,
1000
0100
1000
0001
0010
0100
0010
0001
0100
0010
1000
0100
1000
0001
0010
0001
,
0010
0100
1000
0001
0100
0010
0100
0001
1000
0100
1000
0010
0100
0001
0010
0100
,
1000
0001
0010
0001
1000
0100
1000
0001
0100
0010
1000
0100
0010
0001
0100
0001
,
1000
0010
0100
0010
1000
0001
1000
0100
1000
0010
0100
0001
0100
0001
0010
0100
,
1000
0010
1000
0001
0100
0010
0100
0001
0010
0100
1000
0010
1000
0001
0100
0001
,
0100
0010
1000
0001
0010
0100
0010
0001
1000
0010
1000
0100
0010
0001
0100
0010
,
1000
0001
0100
0001
1000
0010
1000
0001
0010
0100
1000
0010
0100
0001
0010
0001
,
1000
0100
0010
0100
1000
0001
1000
0010
1000
0100
0010
0001
0010
0001
0100
0010
,
1000
0001
0001
0001
0000
0100
0000
0010
,
0000
1000
1000
0000
1001
0000
1001
0000
,
0001
0010
0010
0010
0000
0100
0000
1000
,
0000
0001
0100
0000
0110
0000
0110
0000
,
1000
0100
0100
0100
0000
0010
0000
0001
,
0000
1000
1000
0000
1001
0000
1001
0000
,
0001
0100
0100
0100
0000
0010
0000
1000
,
0000
0001
0010
0000
0110
0000
0110
0000
,
2000
0000
0000
0000
,
3000
0000
0000
0000
;
