#TITLE:EXE;
#SUBTITLE:(Steps By Akuma);
#ARTIST:Mr.T;
#TITLETRANSLIT:;
#SUBTITLETRANSLIT:;
#ARTISTTRANSLIT:;
#CREDIT:Steps By Akuma;
#BANNER:exe_b.jpg;
#BACKGROUND:exe_bg.jpg;
#LYRICSPATH:;
#CDTITLE:;
#MUSIC:EXE.ogg;
#OFFSET:-0.420;
#SAMPLESTART:24.493;
#SAMPLELENGTH:12.000;
#SELECTABLE:YES;
#DISPLAYBPM:158.000:79.000;
#BPMS:0.000=158.000,128.000=79.000,144.000=158.000;
#STOPS:;
#BGCHANGES:;
// cache tags:
#FIRSTBEAT:0.000;
#LASTBEAT:272.250;
#SONGFILENAME:Songs/Community Keyboard Megapack - Volume 3/(Akuma_APN) EXE/EXE.sm;
#HASMUSIC:1;
#HASBANNER:1;
#MUSICLENGTH:113.084;
// end cache tags

//---------------dance-single - HEAVY----------------
#NOTES:
     dance-single:
     HEAVY:
     Hard:
     10:
     0.913,1.000,0.080,0.088,1.000,704.000,9.000,10.000,0.000,0.000:
0000
0000
0000
0000
,
0000
0000
0000
0000
,
0100
0001
0000
0000
0000
0010
0000
0100
1000
0100
0000
0000
0000
0000
0000
0010
,
0100
0010
0000
0000
0000
0001
0000
1000
0001
0100
0000
0010
0000
0100
0001
0000
,
0010
0001
0000
0000
0000
0100
0000
0010
1000
0010
0000
0000
0000
0000
0000
0100
,
0001
0100
0000
0000
0000
0110
0000
0110
0000
0000
0000
1000
0000
0010
0100
0000
,
0001
0100
0000
0000
0000
0001
0000
1000
0001
2000
0000
0000
0000
0000
0000
3010
,
0100
0001
0000
0000
0000
0001
0000
0100
0010
0100
0001
0100
0010
0100
0001
0010
,
0100
1000
0001
0010
0100
0010
1000
0010
,
0001
0100
0010
0001
0010
0100
0001
0010
,
0100
0010
0000
0000
0000
0001
0000
0100
0000
0010
0000
1000
0001
1000
0100
1000
,
0000
0001
0100
0000
0001
0010
0100
0010
0000
0001
0000
0100
0010
0100
0001
0010
,
0100
0010
0001
0000
1000
0100
1000
0000
0000
0010
0100
0000
0001
1000
0001
0000
,
0000
0010
0100
0000
1000
0010
1000
0000
0000
0001
0100
0000
0010
1000
0010
0000
,
1000
0100
0000
0000
0000
0010
0000
0001
0000
1000
0000
0010
0100
0010
1000
0100
,
0000
0010
0001
0000
0100
0010
1000
0100
0000
1000
0000
0010
0100
0010
0001
0010
,
0100
0010
1000
0000
0010
0000
1000
0010
0100
0000
0001
0000
0010
0000
0100
0000
,
1000
0000
0100
0000
0010
0000
0001
1000
0100
0000
0010
0000
0100
0000
1000
0000
,
0001
0100
0010
0000
1000
0000
0010
0100
0010
0000
1000
0000
0100
0000
0001
0000
,
0100
0000
1000
0000
0010
0000
1000
0001
0010
0000
0100
0000
1000
0000
0001
0000
,
0010
0100
1000
0000
0001
0000
1000
0100
0010
0000
0001
0000
0100
0000
1000
0000
,
0100
0000
0001
0000
0010
0000
0001
1000
0010
0000
0100
0000
0001
0000
0010
0000
,
0001
0100
0010
0000
1000
0010
1000
0000
0010
0100
0010
0000
0100
0001
1000
0000
,
0100
0010
0001
0010
0100
1000
0100
0010
0001
0100
0001
1000
0010
0100
0001
1000
,
0100
0010
0001
0000
0100
0000
0001
0010
0100
0000
0010
0000
0011
0000
0001
0000
,
1000
0000
0100
0000
0110
0000
0010
0001
1000
0000
0100
0000
0010
0000
0100
0000
,
1000
0001
1000
0000
0100
0000
0010
0001
0010
0000
0100
0000
1100
0000
1000
0000
,
0001
0000
1000
0000
1010
0000
0010
0100
0001
0000
0100
0000
1000
0000
0100
0000
,
0001
0010
0100
0000
1000
0000
0001
0100
0010
0000
1000
0000
1100
0000
0100
0000
,
0010
0000
0001
0000
1001
0000
1000
0001
1000
0000
0001
0000
0100
0000
0010
0000
,
1000
0100
0010
0000
0001
0100
0010
0000
1000
0100
0010
0000
0001
0100
0001
0000
,
0010
0100
1000
0010
0100
0001
0010
0100
1000
0010
1000
0010
0100
0010
0001
0010
,
0200
0000
0010
0000
0000
0000
0010
0000
0000
0000
0010
0000
1300
0000
0010
0000
2000
0000
0100
0000
0001
0000
0020
0000
0000
3000
0100
0030
0001
0000
1000
0000
,
0002
0000
0100
0000
1000
0000
0020
0000
0000
0030
1000
0003
0100
0000
0010
0000
0200
0000
1000
0000
0010
0000
0001
0000
0000
0000
0001
0000
0010
0000
1000
0300
,
0010
1000
0010
1000
0010
0000
0100
0001
1000
0001
0100
0001
1000
0000
0010
0000
1000
0100
1000
0100
1000
0000
0010
1000
0001
1000
0010
1000
0001
0000
0100
0000
,
0001
0010
0001
0010
0001
0000
0100
0010
1000
0010
0100
0010
1000
0000
0001
0000
0100
0001
0100
0001
0100
0000
0010
1000
0100
0010
0001
0100
0010
1000
0100
0010
,
0001
0000
1000
0100
1000
0000
0010
0100
0010
0000
0100
0001
0100
0000
0001
0000
,
0100
1000
0100
0001
0010
1000
0010
0001
,
0000
0000
1000
0100
0010
0000
0100
0010
0001
0000
0010
0001
1000
0000
0010
0000
,
0100
0010
0001
0010
0100
0001
0100
0010
1000
0000
0000
0000
0010
0000
1000
0000
,
0100
0000
0010
0000
0001
0000
0010
0001
1000
0000
0100
0000
0010
0000
0001
0000
,
1000
0010
1000
0000
0100
0000
0010
0001
0010
0000
0100
0000
1000
0000
0010
0000
,
0100
0010
1000
0100
0010
0100
0001
0100
,
0010
0000
0000
0000
0100
1000
0001
0010
0100
0010
0001
1000
0100
0010
0100
1000
,
0001
0100
0010
0000
1000
0000
0010
0100
0001
0100
0000
0010
1000
0000
0100
0000
,
0010
0001
0000
1000
0100
0000
0010
0100
0010
0000
0100
0000
1000
0000
0010
0000
,
0100
0001
0010
0000
0100
0000
1000
0100
0010
0001
0000
0001
0100
0000
0010
0000
,
1000
0100
0000
0100
1000
0000
0010
0100
0001
0000
0010
0000
0100
0000
1000
0000
,
0001
0100
0001
0000
1000
0000
0100
1000
0001
0100
0000
0001
1000
0000
0010
0000
,
1000
0100
0000
1000
0001
0000
0010
0100
1000
0000
0010
0000
0001
0000
0010
0000
,
1000
0100
0010
0000
0001
0010
0001
0000
1000
0010
0100
0000
0001
0100
0001
0000
,
0010
0100
0010
0000
0001
0010
0100
1000
0100
0010
0000
0001
0000
0100
0000
0001
,
1000
0001
1000
0000
0000
0000
0010
0100
0010
0000
0000
0000
0000
1000
0001
1000
,
0001
0000
0000
0000
0000
0000
0010
0100
0010
0000
0001
0000
0100
0000
0010
0000
,
1000
0100
1000
0000
0000
0000
0001
0100
0001
0000
0000
0100
0010
1000
0100
0010
,
0100
0000
0000
0000
0000
0000
0010
0100
1000
0000
0010
0000
0001
0000
0010
0000
,
1000
0100
0010
0000
0000
0000
0010
0100
1000
0000
0000
0001
0100
0010
1000
0100
,
0010
0000
0000
0000
0000
0000
0100
0010
0100
0000
1000
0000
0010
0000
0100
0000
,
0001
0010
0001
0000
1000
0000
0100
0000
1000
0000
0001
0000
0010
0000
0100
0000
,
1000
0010
0100
0010
0001
0010
0100
0010
1000
0100
0010
0100
0001
0100
0010
0100
,
2000
0020
0000
3030
0100
0001
0000
0010
0100
1000
0000
0000
0001
0000
0000
0100
,
0010
0100
0000
0000
0010
1000
0000
1000
0000
0000
0000
0001
0000
0100
0010
0000
,
1000
0010
0000
0000
0100
0010
0000
1000
0010
0100
0000
0000
0001
0000
0000
0010
,
0100
1000
0000
0000
0010
1000
0000
0100
0010
0001
0000
1000
0100
0010
0100
0000
,
1000
0100
0000
0000
1000
0010
0000
1000
0100
0010
0000
0000
0100
0000
0000
1000
,
0001
1000
0000
0000
0010
1000
0000
1000
0000
0000
0000
0100
0000
0010
0100
0000
,
0001
0100
0000
0000
1000
0100
0000
0010
0100
0010
0000
0000
0011
0000
0000
0100
,
0010
0001
0010
0001
1000
0001
1000
0001
0100
0001
0100
0010
1000
0100
0010
0002
,
0000
0003
0000
0000
0000
0000
0000
0000
0000
0000
0000
0000
0000
0000
0000
0000
;

//---------------dance-single - ONI----------------
#NOTES:
     dance-single:
     ONI:
     Challenge:
     10:
     1.000,1.000,0.115,0.088,1.000,788.000,13.000,10.000,0.000,0.000:
0001
1000
0000
0000
0000
1000
0000
0010
0100
0010
0000
0000
0000
0000
0000
0001
,
0010
0001
0000
0000
0000
0011
0000
1001
0000
0000
0000
0010
0000
1000
0100
0000
,
0010
0100
0000
0000
0000
1000
0000
0001
0010
0100
0000
0000
0000
0000
0000
0100
,
1000
0010
0000
0000
0000
0010
0000
1000
0010
1000
0000
0010
0000
0100
0001
0000
,
0010
0001
0000
0000
0000
1000
0000
0001
0100
0010
0000
0000
0000
0000
0000
0010
,
0100
0001
0000
0000
0000
0101
0000
1001
0000
0000
0000
0001
0000
0100
0010
0000
,
0100
0001
0000
0000
0000
0010
0000
0001
0100
0020
0000
0000
0000
0000
0000
0130
,
0010
0100
1000
0100
1000
0100
1000
0100
0010
0100
0001
0010
0100
0010
1000
0010
,
0100
0010
0001
0000
0010
0100
0010
0000
0100
1000
0000
1000
0100
0000
0010
0000
,
0001
0010
0000
0010
0100
0000
1000
0000
0010
0100
0000
0100
0001
0000
0010
0000
,
0100
1000
0000
1000
0100
0000
0010
0000
0001
0010
0000
0010
0100
1000
0100
1000
,
0000
0001
1000
0000
0001
0100
0001
1000
0000
0100
0000
0010
0001
0100
0010
1000
,
0100
1000
0010
0000
1000
0001
1000
0000
0100
1000
0001
0000
1000
0010
1000
0000
,
0001
1000
0100
0000
0010
0001
1000
0000
0001
0100
0001
0000
1000
0001
0010
0000
,
0001
1000
0000
0000
0000
0011
0000
1001
0000
0101
0000
0100
0010
0100
1000
0100
,
1000
0100
1000
0100
1000
0100
0010
1000
0001
0010
0001
0010
0001
0010
0100
0010
,
1000
0010
1000
0000
0010
0000
0010
0001
1000
0000
0001
0000
0010
0000
0100
0000
,
0010
0000
0001
0000
1000
0000
0010
0100
0001
0000
0010
0000
0100
0000
1000
0000
,
0001
0100
0010
0000
1000
0000
0010
0100
0010
0000
1000
0000
0100
0000
0001
0000
,
0100
0000
0010
0000
0100
0000
1000
0001
0010
0000
0100
0000
1000
0000
0001
0000
,
0010
0100
1000
0000
0001
0000
1000
0100
0010
0000
0001
0000
0100
0000
1000
0000
,
0100
0000
0010
0000
0100
0000
0001
1000
0010
0000
0100
0000
0001
0000
1000
0000
,
0010
0100
0001
0000
1000
0010
1000
0000
0010
0100
0010
0000
1000
0100
1000
0000
,
0010
0100
1000
0100
0010
0100
0001
0010
0100
0010
1000
0010
0100
0010
0001
0100
,
0001
0010
0100
0000
0010
0000
0100
0010
0001
0000
0100
0000
0110
0000
0010
0000
,
1000
0000
0100
0000
0110
0000
0100
0010
0001
0000
1000
0000
0010
0000
0100
0000
,
0001
1000
0100
0000
1000
0000
0010
0100
0001
0000
0100
0000
0110
0000
0010
0000
,
1000
0000
0100
0000
0110
0000
0100
0010
0001
0000
0100
0000
1000
0000
0100
0000
,
0001
0010
0100
0000
1000
0000
0001
0100
0010
0000
1000
0000
1100
0000
0100
0000
,
0010
0000
0001
0000
1001
0000
1000
0001
1000
0000
0001
0000
0100
0000
0010
0000
,
1000
0100
0010
0000
0001
0100
0010
0000
1000
0100
0010
0000
0001
0100
0001
0000
,
0010
0100
1000
0010
0100
0001
0010
0100
1000
0010
1000
0010
0100
0010
0001
0010
,
0200
0000
0010
0000
0000
0000
0010
0000
0000
0000
0010
0000
1300
0000
0010
0000
2000
0000
0100
0000
0001
0000
0020
0000
0000
3000
0100
0030
0001
0000
1000
0000
,
0002
0000
0100
0000
1000
0000
0020
0000
0000
0030
1000
0003
0100
0000
0010
0000
0200
0000
1000
0000
0010
0000
0001
0000
0000
0000
0010
0300
0001
0000
1000
0000
,
0001
0010
0100
1000
0001
0000
0010
0100
1000
0001
0010
0100
1000
0000
0001
0000
1000
0100
0010
0001
1000
0000
0100
0010
0001
1000
0100
0010
0001
0000
1000
0000
,
0001
0100
0010
1000
0001
0000
0100
0010
1000
0001
0100
0010
1000
0000
0001
0000
1000
0010
0100
0001
1000
0000
0010
0100
0001
1000
0010
0100
0001
1000
0010
0100
,
0001
0000
0001
0010
0001
0000
0001
1000
0001
0000
0001
0100
0001
0000
1000
0000
,
0010
0001
0010
1000
0100
0001
0100
1000
,
0000
0000
0010
1000
0010
0000
0010
0100
0010
0000
0010
0001
0010
0000
0100
0000
,
0010
0100
1000
0100
0010
1000
0100
0010
0001
0000
0000
0000
0100
0000
1000
0000
,
0100
0000
0001
0000
0010
0000
0100
1000
0001
0000
0100
0000
0010
0000
1000
0000
,
0001
0100
0001
0000
0010
0000
0100
1000
0100
0000
0010
0000
0001
0000
0100
0000
,
0010
0100
0010
0000
1000
0010
1000
0000
0001
0100
0010
0000
1000
0100
0010
0000
,
0001
1000
0100
1000
0010
0100
0001
0010
0001
0100
0010
1000
0100
1000
0001
0100
,
0010
1000
0010
0000
0100
0000
0001
0010
0100
1000
0000
1000
0100
0000
0100
0000
,
0010
0001
0000
0001
0010
0000
0001
0100
0010
0000
0100
0000
0001
0000
0100
0000
,
0010
0100
0001
0000
0010
0000
0100
1000
0001
0010
0000
0010
0001
0000
0001
0000
,
0100
0010
0000
0010
0100
0000
0001
0010
0100
0000
1000
0000
0010
0000
0100
0000
,
0001
1000
0010
0000
0100
0000
0010
1000
0001
0100
0000
0100
0001
0000
0001
0000
,
1000
0010
0000
0010
1000
0000
0001
0010
0100
0000
0010
0000
0100
0000
1000
0000
,
0001
0100
0010
0000
1000
0100
1000
0000
0010
0100
0001
0000
1000
0001
0100
0000
,
0010
1000
0100
0010
0100
0010
0001
0100
0010
1000
0001
0010
0100
1000
0100
0010
,
0001
0010
0001
0000
1000
0000
0010
0100
0001
0000
0010
0000
0001
1000
0001
1000
,
0001
0000
0010
0000
0100
0000
0010
0100
1000
0000
0010
0000
0100
0000
0001
0000
,
1000
0100
0010
0000
0100
0000
1000
0010
0100
0000
0010
1000
0001
0100
0010
1000
,
0001
0000
1000
0000
0100
0000
0010
0001
1000
0000
0100
0000
0010
0000
0001
0000
,
0100
0010
1000
0000
0100
0000
0010
0100
1000
0000
0010
0100
0001
0010
0100
1000
,
0001
0000
0010
0000
0100
0000
0010
0100
1000
0000
0001
0000
0010
0000
0100
0000
,
1000
0010
0100
0000
0010
0000
1000
0000
0001
0000
0010
0000
1000
0000
0010
0000
,
0001
1000
0010
0100
1000
0100
0010
0100
0001
0010
0100
0010
1000
0010
0100
0010
,
0002
0200
0000
0303
0010
1000
0001
1000
0100
0010
0001
0000
0100
0000
0001
0010
,
0100
0010
0001
0000
1000
0100
0010
0100
1000
0000
0001
0100
0010
1000
0100
0000
,
0010
0001
1000
0000
0100
0010
1000
0010
0100
0010
0001
0000
0100
0000
0001
0010
,
0100
0010
0001
0000
0010
0100
1000
0100
0010
0100
0001
0100
0010
0001
0010
0000
,
0001
0100
0001
0000
0010
0100
1000
0010
0100
0001
0010
0000
0100
0000
0010
0100
,
1000
0100
0010
0000
0100
0010
0001
0010
0100
0000
1000
0001
0100
0010
0100
0000
,
0001
1000
0100
0000
0010
0100
1000
0010
0100
0001
0010
0000
0100
0000
1000
0001
,
0010
0100
0010
0001
1000
0100
0010
1000
0010
0100
0001
0100
0010
0001
1000
0200
,
0000
0300
0000
0000
0000
0000
0000
0000
0000
0000
0000
0000
0000
0000
0000
0000
;
