#TITLE:Oprah Shmup;
#SUBTITLE:;
#ARTIST:The J. Arthur Keenes Band;
#TITLETRANSLIT:;
#SUBTITLETRANSLIT:;
#ARTISTTRANSLIT:;
#CREDIT:Mad Matt;
#BANNER:../Tachyon Gamma-bn.png;
#BACKGROUND:../Tachyon Gamma-bg.png;
#LYRICSPATH:;
#CDTITLE:;
#MUSIC:Oprah Shmup.ogg;
#OFFSET:-0.284;
#SAMPLESTART:0.100;
#SAMPLELENGTH:16.000;
#SELECTABLE:YES;
#DISPLAYBPM:239.830;
#BPMS:0.000=239.830,192.000=211.500,194.000=192.000,260.000=200.000,330.000=239.830,336.000=239.830;
#STOPS:;
#BGCHANGES:;
// cache tags:
#FIRSTBEAT:4.000;
#LASTBEAT:521.000;
#SONGFILENAME:Songs/Tachyon Gamma/Oprah Shmup - [Mad Matt]/Oprah Shmup.sm;
#HASMUSIC:1;
#HASBANNER:1;
#MUSICLENGTH:139.488;
// end cache tags

//---------------dance-single - Mad Matt----------------
#NOTES:
     dance-single:
     Mad Matt:
     Challenge:
     17:
     1.000,1.000,0.057,0.860,1.000,1232.000,8.000,120.000,3.000,0.000:

0000
0000
0000
0000
,
1000
0100
0010
0001
1000
0001
0010
0100
1000
0001
1000
0010
0100
0001
1000
0100
,
0010
0001
1000
0001
0010
0100
1000
0001
1000
0100
0010
0001
1000
0010
0100
0001
,
1000
0100
0010
0001
1000
0001
0010
0100
1000
0001
1000
0100
0010
0100
1000
0001
,
0100
0010
1000
0010
0100
0001
1000
0100
1000
0001
1000
0100
0010
0001
0010
0100
,
1000
0001
0100
0010
1000
0001
0100
0001
1000
0010
1000
0001
0010
0100
1000
0001
,
0100
0001
1000
0010
0100
0001
0100
0010
1000
0001
0010
0001
1000
0100
1000
0001
,
0010
0100
1000
0001
0100
0001
1000
0100
1000
0001
0010
0100
1000
0001
0010
0001
,
1000
0010
1000
0001
0010
0100
1000
0001
0010
0100
1000
0001
1000
0100
0010
0001
,
1000
0010
0100
0001
0100
0010
1000
0001
0100
0010
1000
0001
0010
0100
1000
0001
,
0100
0010
1000
0001
0100
0001
1000
0010
0100
0001
1000
0100
0010
0001
0010
0100
,
1000
0001
0100
0001
1000
0100
1000
0001
0100
0010
1000
0010
0100
0001
1000
0100
,
1000
0001
0100
0001
1000
0100
0010
0001
0010
0100
1000
0001
0010
0100
1000
0001
,
0100
0010
1000
0010
0100
0001
1000
0010
0100
0001
1000
0100
0010
0100
1000
0001
,
0010
0100
1000
0001
1000
0100
0010
0001
0100
0010
1000
0001
0010
0100
1000
0100
,
0010
0001
1000
0010
0100
0001
0100
0010
1000
0001
0010
0100
0010
0001
1000
0010
,
1000
0001
0100
0001
1000
0100
0010
0001
1000
0001
0010
0100
1000
0001
0010
0100
,
1000
0100
0010
0100
1000
0100
0010
0001
,
1000
0010
1000
0001
0010
0001
1000
0100
0010
0001
1000
0100
1000
0001
0100
0001
,
2000
0000
3002
0000
0103
0010
1000
0001
,
1000
0100
0010
0001
1000
0001
0010
0100
1000
0001
0100
0010
1000
0010
0100
0001
,
2000
0000
3001
0002
0000
0023
0000
0130
,
0400
0000
1300
2000
0000
3020
0000
0130
,
0400
0000
0301
0002
0000
2003
0000
3010
,
1000
0000
0001
0000
0010
0000
0100
0000
4000
0000
0000
3000
0000
0000
0000
0000
,
0002
0000
2003
0000
3010
0020
0000
0230
,
0000
0302
0000
1003
2000
0000
3200
0000
,
0310
0100
1000
0001
0100
0200
0000
0302
,
0000
0000
0023
0000
0000
0000
0031
1000
0100
0010
0100
1000
0002
0000
0000
0000
,
0103
0200
0000
0310
0020
0000
0230
0000
,
0302
0000
0000
0000
0013
0100
1000
0100
0010
0100
1000
0001
0200
0000
0000
0300
,
0020
0000
1030
2000
0000
3001
0004
0000
,
0000
0000
0000
0000
0203
0001
0301
1000
,
0001
0100
0010
1000
0001
1000
0010
0100
0001
1000
0001
0010
0100
1000
0001
0100
,
0010
1000
0001
1000
0010
0100
0001
1000
0001
0100
0010
1000
0001
0010
0100
1000
,
0001
0100
0010
1000
0001
1000
0010
0100
0001
1000
0001
0100
0010
1000
0100
1000
,
0001
0100
0001
1000
0010
0100
0001
1000
0010
1000
0001
0100
0001
1000
0010
0100
,
0001
1000
0100
0010
0001
1000
0100
1000
0001
0010
0001
1000
0010
0100
0001
1000
,
0100
1000
0001
0010
0100
1000
0100
0010
0001
1000
0010
1000
0001
0100
0001
1000
,
0010
0100
0001
1000
0100
1000
0001
0100
0001
1000
0010
0100
0001
1000
0010
1000
,
0001
0010
0001
1000
0010
0100
0001
1000
0010
0100
0001
1000
0001
0100
0010
1000
,
0001
0010
0100
1000
0100
0010
0001
1000
0100
0010
0001
1000
0010
0100
0001
1000
,
0100
0010
0001
1000
0100
1000
0001
0010
0100
1000
0001
0100
0010
1000
0010
0100
,
0001
1000
0100
1000
0001
0100
0001
1000
0100
0010
0001
0010
0100
1000
0001
0100
,
0001
1000
0100
1000
0001
0100
0010
1000
0010
0100
0001
1000
0010
0100
0001
1000
,
0100
0010
0001
0010
0100
1000
0001
0010
0100
1000
0001
0100
0010
0100
0001
1000
,
0010
0100
0001
1000
0001
0100
0010
1000
0100
0010
0001
1000
0010
0100
0001
0100
,
0010
1000
0001
0010
0100
1000
0100
0010
0001
1000
0010
0100
0001
1000
0010
0100
,
0002
0000
MMM0
0000
0020
0003
0000
0030
,
2001
0000
0000
0000
0000
0000
0000
0000
0000
0000
0000
0000
0000
0000
0000
0000
0000
0000
0000
0000
0000
0000
0000
0000
0000
0000
0000
0000
0000
0000
0000
0000
0010
0000
0000
0000
0000
0000
0000
0000
0000
0000
0000
0000
0000
0000
0000
0000
0100
0000
0000
0000
0000
0000
0000
0000
0000
0000
0000
0000
0000
0000
0000
3000
,
1002
0000
0010
0103
,
2000
0000
0000
0000
0000
0000
0000
0000
3000
0020
0000
0000
0000
0000
0000
0000
0000
0000
2030
0000
0000
0000
0000
0000
0000
0000
0000
3200
0000
0000
0000
0000
0000
0000
0000
0000
0300
0000
0000
0000
0000
0000
0000
0000
0000
0000
0000
0000
,
4000
0000
0000
0000
0000
0000
0000
3000
4000
0000
0000
0000
0000
0000
0000
0000
3020
0000
0000
0000
0000
0000
0000
0000
0230
0000
0000
0000
0000
0000
0000
0000
,
0001
0000
0302
0023
,
0230
0000
0000
2300
0000
0000
3020
0230
,
0302
1000
1000
0000
,
0010
0000
0100
0000
,
2003
3200
0320
0230
2300
3002
0203
0302
,
2003
3200
0320
0032
2003
3200
2300
3020
,
0230
0302
0023
0032
0203
0320
2030
3200
,
2300
3020
0230
0302
2003
3200
0320
0032
,
2003
0000
0000
0000
0000
0000
0000
0000
3200
0000
0000
0300
0200
0000
0000
0000
,
1000
0000
2300
3002
,
0203
0000
0000
0000
0001
0000
0302
2003
,
3020
0000
0100
0000
,
1030
0001
1000
0001
,
1000
0000
0001
0000
0100
0010
0100
0010
,
0100
0000
0001
0010
0100
0000
1000
0000
0100
0000
0000
1000
0000
0000
0100
0000
,
0010
0000
0000
0001
0000
0000
0010
0000
0001
1000
0001
1000
0001
0000
1000
0000
,
0000
0000
0100
0000
0010
0000
0100
0000
1000
0000
0001
0100
0001
0000
1000
0000
,
0001
0000
0000
0010
0000
0000
0001
0000
0000
0000
0000
0000
0010
0000
0000
0100
0000
0000
0010
0000
0000
0000
0000
0000
0100
0000
0000
1000
0000
0000
0100
0000
0000
0000
0000
0000
1000
0000
0001
0000
1000
0000
0001
0000
1000
0000
0001
0000
,
1000
0000
0000
0010
0000
0000
1000
0000
0010
0000
0000
0100
0000
0000
0001
0000
,
0100
0000
0001
0010
0001
0000
0010
0000
0001
0000
0000
0010
0000
0000
0100
0000
,
0010
0000
0001
1000
0001
0000
0100
0000
0001
1000
0001
0000
0010
0000
0001
1000
,
0001
0000
0100
0000
0001
1000
0001
0000
1000
0010
0100
0001
1000
0010
0100
0001
,
1000
0000
0010
0100
0010
0000
1000
0000
0001
0100
0001
0000
1000
0000
0010
0100
,
0010
0000
0000
1000
0000
0000
0100
0000
1000
0000
0000
0010
0000
0000
1000
0000
,
0100
0000
0010
0001
0010
0000
0100
0000
1000
0001
1000
0000
0100
0000
0010
0001
,
0010
0000
0100
0000
1000
0001
1000
0000
0001
0010
0100
1000
0001
0010
0100
1000
,
0001
0000
0100
0010
0100
0000
0001
0000
1000
0010
1000
0000
0001
0000
0100
0010
,
0100
0001
1000
0010
1000
0100
1000
0010
1000
0010
0100
0001
0010
0001
0100
0001
,
0100
0010
0100
0010
,
0100
0010
1000
0001
,
1000
0001
1000
0001
,
1000
0000
0100
0010
0100
0000
1000
0000
0010
0000
0010
0000
0100
0000
0001
0000
,
0001
1000
0010
0010
0100
0001
1000
0010
,
0010
0100
0001
1000
0100
0100
0010
0001
,
0001
1000
0100
0100
0010
0001
1000
0100
,
0100
0010
0001
0100
0010
0010
1000
0001
,
0001
0100
0010
0010
1000
0001
0100
0010
,
0010
1000
0001
0010
0100
0100
1000
0001
,
0001
0010
0100
0100
1000
0001
0010
0100
,
0100
0000
1000
0000
0001
0000
0100
0000
0001
0010
0100
1000
0001
0010
0100
1000
,
0001
0010
0001
1000
0100
1000
0001
0010
0001
0100
0010
1000
0001
0100
0010
1000
,
0001
0100
0001
1000
0010
1000
0001
0100
0001
1000
0100
0010
0001
1000
0100
0010
,
0001
1000
0001
0010
0100
0010
0001
1000
0001
1000
0010
0100
0001
1000
0010
0100
,
0002
0000
0000
0000
0103
0010
1000
0100
,
0010
0001
0010
0100
0010
0001
1000
0010
,
0100
0010
1000
0010
0100
0001
1000
0100
,
0010
0001
0010
0100
1000
0010
0100
0010
,
0100
0000
0000
0000
0000
0000
0000
0000
0010
0000
0000
0000
0000
0000
0000
0000
2000
0000
0000
0000
0000
0000
0000
0000
0000
0000
0000
0000
0000
0000
0000
0000
3001
0000
0000
0000
0000
0000
0000
0000
0010
0000
0000
0000
0000
0000
0000
0000
0200
0000
0000
0000
0000
0000
0000
0300
0400
0000
0000
0000
0000
0000
0000
0300
,
1000
0000
0000
0000
0000
0000
0000
0000
0010
0000
0000
0000
0000
0000
0000
0000
0100
0000
0000
0000
0000
0000
0000
0000
0001
0000
0000
0000
0000
0000
0000
0000
1000
0000
0000
0000
0000
0000
0000
0000
0100
0000
0000
0000
0000
0000
0000
0000
0020
0000
0000
0000
0000
0000
0000
0030
0040
0000
0000
0000
0000
0000
0000
0030
,
0001
0000
0000
0000
0000
0000
0000
0000
2000
0000
0000
0000
0000
0000
0000
0000
3020
0000
0000
0000
0000
0000
0000
0000
0230
0000
0000
0000
0000
0000
0000
0000
0301
0000
0000
0000
0000
0000
0000
0000
0010
0000
0000
0000
0000
0000
0000
0000
0002
0000
0000
0000
0000
0000
0000
0003
0004
0000
0000
0000
0000
0000
0000
0003
,
1000
0000
0000
0000
0000
0000
0000
0000
0010
0000
0000
0000
0000
0000
0000
0000
1000
0000
0000
0000
0000
0000
0000
0000
0100
0000
0000
0000
0000
0000
0000
0000
0010
0000
0000
0000
0000
0000
0000
0000
0001
0000
0000
0000
0000
0000
0000
0000
2000
0000
0000
0000
0000
0000
0000
3000
4000
0000
0000
0000
0000
0000
0000
3000
,
0001
0000
2000
0000
3020
0000
0230
0000
0301
0010
0100
0010
0001
1000
0100
1000
,
0001
0010
0100
1000
0001
0100
0010
1000
0001
0100
0010
0100
0001
1000
0010
1000
,
0001
0100
0010
1000
0001
0010
0100
1000
0001
0010
0001
1000
0001
1000
0010
1000
,
0001
0100
0001
1000
0001
0010
0100
1000
0001
1000
0001
1000
0001
1000
0001
1000
,
0004
0000
0203
0320
,
1030
0002
0000
2003
0000
3000
0100
0010
,
0100
0000
0010
0000
0001
0000
1000
0000
0020
0000
0000
0030
0020
0000
0000
0030
,
0100
0000
0002
0000
0000
0000
0023
0000
0000
0000
0000
0000
0130
1000
0001
1000
,
0100
1000
0001
1000
0200
0000
0000
0000
0320
0000
0000
0000
0230
0000
0000
0000
,
1300
0000
0002
0000
0000
0000
1003
0000
0001
0100
0010
1000
0001
0100
0010
1000
,
0001
0010
0100
1000
0001
0010
0100
1000
0002
0000
0000
0003
0002
0000
0000
0000
,
2000
3000
2000
3000
2000
3003
2000
3000
0200
0000
0000
0000
0000
0000
0000
0000
,
0000
0000
1000
0000
1300
0000
0000
0000
0001
0010
0100
1000
0001
1000
0010
1000
,
0001
0100
0010
1000
0010
0100
0001
1000
0100
0000
0010
0000
0001
0000
0010
0000
,
0100
0000
1000
0000
0002
0000
0000
0000
1003
0010
0100
0001
1000
0001
0010
0001
,
1000
0100
0010
0001
0010
0100
1000
0001
1000
0000
0100
0000
0010
0000
0100
0000
,
1000
0000
0001
0000
0020
0000
0000
0000
0130
1000
0001
1000
0010
0100
0001
1000
,
0100
0010
0001
1000
0010
0100
0001
1000
0100
0000
0010
0000
0001
0000
0010
0000
,
0100
0000
1000
0000
0020
0000
0000
0000
0130
0001
1000
0001
0010
0100
1000
0001
,
0100
0010
1000
0001
0010
0100
1000
0001
0100
0000
0010
0000
1000
0000
0100
0000
,
0010
0001
1000
0000
4004
0000
0000
0000
,
0000
0000
0000
0000
,
0000
0000
0000
0000
,
0000
0000
0000
0000
,
0000
0000
0000
0000
,
0000
0000
0000
0000
,
0000
3003
0000
0000
;
