#TITLE:Zephyranthes;
#SUBTITLE:those hips don't lie;
#ARTIST:2TORI/?;
#TITLETRANSLIT:;
#SUBTITLETRANSLIT:;
#ARTISTTRANSLIT:;
#CREDIT:;
#BANNER:../bn.png;
#BACKGROUND:../bg.png;
#LYRICSPATH:;
#CDTITLE:;
#MUSIC:zephyranthes.ogg;
#OFFSET:-0.039;
#SAMPLESTART:100.780;
#SAMPLELENGTH:18.060;
#SELECTABLE:YES;
#DISPLAYBPM:215.000;
#BPMS:0.000=215.000;
#STOPS:;
#BGCHANGES:;
// cache tags:
#FIRSTBEAT:8.000;
#LASTBEAT:583.250;
#SONGFILENAME:Songs/Cirque du Zonda/Zaia - Zephyranthes/zephyranthes.sm;
#HASMUSIC:1;
#HASBANNER:1;
#MUSICLENGTH:167.471;
// end cache tags

//---------------dance-single - Zaia - 17.6----------------
#NOTES:
     dance-single:
     Zaia - 17.6:
     Challenge:
     17:
     1.000,1.000,0.060,0.012,1.000,1481.000,10.000,2.000,4.000,0.000:
0000
0000
0000
0000
,
0000
0000
0000
0000
,
1000
0000
0000
1000
0000
0000
0000
0000
,
0000
0000
0000
0001
,
0010
0000
0000
0010
0000
0000
0000
0000
,
0000
0000
0000
0000
0000
0010
0100
0000
,
1000
0000
0000
1000
0000
0000
0000
0000
,
0000
0000
0000
0001
,
0100
0000
0000
0100
0000
0000
0000
0000
,
1001
0000
0010
1001
0000
0100
1001
0000
,
0001
0100
0001
1000
0010
0100
0001
1000
0001
0010
0100
1000
0001
1000
0001
0010
,
0001
1000
0010
0100
0010
1000
0001
1000
0001
0100
0001
0010
0100
1000
0001
1000
,
0001
0000
0000
1000
0000
0000
0000
0000
,
0000
0000
0000
0000
0000
0001
0100
0000
,
0001
0010
0001
1000
0100
0010
0001
1000
0001
0100
0010
1000
0001
1000
0001
0100
,
0001
1000
0100
0010
0100
1000
0001
1000
0001
0010
0001
0100
0010
1000
0001
1000
,
0001
0000
0000
0000
0000
0000
0010
0000
0100
0000
0000
0100
0000
0000
0100
0000
,
0010
0000
0000
0010
0000
0000
0010
0000
0001
0000
0000
0001
0000
0000
0001
0000
,
1000
0000
0001
0000
1000
0100
1000
0000
0001
0000
1000
0000
0001
0100
0001
0000
,
0010
0000
0001
0000
1000
0010
1000
0000
0001
0000
1000
0000
0001
0010
0001
0000
,
1000
0000
0010
0000
1000
0001
1000
0000
0010
0000
0100
0000
0001
0100
0001
0000
,
1000
0000
0001
0000
1000
0001
1000
0000
0001
0000
0100
0000
0010
0100
0010
0000
,
1000
0000
0010
0000
1000
0001
1000
0000
0001
0000
0010
0000
0100
1000
0100
0000
,
1000
0000
0001
0000
1000
0001
1000
0000
0001
0000
0100
0000
0001
0100
0001
0000
,
1000
0000
0001
0000
1000
0100
1000
0000
0001
0000
1000
0000
0010
1000
0010
0000
,
1000
0000
0001
0000
1000
0001
1000
0000
0100
0000
1000
0000
0001
0010
0001
0000
,
1000
0000
0001
0000
1000
0010
1000
0000
0001
0000
1000
0000
0001
0010
0001
0000
,
0100
0000
0001
0000
1000
0100
1000
0000
0001
0000
1000
0000
0001
0100
0001
0000
,
1000
0000
0100
0000
1000
0001
1000
0000
0100
0000
0010
0000
0001
0010
0001
0000
,
1000
0000
0001
0000
1000
0001
1000
0000
0001
0000
0010
0000
0100
0010
0100
0000
,
1000
0000
0100
0000
1000
0001
1000
0000
0001
0000
0100
0000
0010
1000
0010
0000
,
1000
0000
0001
0000
1000
0001
1000
0000
0001
0000
0010
0000
0001
0010
0001
0000
,
1000
0000
0001
0000
1000
0010
1000
0001
1000
0001
0100
0001
1000
0100
1000
0001
,
0010
0100
1000
0001
1000
0010
0100
0010
1000
0001
1000
0001
1000
0001
1000
0001
,
1000
0010
0100
0001
1000
0100
0010
0100
1000
0001
0100
0001
1000
0100
1000
0001
,
0010
0100
1000
0001
1000
0010
0100
0001
1000
0001
1000
0100
0010
0100
1000
0001
,
0010
0001
1000
0010
0100
0001
1000
0001
1000
0100
0010
0001
1000
0100
1000
0001
,
0100
0010
0100
0001
1000
0010
0100
0001
1000
0100
1000
0001
0010
0100
1000
0001
,
1000
0010
0100
0001
1000
0010
1000
0001
1000
0100
0010
0100
1000
0001
1000
0010
,
0100
0001
1000
0100
0010
0001
1000
0001
0100
0010
0100
0001
1000
0100
1000
0001
,
0100
0010
1000
0001
1000
0100
0010
0001
1000
0010
0100
0001
1000
0010
1000
0001
,
0010
0100
0010
0001
1000
0100
0010
0001
1000
0010
1000
0001
0100
0010
1000
0001
,
1000
0100
0010
0001
1000
0010
0100
0010
1000
0001
0010
0001
1000
0010
1000
0001
,
0100
0010
1000
0001
1000
0100
0010
0001
1000
0001
1000
0010
0100
0010
1000
0001
,
0100
0001
1000
0100
0010
0001
1000
0001
1000
0010
0100
0001
1000
0010
1000
0001
,
0010
0100
0010
0001
1000
0100
0010
0001
1000
0010
1000
0001
0100
0010
1000
0001
,
1000
0100
0010
0001
1000
0100
1000
0001
1000
0010
0100
0010
1000
0001
1000
0100
,
0010
0001
1000
0010
0100
0001
1000
0001
0010
0100
0010
0001
1000
0010
1000
0001
,
0010
0100
1000
0001
1000
0010
0100
0001
1000
0100
0010
0001
1000
0100
1000
0001
,
0100
0000
0000
0000
0000
0000
0000
0000
0010
0100
0001
0100
0010
0000
0000
0000
,
1000
0100
0010
0001
1000
0010
0100
0010
1000
0001
0010
0001
1000
0010
1000
0001
,
0100
0010
1000
0001
1000
0100
0010
0001
1000
0001
1000
0010
0100
0010
1000
0001
,
0100
0001
1000
0100
0010
0001
1000
0001
1000
0010
0100
0001
1000
0010
1000
0001
,
0010
0100
0010
0001
1000
0100
0010
0001
1000
0010
1000
0001
0100
0010
1000
0001
,
1000
0100
0010
0001
1000
0100
1000
0001
1000
0010
0100
0010
1000
0001
1000
0100
,
0010
0001
1000
0010
0100
0001
1000
0001
0010
0100
0010
0001
1000
0010
1000
0001
,
0010
0100
1000
0001
1000
0010
0100
0001
1000
0100
0010
0001
1000
0100
1000
0001
,
0100
0010
0100
0001
1000
0010
0100
0001
1000
0100
1000
0001
0010
0100
1000
0001
,
1000
0010
0100
0001
1000
0100
0010
0100
1000
0001
0100
0001
1000
0100
1000
0001
,
0010
0100
1000
0001
1000
0010
0100
0001
1000
0001
1000
0100
0010
0100
1000
0001
,
0010
0001
1000
0010
0100
0001
1000
0001
1000
0100
0010
0001
1000
0100
1000
0001
,
0100
0010
0100
0001
1000
0010
0100
0001
1000
0100
1000
0001
0010
0100
1000
0001
,
1000
0010
0100
0001
1000
0010
1000
0001
1000
0100
0010
0100
1000
0001
1000
0010
,
0100
0001
1000
0100
0010
0001
1000
0001
0100
0010
0100
0001
1000
0100
1000
0001
,
0100
0010
1000
0001
1000
0100
0010
0001
1000
0010
0100
0001
1000
0010
1000
0001
,
0010
0100
1000
0010
0100
0010
1000
0100
0010
0100
1000
0010
0100
0001
0010
0100
,
1000
0000
0000
1000
0000
0000
1000
0000
0000
0000
0000
0000
0000
0000
0000
0000
,
0000
0000
0001
0010
,
0100
0000
0000
0100
0000
0000
0100
0000
0000
0000
0000
0000
0000
0000
0000
0000
,
1000
0000
0000
1000
0000
0000
1000
0000
0010
0000
0000
0010
0000
0000
0010
0000
,
0100
0000
0000
0100
0000
0000
0100
0000
0000
0000
0000
0000
0000
0000
0000
0000
,
0000
0000
0000
0001
,
0010
0000
0000
0010
0000
0000
0010
0000
0100
0000
0000
0100
0000
0000
0100
0000
,
1000
0000
0000
1000
0000
0000
1000
0000
0001
0000
0000
0001
0000
0000
0001
0000
,
0100
0000
0000
0100
0000
0000
0100
0000
0000
0000
0000
0000
0000
0000
0000
0000
,
0000
0010
0100
0001
,
1000
0000
0000
1000
0000
0000
1000
0000
0000
0000
0000
0000
0000
0000
0000
0000
,
0010
0000
0000
0010
0000
0000
0010
0000
0100
0000
0000
0100
0000
0000
0100
0000
,
0001
0000
0000
0001
0000
0000
0001
0000
0000
0000
0000
0000
0000
0000
0000
0000
,
0000
0000
0000
0100
,
0001
0000
0000
0001
0000
0000
0001
0000
1000
0000
0000
1000
0000
0000
1000
0000
,
0110
0000
0001
0110
0000
1000
0110
0010
,
1000
0001
1000
0001
0000
0100
0000
0100
,
0000
0000
0100
0000
0000
0000
0100
0000
0000
0000
0100
0000
1001
0000
0001
0010
,
0100
1000
0001
1000
0000
0010
0000
0010
,
0000
0000
0010
0000
0000
0000
0010
0000
0000
0000
0010
0000
1001
0000
1000
0100
,
0010
0001
1000
0001
0000
0010
0000
0010
,
0000
0000
0010
0000
0000
0000
0010
0000
0000
0000
0010
0000
1001
0000
0001
0010
,
0100
1000
0010
0100
0000
0001
0000
0001
,
1010
0000
1000
0001
0010
0000
0100
1000
0001
0000
0100
0000
0010
0100
0010
0000
,
1000
0001
0001
0010
0100
1000
0001
0100
,
0010
0100
0010
0000
0100
0000
0001
1000
0001
0000
0010
0000
0100
0000
1000
0000
,
0001
0010
0001
0000
1000
0000
0010
0000
0010
0000
0100
0000
0001
0000
0100
0000
,
0001
1000
0001
0000
0010
0000
0100
0000
2000
0000
3001
0100
0001
0000
1000
0000
,
0100
0000
1000
0000
1000
0000
0001
0000
0100
0000
0001
0000
0100
0001
0100
0000
,
0001
0000
1000
0000
1000
0000
0001
0000
0010
0000
0100
0010
0100
0000
1000
0000
,
0001
0010
0100
1000
0010
0100
0001
0010
,
0100
1000
0001
0010
0100
0010
0001
1000
0100
1000
0001
0100
0001
1000
0001
1000
,
0010
0000
0000
0000
0100
0001
0010
0001
0100
0010
0100
0001
0010
0001
0100
0010
,
0100
0001
0010
0001
0100
0010
0100
0001
0010
0001
0100
0010
0100
0001
0010
0100
,
1000
0010
0100
0010
1000
0100
1000
0010
0100
0010
1000
0100
1000
0010
0100
0001
,
0010
0100
0010
0001
0100
0010
0100
0001
0010
0100
0010
0001
0100
0010
0100
0001
,
0010
0100
1000
0010
1000
0100
0010
0100
1000
0010
1000
0100
0010
0100
1000
0010
,
0100
0001
0010
0100
0010
0001
0100
0010
0100
0001
0010
0100
0010
0001
0100
0010
,
1000
0100
1000
0010
0100
0010
1000
0100
1000
0010
0100
0010
1000
0100
1000
0010
,
0100
0001
0010
0001
0100
0010
0100
0001
1000
0010
1000
0100
0010
0100
1000
0010
,
1000
0001
0010
0001
0100
0010
0100
0001
0010
0001
0100
0010
0100
0001
0010
0001
,
0100
0010
0100
0001
0010
0001
0100
0010
0100
0001
0010
0001
0100
0010
1000
0100
,
0010
0100
1000
0010
1000
0100
0010
0100
1000
0010
1000
0100
0010
0100
1000
0001
,
0100
0001
0010
0100
0010
0001
0100
0001
1000
0100
1000
0010
0100
0001
0010
0001
,
0100
0010
0100
0001
1000
0100
1000
0010
0100
0010
1000
0100
1000
0010
0100
0010
,
1000
0100
1000
0001
0100
0010
0100
0001
0010
0100
0010
0001
0100
0010
0100
0001
,
1000
0010
1000
0100
0010
0100
1000
0001
0100
0001
0010
0100
0010
0001
0100
0001
,
0010
0000
0100
0000
1000
0000
0000
0000
0001
0000
0000
0000
1000
0100
1000
0001
,
0010
0001
0100
0001
0010
0100
0010
0001
0100
0001
0010
0100
0010
0001
0100
0001
,
0010
0100
0010
0001
0100
0001
0010
0100
0010
0001
0100
0010
0100
0001
0010
0001
,
1000
0100
0010
0100
1000
0010
1000
0100
0010
0100
1000
0010
1000
0100
0010
0001
,
0100
0010
0100
0001
0010
0100
0010
0001
0100
0010
0100
0001
0010
0100
0010
0001
,
0100
0010
1000
0100
1000
0010
0100
0010
1000
0100
1000
0010
0100
0010
1000
0100
,
0010
0001
0100
0010
0100
0001
0010
0100
0010
0001
0100
0010
0100
0001
0010
0100
,
1000
0010
1000
0100
0010
0100
1000
0010
1000
0100
0010
0100
1000
0010
1000
0100
,
0010
0001
0100
0001
0010
0100
0010
0001
1000
0100
1000
0010
0100
0010
1000
0100
,
1000
0001
0100
0001
0010
0100
0010
0001
0100
0001
0010
0100
0010
0001
0100
0001
,
0010
0100
0010
0001
0100
0001
0010
0100
0010
0001
0100
0001
0010
0100
1000
0010
,
0100
0010
1000
0100
1000
0010
0100
0010
1000
0100
1000
0010
0100
0010
1000
0001
,
0010
0001
0100
0010
0100
0001
0010
0001
1000
0010
1000
0100
0010
0001
0100
0001
,
0010
0100
0010
0001
1000
0010
1000
0100
0010
0100
1000
0010
1000
0100
0010
0100
,
1000
0010
1000
0001
0010
0100
0010
0001
0100
0010
0100
0001
0010
0100
0010
0001
,
1000
0100
1000
0010
0100
0010
1000
0001
0010
0001
0100
0010
0100
0001
0010
0001
,
0100
0010
1000
0100
0010
0100
1000
0001
0100
0001
1000
0100
1000
0001
1000
0001
,
0020
0000
0000
0000
,
0000
0000
0130
1000
,
0001
0000
0000
0000
,
0100
0000
0010
0000
,
1000
0000
0000
0000
,
0000
0000
0000
0001
,
0010
0000
0100
0000
,
1000
0000
0001
0000
,
0100
0000
0000
0000
,
0000
0001
0100
0001
,
0010
0000
0000
0000
,
0100
0000
0000
0000
,
1000
0000
0000
0000
,
0000
0000
0000
0000
,
0000
0000
0000
0000
,
0000
0000
0000
0000
0000
0000
0000
0000
0000
0000
0000
0000
0000
MMMM
0000
0000
;
