#TITLE:Another Planet;
#SUBTITLE:;
#ARTIST:Pendulum;
#TITLETRANSLIT:;
#SUBTITLETRANSLIT:;
#ARTISTTRANSLIT:;
#CREDIT:;
#BANNER:anotherplanetbn.png;
#BACKGROUND:anotherplanetbg.png;
#LYRICSPATH:;
#CDTITLE:;
#MUSIC:anotherplanet.ogg;
#OFFSET:1.401;
#SAMPLESTART:221.955;
#SAMPLELENGTH:22.200;
#SELECTABLE:YES;
#BPMS:0.000=173.000;
#STOPS:;
#BGCHANGES:;
// cache tags:
#FIRSTBEAT:4.000;
#LASTBEAT:1236.000;
#SONGFILENAME:Songs/Pendulum/Another Planet/anotherplanet.sm;
#HASMUSIC:1;
#HASBANNER:1;
#MUSICLENGTH:450.000;
// end cache tags

//---------------dance-single - I. Pyles----------------
#NOTES:
     dance-single:
     I. Pyles:
     Beginner:
     1:
     0.024,0.034,0.000,0.000,0.000,77.000,0.000,0.000,0.000,0.000:
0000
0000
0000
0000
,
1000
0000
0000
0000
,
0000
0000
0000
0000
,
0000
0000
0000
0000
,
0000
0000
0000
0000
,
0100
0000
0000
0000
,
0000
0000
0000
0000
,
0000
0000
0000
0000
,
0000
0000
0000
0000
,
0100
0000
0000
0000
,
0000
0000
0000
0000
,
0000
0000
0000
0000
,
0000
0000
0000
0000
,
0001
0000
0000
0000
,
0000
0000
0000
0000
,
0000
0000
0000
0000
,
0000
0000
0000
0000
,
0100
0000
0000
0000
,
0000
0000
0000
0000
,
0000
0000
0000
0000
,
0000
0000
0000
0000
,
1000
0000
0000
0000
,
0000
0000
0000
0000
,
0000
0000
0000
0000
,
0000
0000
0000
0000
,
1000
0000
0000
0000
,
0000
0000
0000
0000
,
0000
0000
0000
0000
,
0000
0000
0000
0000
,
1000
0000
0000
0000
,
0000
0000
0000
0000
,
0000
0000
0000
0000
,
0000
0000
0000
0000
,
1000
0000
0000
0000
,
0000
0000
0000
0000
,
0000
0000
0000
0000
,
0000
0000
0000
0000
,
1000
0000
0000
0000
,
0000
0000
0000
0000
,
0000
0000
0000
0000
,
0000
0000
0000
0000
,
1000
0000
0000
0000
,
0000
0000
0000
0000
,
0000
0000
0000
0000
,
0000
0000
0000
0000
,
1000
0000
0000
0000
,
0000
0000
0000
0000
,
0000
0000
0000
0000
,
0000
0000
0000
0000
,
1000
0000
0000
0000
,
0000
0000
0000
0000
,
0000
0000
0000
0000
,
0000
0000
0000
0000
,
0100
0000
0000
0000
,
0000
0000
0000
0000
,
0000
0000
0000
0000
,
0000
0000
0000
0000
,
0010
0000
0000
0000
,
0000
0000
0000
0000
,
0000
0000
0000
0000
,
0000
0000
0000
0000
,
1000
0000
0000
0000
,
0000
0000
0000
0000
,
0000
0000
0000
0000
,
0000
0000
0000
0000
,
0100
0000
0000
0000
,
0000
0000
0000
0000
,
0000
0000
0000
0000
,
0000
0000
0000
0000
,
0100
0000
0000
0000
,
0000
0000
0000
0000
,
0000
0000
0000
0000
,
0000
0000
0000
0000
,
1000
0000
0000
0000
,
0000
0000
0000
0000
,
0000
0000
0000
0000
,
0000
0000
0000
0000
,
0010
0000
0000
0000
,
0000
0000
0000
0000
,
0000
0000
0000
0000
,
0000
0000
0000
0000
,
1000
0000
0000
0000
,
0000
0000
0000
0000
,
0000
0000
0000
0000
,
0000
0000
0000
0000
,
0100
0000
0000
0000
,
0000
0000
0000
0000
,
0000
0000
0000
0000
,
0000
0000
0000
0000
,
1000
0000
0000
0000
,
0000
0000
0000
0000
,
0000
0000
0000
0000
,
0000
0000
0000
0000
,
0001
0000
0000
0000
,
0000
0000
0000
0000
,
0000
0000
0000
0000
,
0000
0000
0000
0000
,
1000
0000
0000
0000
,
0000
0000
0000
0000
,
0000
0000
0000
0000
,
0000
0000
0000
0000
,
0010
0000
0000
0000
,
0000
0000
0000
0000
,
0000
0000
0000
0000
,
0000
0000
0000
0000
,
0010
0000
0000
0000
,
0000
0000
0000
0000
,
0000
0000
0000
0000
,
0000
0000
0000
0000
,
1000
0000
0000
0000
,
0000
0000
0000
0000
,
0000
0000
0000
0000
,
0000
0000
0000
0000
,
0100
0000
0000
0000
,
0000
0000
0000
0000
,
0000
0000
0000
0000
,
0000
0000
0000
0000
,
0100
0000
0000
0000
,
0000
0000
0000
0000
,
0000
0000
0000
0000
,
0000
0000
0000
0000
,
0010
0000
0000
0000
,
0000
0000
0000
0000
,
0000
0000
0000
0000
,
0000
0000
0000
0000
,
0100
0000
0000
0000
,
0000
0000
0000
0000
,
0000
0000
0000
0000
,
0000
0000
0000
0000
,
0010
0000
0000
0000
,
0000
0000
0000
0000
,
0000
0000
0000
0000
,
0000
0000
0000
0000
,
0100
0000
0000
0000
,
0000
0000
0000
0000
,
0000
0000
0000
0000
,
0000
0000
0000
0000
,
0010
0000
0000
0000
,
0000
0000
0000
0000
,
0000
0000
0000
0000
,
0000
0000
0000
0000
,
0100
0000
0000
0000
,
0000
0000
0000
0000
,
0000
0000
0000
0000
,
0000
0000
0000
0000
,
0100
0000
0000
0000
,
0000
0000
0000
0000
,
0000
0000
0000
0000
,
0000
0000
0000
0000
,
1000
0000
0000
0000
,
0000
0000
0000
0000
,
0000
0000
0000
0000
,
0000
0000
0000
0000
,
0100
0000
0000
0000
,
0000
0000
0000
0000
,
0000
0000
0000
0000
,
0000
0000
0000
0000
,
0100
0000
0000
0000
,
0000
0000
0000
0000
,
0000
0000
0000
0000
,
0000
0000
0000
0000
,
1000
0000
0000
0000
,
0000
0000
0000
0000
,
0000
0000
0000
0000
,
0000
0000
0000
0000
,
0010
0000
0000
0000
,
0000
0000
0000
0000
,
0000
0000
0000
0000
,
0000
0000
0000
0000
,
0100
0000
0000
0000
,
0000
0000
0000
0000
,
0000
0000
0000
0000
,
0000
0000
0000
0000
,
1000
0000
0000
0000
,
0000
0000
0000
0000
,
0000
0000
0000
0000
,
0000
0000
0000
0000
,
0100
0000
0000
0000
,
0000
0000
0000
0000
,
0000
0000
0000
0000
,
0000
0000
0000
0000
,
1000
0000
0000
0000
,
0000
0000
0000
0000
,
0000
0000
0000
0000
,
0000
0000
0000
0000
,
0010
0000
0000
0000
,
0000
0000
0000
0000
,
0000
0000
0000
0000
,
0000
0000
0000
0000
,
0010
0000
0000
0000
,
0000
0000
0000
0000
,
0000
0000
0000
0000
,
0000
0000
0000
0000
,
1000
0000
0000
0000
,
0000
0000
0000
0000
,
0000
0000
0000
0000
,
0000
0000
0000
0000
,
0001
0000
0000
0000
,
0000
0000
0000
0000
,
0000
0000
0000
0000
,
0000
0000
0000
0000
,
0100
0000
0000
0000
,
0000
0000
0000
0000
,
0000
0000
0000
0000
,
0000
0000
0000
0000
,
0010
0000
0000
0000
,
0000
0000
0000
0000
,
0000
0000
0000
0000
,
0000
0000
0000
0000
,
1000
0000
0000
0000
,
0000
0000
0000
0000
,
0000
0000
0000
0000
,
0000
0000
0000
0000
,
0100
0000
0000
0000
,
0000
0000
0000
0000
,
0000
0000
0000
0000
,
0000
0000
0000
0000
,
1000
0000
0000
0000
,
0000
0000
0000
0000
,
0000
0000
0000
0000
,
0000
0000
0000
0000
,
0100
0000
0000
0000
,
0000
0000
0000
0000
,
0000
0000
0000
0000
,
0000
0000
0000
0000
,
0100
0000
0000
0000
,
0000
0000
0000
0000
,
0000
0000
0000
0000
,
0000
0000
0000
0000
,
0100
0000
0000
0000
,
0000
0000
0000
0000
,
0000
0000
0000
0000
,
0000
0000
0000
0000
,
0100
0000
0000
0000
,
0000
0000
0000
0000
,
0000
0000
0000
0000
,
0000
0000
0000
0000
,
1000
0000
0000
0000
,
0000
0000
0000
0000
,
0000
0000
0000
0000
,
0000
0000
0000
0000
,
0100
0000
0000
0000
,
0000
0000
0000
0000
,
0000
0000
0000
0000
,
0000
0000
0000
0000
,
0100
0000
0000
0000
,
0000
0000
0000
0000
,
0000
0000
0000
0000
,
0000
0000
0000
0000
,
1000
0000
0000
0000
,
0000
0000
0000
0000
,
0000
0000
0000
0000
,
0000
0000
0000
0000
,
1000
0000
0000
0000
,
0000
0000
0000
0000
,
0000
0000
0000
0000
,
0000
0000
0000
0000
,
1000
0000
0000
0000
,
0000
0000
0000
0000
,
0000
0000
0000
0000
,
0000
0000
0000
0000
,
1000
0000
0000
0000
,
0000
0000
0000
0000
,
0000
0000
0000
0000
,
0000
0000
0000
0000
,
0100
0000
0000
0000
,
0000
0000
0000
0000
,
0000
0000
0000
0000
,
0000
0000
0000
0000
,
0100
0000
0000
0000
,
0000
0000
0000
0000
,
0000
0000
0000
0000
,
0000
0000
0000
0000
,
0100
0000
0000
0000
,
0000
0000
0000
0000
,
0000
0000
0000
0000
,
0000
0000
0000
0000
,
0100
0000
0000
0000
,
0000
0000
0000
0000
,
0000
0000
0000
0000
,
0000
0000
0000
0000
,
1000
0000
0000
0000
,
0000
0000
0000
0000
,
0000
0000
0000
0000
,
0000
0000
0000
0000
,
0100
0000
0000
0000
,
0000
0000
0000
0000
,
0000
0000
0000
0000
,
0000
0000
0000
0000
,
0010
0000
0000
0000
,
0000
0000
0000
0000
,
0000
0000
0000
0000
,
0000
0000
0000
0000
,
0100
0000
0000
0000
,
0000
0000
0000
0000
,
0000
0000
0000
0000
,
0000
0000
0000
0000
,
0001
0000
0000
0000
,
0000
0000
0000
0000
,
0000
0000
0000
0000
,
0000
0000
0000
0000
,
1000
0000
0000
0000
,
0000
0000
0000
0000
,
0000
0000
0000
0000
,
0000
0000
0000
0000
,
1000
0000
0000
0000
;

//---------------dance-single - I. Pyles----------------
#NOTES:
     dance-single:
     I. Pyles:
     Easy:
     13:
     1.000,1.000,0.440,0.236,1.000,3092.000,198.000,106.000,280.000,0.000:
0000
0000
0000
0000
,
1000
0100
0010
0001
1000
0010
0100
0001
1000
0100
0010
0001
0100
0000
0010
1000
,
0001
1000
0001
1000
0100
0000
0010
0001
1000
0001
1000
0001
0100
0000
0010
1000
,
0001
1000
0100
0010
0001
1000
0010
0100
0001
1000
0100
1000
0010
0000
0100
0010
,
1000
0010
1000
0010
0100
0000
0001
0010
0100
0010
0100
0010
0001
0000
1000
0001
,
1000
0100
0010
0001
1000
0010
0100
0001
1000
0100
0010
0001
0100
0000
0010
1000
,
0001
1000
0001
1000
0100
0000
0010
0001
1000
0001
1000
0001
0100
0000
0010
1000
,
0001
1000
0100
0010
0001
1000
0010
0100
0001
1000
0100
1000
0010
0000
0100
0010
,
1000
0010
1000
0010
0100
0000
0001
0010
0100
0010
0100
0010
0001
0000
0010
0001
,
1000
0100
1000
0001
0100
0001
1000
0100
1000
0001
0010
0001
,
1000
0100
1000
0010
0100
0001
0010
0100
1000
0010
0100
0001
,
1000
0010
1000
0001
0010
0001
1000
0010
1000
0001
0100
0001
,
1000
0010
1000
0100
0010
0001
0100
0010
1000
0100
0010
0001
,
1000
0100
1000
0001
0100
0001
1000
0100
1000
0001
0010
0001
,
1000
0100
1000
0010
0100
0001
0010
0100
1000
0010
0100
0001
,
1000
0010
1000
0001
0010
0001
1000
0010
1000
0001
0100
0001
,
1000
0010
1000
0100
0010
0001
0100
0010
1000
0100
0010
0001
,
1000
0100
1000
0001
0100
0001
1000
0100
1000
0001
0010
0001
,
1000
0100
1000
0010
0100
0001
0010
0100
1000
0010
0100
0001
,
1000
0010
1000
0001
0010
0001
1000
0010
1000
0001
0100
0001
,
1000
0010
1000
0100
0010
0001
0100
0010
1000
0100
0010
0001
,
1000
0100
1000
0001
0100
0001
1000
0100
1000
0001
0010
0001
,
1000
0100
1000
0010
0100
0001
0010
0100
1000
0010
0100
0001
,
1000
0010
1000
0001
0010
0001
1000
0010
1000
0001
0100
0001
,
1000
0010
1000
0100
0010
0001
0100
0010
1000
0100
0010
0001
,
1000
0100
1000
0001
0100
0001
1000
0100
1000
0001
0010
0001
,
1000
0100
1000
0010
0100
0001
0010
0100
1000
0010
0100
0001
,
1000
0010
1000
0001
0010
0001
1000
0010
1000
0001
0100
0001
,
1000
0010
1000
0100
0010
0001
0100
0010
1000
0100
0010
0001
,
1000
0100
1000
0001
0100
0001
1000
0100
1000
0001
0010
0001
,
1000
0100
1000
0010
0100
0001
0010
0100
1000
0010
0100
0001
,
1000
0010
1000
0001
0010
0001
1000
0010
1000
0001
0100
0001
,
1000
0010
1000
0100
0010
0001
0100
0010
1000
0100
0010
0001
,
1000
0100
1000
0001
0100
0001
1000
0100
1000
0001
0010
0001
,
1000
0100
1000
0010
0100
0001
0010
0100
1000
0010
0100
0001
,
0100
0000
0100
0000
0001
0100
0010
1000
0000
0001
1000
0000
0001
0010
0100
1000
,
0000
0001
1000
0000
0001
0100
0010
1000
0000
0001
1000
0000
0010
1000
0001
0000
,
1000
0100
0010
0001
1000
0010
0100
0001
1000
0100
0010
0001
0100
0000
0010
1000
,
0001
1000
0001
1000
0100
0000
0010
0001
1000
0001
1000
0001
0100
0000
0001
1000
,
0100
0000
0100
0000
1000
0100
0010
0001
0000
1000
0001
0000
1000
0010
0100
0001
,
0000
1000
0001
0000
1000
0100
0010
0001
0000
0001
1000
0100
0010
0000
0100
1000
,
0001
0010
0001
1000
0010
1000
0001
0010
0001
1000
0100
1000
,
0001
0010
0001
0100
0010
1000
0100
0010
0001
0100
0010
1000
,
0100
0000
0100
0000
1000
0100
0010
0001
0000
1000
0001
0000
1000
0010
0100
0001
,
0000
1000
0001
0000
1000
0100
0010
0001
0000
1000
0001
0000
1000
0001
0010
0001
,
1000
0010
1000
0001
0010
0001
1000
0010
1000
0001
0100
0001
,
1000
0010
1000
0100
0010
0001
0100
0010
1000
0100
0010
0001
,
0010
0000
0010
0000
0001
0100
0010
1000
0000
0001
1000
0000
0001
0010
0100
1000
,
0000
0001
1000
0000
0001
0100
0010
1000
0000
0001
1000
0100
0010
0000
0100
1000
,
0001
0000
0001
0000
1000
0000
0000
0100
0000
0100
0010
0001
1000
0000
0000
0100
,
0000
0100
0010
0001
1000
0000
0000
0100
0000
0100
0010
0001
1000
0000
0000
0010
,
0100
0000
0100
0000
0001
0100
0010
1000
0000
0001
1000
0000
0001
0010
0100
1000
,
0000
0001
1000
0000
0001
0100
0010
1000
0000
0001
1000
0000
0001
0010
0100
0000
,
0010
0001
0010
0001
1000
0000
0000
0010
0000
0010
0100
0001
1000
0000
0000
0010
,
0000
0010
0100
0001
1000
0000
0000
0010
0000
0010
0100
0001
1000
0000
0000
0100
,
0010
0000
0010
0000
0001
0010
0100
1000
0000
0001
1000
0000
0001
0100
0010
1000
,
0000
0001
1000
0000
0001
0010
0100
1000
0000
0001
1000
0010
0100
0000
0010
1000
,
0001
0000
0001
0000
1000
0000
0000
0010
0000
0010
0100
0001
1000
0000
0000
0010
,
0000
0010
0100
0001
1000
0000
0000
0010
0000
0010
0100
0001
1000
0000
0000
0100
,
0010
0000
0010
0000
0001
0010
0100
1000
0000
0001
1000
0000
0001
0100
0010
1000
,
0000
0001
1000
0000
0001
0010
0100
1000
0000
0001
1000
0000
0001
0100
0010
0000
,
0100
0001
0100
0001
1000
0000
0000
0100
0000
0100
0010
0001
1000
0000
0000
0100
,
0000
0100
0010
0001
1000
0000
0000
0100
0000
0100
0010
0001
1000
0000
0000
0010
,
0100
0000
0100
0000
0001
0100
0010
1000
0000
0001
1000
0000
0001
0010
0100
1000
,
0000
0001
1000
0000
0001
0100
0010
1000
0000
0001
1000
0100
0010
0000
0100
1000
,
0001
0100
0001
0100
0010
1000
0001
1000
0001
1000
0001
1000
0100
0010
0001
0010
,
0001
0010
0001
0010
0100
1000
0001
1000
0001
1000
0001
1000
0010
0100
0001
0100
,
0001
0100
0001
0100
0010
1000
0100
1000
0100
1000
0100
1000
0010
0100
0001
0100
,
0001
0100
0001
0100
0010
1000
0001
1000
0001
1000
0001
1000
0100
0010
0001
0010
,
0001
0010
0001
0010
0100
1000
0010
1000
0010
1000
0010
1000
0100
0010
0001
0010
,
0001
0010
0001
0010
0100
1000
0001
0010
0100
0000
M000
0000
0M00
0000
00M0
0000
,
000M
M000
00M0
0M00
000M
M000
0000
0000
,
0004
4000
0000
0000
0000
0000
0000
0000
0000
0000
0000
0000
0000
0000
0000
0000
0000
0000
0000
0000
0000
3003
0000
0000
,
1000
0000
0001
0000
1000
0000
0100
0010
0100
0010
0100
0000
1000
0000
0010
0100
,
0010
0100
0010
0000
1000
0000
0100
0010
0100
0010
0100
0000
1000
0001
1000
0000
,
0001
0000
1000
0000
0001
0000
0100
0010
0100
0010
0100
0000
0001
0000
0010
0100
,
0010
0100
0010
0000
0001
0000
0100
0010
0100
0010
0100
0000
0001
1000
0001
0000
,
0100
0000
0100
0000
0010
0000
1000
0010
0100
0010
1000
0000
0001
0000
0001
0000
,
0010
0000
0010
0000
0100
0000
1000
0100
0010
0100
1000
0000
0001
0000
0001
0000
,
1000
0100
0010
0001
1000
0100
0010
0001
1000
0100
0010
0100
0010
0001
1000
0010
,
0200
0000
0000
0000
0000
0000
0000
0000
0000
0000
0000
0000
0000
0000
0000
0300
,
1001
0000
0001
0000
1010
0000
0001
1000
0001
1000
0001
0000
1010
0000
0010
1000
,
0001
0000
0010
0000
0011
0000
1000
0001
1000
0001
1000
0000
0011
0000
0010
0001
,
1000
0000
0010
0100
0000
0010
1000
0000
0001
1000
0000
1000
0001
0000
0001
0010
,
0100
0000
0010
0000
1001
0000
0010
0100
0010
0100
0010
0000
1001
0000
1000
0100
,
0010
0000
0001
0000
1100
0000
0001
0010
0001
0010
0001
0000
1100
0000
0001
0100
,
0010
0000
1000
0000
0101
0000
1000
0010
1000
0010
1000
0000
0101
0000
0100
0001
,
1000
0000
0100
0010
0000
0100
1000
0000
0001
1000
0000
1000
0001
0000
0001
0100
,
0010
0000
1000
0000
0110
0000
1000
0001
1000
0001
1000
0000
0110
0000
0001
0000
,
2000
3000
M000
0000
2000
3000
0002
0003
0020
0030
0200
0300
0020
0030
0002
0003
,
1001
0000
1000
0000
1010
0000
0001
0010
0001
1000
0001
0000
1010
0000
0001
0100
,
0001
0000
1000
0000
0011
0000
1000
0010
1000
0001
1000
0000
0011
0000
1000
0100
,
1000
0000
0001
0000
1100
0000
0001
0100
0001
1000
0010
1000
0100
0010
0001
0010
,
0001
0000
1000
0000
1001
0000
0000
1000
0010
1000
0001
0000
1001
0000
0001
0010
,
0100
0000
0010
0000
1001
0000
0001
1000
0010
1000
0001
0000
1001
0000
1000
0100
,
0010
0000
0100
0000
1001
0000
1000
0100
1000
0001
1000
0001
1000
0001
1000
0001
,
0020
0000
0100
0000
0100
0000
0100
0000
0001
0000
0001
0000
0001
0000
0001
0030
,
1001
0000
1000
0000
0101
0000
1000
0001
1000
0001
1000
0000
0101
0000
0100
0001
,
1000
0000
0100
0000
1100
0000
0001
1000
0001
1000
0001
0000
1100
0000
0100
1000
,
0001
0000
0100
0010
0000
0100
0001
0000
1000
0001
0000
0001
1000
0000
1000
0100
,
0010
0000
0100
0000
1001
0000
0100
0010
0100
0010
0100
0000
1001
0000
0001
0010
,
0100
0000
1000
0000
0011
0000
1000
0100
1000
0100
1000
0000
0011
0000
1000
0010
,
0100
0000
0001
0000
1010
0000
0001
0100
0001
0100
0001
0000
1010
0000
0010
1000
,
0001
0000
0010
0100
0000
0010
0001
0000
1000
0001
0000
0001
1000
0000
1000
0010
,
0100
0000
0001
0000
0110
0000
0001
1000
0001
1000
0001
0000
0110
0000
1000
0000
,
0002
0003
000M
0000
0002
0003
2000
3000
0200
0300
0020
0030
0200
0300
2000
3000
,
1001
0000
0001
0000
0101
0000
1000
0100
1000
0001
1000
0000
0101
0000
1000
0010
,
1000
0000
0001
0000
1100
0000
0001
0100
0001
1000
0001
0000
1100
0000
0001
0010
,
0001
0000
1000
0000
0011
0000
1000
0010
1000
0001
0100
0001
0010
0100
1000
0100
,
1000
0000
0001
0000
1001
0000
0000
0001
0100
0001
1000
0000
1001
0000
1000
0100
,
0010
0000
0100
0000
1001
0000
1000
0001
0100
0001
1000
0000
1001
0000
0001
0010
,
0100
0000
0010
0000
1001
0000
1000
0010
1000
0001
1000
0001
1000
0001
1000
0001
,
0100
0000
0100
0000
0010
0100
0001
1000
0010
1000
0001
0010
0001
0100
0010
1000
,
0000
0000
0000
0000
,
1000
0000
0001
0100
0000
0010
0100
0010
1000
0001
0000
0010
,
0001
0000
1000
0100
0000
0010
0100
0010
0001
1000
0000
0000
,
0001
0010
0100
0010
0100
1000
0001
0100
0010
0100
0010
1000
,
0001
0100
0001
1000
0100
1000
0001
0010
0001
1000
0010
1000
,
0001
0000
0001
1000
0000
0001
1000
0010
1000
0001
0000
1000
,
0001
0000
0001
1000
0000
0001
1000
0010
1000
0001
0000
1000
,
0001
0000
0001
1000
0000
0001
0100
0001
1000
0100
1000
0001
,
0020
0000
0000
0000
0000
0000
0230
0000
0000
0000
0000
0000
2300
0000
0000
3000
1000
0000
0002
0000
0000
0000
0000
0000
,
0023
0000
0000
0000
0000
0000
0230
0000
0000
0300
0100
0000
2000
0000
0000
3000
1000
0000
0002
0000
0000
0000
0003
0000
,
0002
0000
0000
0003
0001
0000
0200
0000
0000
0300
0100
0000
0010
0000
1000
0000
0001
0000
0020
0000
0000
0030
0010
0000
,
0002
0000
0000
0003
0001
0000
0200
0000
0000
0000
0000
0000
0320
0000
0000
0000
0000
0000
0000
0000
0000
0030
0000
0000
,
1000
0100
1000
0001
0100
0001
1000
0010
1000
0001
0010
0001
,
1000
0000
1000
0001
0000
1000
0001
0100
0001
1000
0000
0001
,
1000
0000
1000
0001
0000
1000
0001
0100
0001
1000
0000
0001
,
1000
0000
1000
0001
0000
1000
0010
1000
0001
0100
0001
0010
,
M100
0000
0010
M001
0000
0010
0100
0010
0001
0010
0000
0100
,
100M
0000
0100
001M
0000
0100
1000
0100
0010
0100
0000
1000
,
00M1
0000
0100
00M1
0000
1000
0100
1000
0001
0100
0000
0001
,
0M10
0000
0001
1M00
0000
0010
1000
0001
0010
0001
1000
0010
,
010M
0000
0010
100M
0000
0010
0100
0010
1000
0100
0000
0010
,
M100
0000
0010
M001
0000
0010
0100
0010
0001
0100
0000
0010
,
1M00
0000
0001
1M00
0000
0001
0010
0001
1000
0010
0000
1000
,
00M1
0000
0100
00M1
0000
1000
0100
1000
0001
0100
0000
0001
,
001M
0000
0100
100M
0000
0010
0100
0010
1000
0100
0000
0010
,
M001
0000
0100
M010
0000
0100
0001
0010
0100
0010
0000
0001
,
01M0
0000
0001
10M0
0000
0100
1000
0001
0100
0001
0000
1000
,
0M01
0000
0010
0M01
0000
1000
0010
1000
0001
0010
0001
1000
,
0010
0000
0100
0000
0010
0000
0100
0000
0010
1000
0100
0000
0010
0000
0100
1000
,
0010
0000
0100
0000
0010
0000
0100
0000
0010
1000
0100
0000
0010
0000
0100
1000
,
0010
0100
0001
1000
0010
0100
0001
1000
0100
0010
0001
1000
0001
0010
0100
1000
,
0001
0100
0001
1000
0001
0100
0010
1000
0001
0010
0100
1000
0000
0000
0000
0000
,
0020
0030
0200
0300
0002
0003
2000
0000
0000
0000
0000
3000
0200
0000
0000
0300
,
1001
0000
1000
0000
1010
0000
0001
1000
0001
1000
0001
0000
1010
0000
0010
1000
,
0001
0000
0010
0100
0000
0010
0001
0000
1000
0001
0000
0001
1000
0000
1000
0010
,
0100
0000
0010
0000
1001
0000
0010
0100
0010
0100
0010
0000
1001
0000
0001
0100
,
0010
0000
1000
0000
0101
0000
1000
0010
1000
0010
1000
0000
0101
0000
1000
0100
,
0010
0000
0001
0000
1100
0000
0001
0010
0001
0010
0001
0000
1100
0000
0100
1000
,
0001
0000
0100
0010
0000
0100
0001
0000
1000
0001
0000
0001
1000
0000
1000
0100
,
0010
0000
0001
0000
0110
0000
0001
1000
0001
1000
0001
0000
0110
0000
1000
0000
,
0002
0003
000M
0000
0002
0003
2000
3000
0020
0030
0200
0300
0020
0030
2000
3000
,
1001
0000
0001
0000
0011
0000
1000
0010
1000
0001
1000
0000
0011
0000
1000
0100
,
1000
0000
0001
0000
1010
0000
0001
0010
0001
1000
0001
0000
1010
0000
0001
0100
,
0001
0000
1000
0000
0101
0000
1000
0100
1000
0001
0010
0001
0100
0010
1000
0010
,
1000
0000
0001
0000
1001
0000
0000
0001
0010
0001
1000
0000
1001
0000
1000
0010
,
0100
0000
0010
0000
1001
0000
1000
0001
0010
0001
1000
0000
1001
0000
0001
0100
,
0010
0000
0100
0000
1001
0000
1000
0010
1000
0001
1000
0001
1000
0001
1000
0001
,
0200
0010
0010
0010
0001
0001
0001
0301
,
1001
0000
0001
0000
1100
0000
0001
1000
0001
1000
0001
0000
1100
0000
0100
1000
,
0001
0000
0100
0000
0101
0000
1000
0001
1000
0001
1000
0000
0101
0000
0100
0001
,
1000
0000
0100
0010
0000
0100
1000
0000
0001
1000
0000
1000
0001
0000
0001
0100
,
0010
0000
0100
0000
1001
0000
0100
0010
0100
0010
0100
0000
1001
0000
1000
0010
,
0100
0000
0001
0000
1010
0000
0001
0100
0001
0100
0001
0000
1010
0000
0001
0010
,
0100
0000
1000
0000
0011
0000
1000
0100
1000
0100
1000
0000
0011
0000
0010
0001
,
1000
0000
0010
0100
0000
0010
1000
0000
0001
1000
0000
1000
0001
0000
0001
0010
,
0100
0000
1000
0000
0110
0000
1000
0001
1000
0001
1000
0000
0110
0000
0001
0000
,
2000
3000
M000
0000
2000
3000
0002
0003
0200
0300
0020
0030
0200
0300
0002
0003
,
1001
0000
1000
0000
1100
0000
0001
0100
0001
1000
0001
0000
1100
0000
0001
0010
,
0001
0000
1000
0000
0101
0000
1000
0100
1000
0001
1000
0000
0101
0000
1000
0010
,
1000
0000
0001
0000
1010
0000
0001
0010
0001
1000
0100
1000
0010
0100
0001
0100
,
0001
0000
1000
0000
1001
0000
0000
1000
0100
1000
0001
0000
1001
0000
0001
0100
,
0010
0000
0100
0000
1001
0000
0001
1000
0100
1000
0001
0000
1001
0000
1000
0010
,
0100
0000
0010
0000
1001
0000
0001
0010
0001
1000
0001
1000
0001
1000
0001
1000
,
0100
0000
0100
0000
1100
0000
0001
0010
0001
1000
0010
1000
0001
0000
0000
0000
,
1000
0100
0000
0100
0020
0000
0000
0030
0000
0000
0001
1000
0000
0001
1000
0000
,
0001
0100
0000
0100
0020
0000
0000
0030
0000
0000
1000
0001
0000
1000
0001
0000
,
0100
0010
0000
0010
2000
0000
0000
3000
0000
0000
0001
0100
0000
0001
0100
0000
,
0010
1000
0000
1000
0002
0000
0000
0003
0000
0000
1000
0100
0000
1000
0100
0000
,
1000
0010
0000
0010
0200
0000
0000
0300
0000
0000
0001
1000
0000
0001
1000
0000
,
0001
0010
0000
0010
0200
0000
0000
0300
0000
0000
1000
0001
0000
1000
0001
0000
,
0010
0100
0000
0100
2000
0000
0000
3000
0000
0000
0001
0010
0000
0001
0010
0000
,
0100
1000
0000
1000
0002
0000
0000
0003
0000
0000
1000
0010
0000
1000
0010
0000
,
1000
0100
1000
0001
0100
0001
1000
0100
1000
0001
0010
0001
,
1000
0100
1000
0010
0100
0001
0010
0100
1000
0010
0100
0001
,
1000
0010
1000
0001
0010
0001
1000
0010
1000
0001
0100
0001
,
1000
0010
1000
0100
0010
0001
0100
0010
1000
0100
0010
0001
,
1000
0100
1000
0001
0100
0001
1000
0100
1000
0001
0010
0001
,
1000
0100
1000
0010
0100
0001
0010
0100
1000
0010
0100
0001
,
1000
0010
1000
0001
0010
0001
1000
0010
1000
0001
0100
0001
,
1000
0010
1000
0100
0010
0001
0100
0010
1000
0100
0010
0001
,
2000
0000
0000
0000
,
0000
0000
0000
0000
,
0000
0000
0000
0000
,
0000
0000
0000
0000
0000
0000
0000
0000
0000
0000
0000
0000
0000
0000
0000
0000
0000
0000
0000
0000
0000
0000
0000
0000
0000
0000
0000
0000
0000
0000
0000
0000
0000
0000
0000
0000
0000
0000
0000
0000
0000
0000
0000
0000
0000
0000
0000
0000
0000
0000
0000
0000
0000
0000
0000
0000
0000
0000
0000
0000
0000
0000
0000
3000
,
2002
0000
0000
0000
,
0000
0000
0000
0000
,
0000
00M0
00M0
00M0
,
00M0
0000
0000
0000
0000
0000
0000
0000
0000
0000
0000
0000
0000
0000
0000
0000
00M0
0000
0000
0000
0000
0000
0000
0000
0000
0000
0000
0000
0000
0000
0000
0000
00M0
0000
0000
0000
0000
0000
0000
0000
0000
0000
0000
0000
0000
0000
0000
0000
00M0
0000
0000
0000
0000
0000
0000
0000
0000
0000
0000
0000
0000
0000
0000
3003
,
20M2
0M00
00M0
0M00
00M0
0M00
00M0
0M00
,
00M0
0M00
00M0
0M00
00M0
0M00
00M0
0M00
,
00M0
0M00
00M0
0M00
00M0
0M00
00M0
0M00
00M0
0M00
00M0
0M00
00M0
0M00
00M0
0M00
,
00M0
0000
0000
0000
0M00
0000
0000
0000
00M0
0000
0000
0000
0M00
0000
0000
0000
00M0
0000
0000
0000
0M00
0000
0000
0000
00M0
0000
0000
0000
0M00
0000
0000
0000
00M0
0000
0000
0000
0M00
0000
0000
0000
00M0
0000
0000
0000
0M00
0000
0000
0000
00M0
0000
0000
0000
0M00
0000
0000
0000
00M0
0000
0000
0000
0M00
0000
0000
3003
,
20M2
0M00
00M0
0M00
00M0
0M00
00M0
0M00
00M0
0M00
00M0
0M00
00M0
0M00
00M0
0M00
,
00M0
0M00
00M0
0M00
00M0
0M00
00M0
0M00
00M0
0M00
00M0
0M00
00M0
0M00
00M0
0M00
,
00M0
0M00
00M0
0M00
00M0
0M00
00M0
0M00
00M0
0M00
00M0
0M00
00M0
0M00
00M0
0M00
,
00M0
0000
0000
0000
0M00
0000
0000
0000
00M0
0000
0000
0000
0M00
0000
0000
0000
00M0
0000
0000
0000
0M00
0000
0000
0000
00M0
0000
0000
0000
0M00
0000
0000
0000
00M0
0000
0000
0000
0M00
0000
0000
0000
00M0
0000
0000
0000
0M00
0000
0000
0000
00M0
0000
0000
0000
0M00
0000
0000
0000
00M0
0000
0000
0000
0M00
0000
0000
3003
,
20M2
0M00
00M0
0M00
00M0
0M00
00M0
0M00
00M0
0M00
00M0
0M00
00M0
0M00
00M0
0M00
00M0
0M00
00M0
0M00
00M0
0M00
00M0
0M00
,
00M0
0M00
00M0
0M00
00M0
0M00
00M0
0M00
00M0
0M00
00M0
0M00
00M0
0M00
00M0
0M00
00M0
0M00
00M0
0M00
00M0
0M00
00M0
0M00
,
00M0
0M00
00M0
0M00
00M0
0M00
00M0
0M00
00M0
0M00
00M0
0M00
00M0
0M00
00M0
0M00
00M0
0M00
00M0
0M00
00M0
0M00
00M0
0M00
,
00M0
0M00
00M0
0M00
00M0
0M00
00M0
0M00
00M0
0M00
00M0
0M00
00M0
0M00
00M0
0M00
00M0
0M00
00M0
0M00
00M0
0M00
00M0
0M00
,
00M0
0M00
00M0
0M00
00M0
0M00
00M0
0M00
00M0
0M00
00M0
0M00
00M0
0M00
00M0
0M00
00M0
0M00
00M0
0M00
00M0
0M00
00M0
0M00
,
3003
0012
0000
0003
0000
2010
0000
3000
,
0000
4004
0000
0000
0000
0000
0000
0000
,
0000
0000
0000
3003
0000
0000
0000
0000
,
0001
0000
1000
0000
0001
0000
0010
0100
0010
0100
0010
0000
0001
0000
0100
0010
,
0100
0010
0100
0000
0001
0000
0010
0100
0010
0100
0010
0000
0001
1000
0001
0000
,
1000
0000
0001
0000
1000
0000
0010
0100
0010
0100
0010
0000
1000
0000
0100
0010
,
0100
0010
0100
0000
1000
0000
0010
0100
0010
0100
0010
0000
1000
0001
1000
0000
,
0010
0000
0010
0000
0100
0000
0001
0100
0010
0100
0001
0000
1000
0000
1000
0000
,
0100
0000
0100
0000
0010
0000
0001
0010
0100
0010
0001
0000
1000
0000
1000
0000
,
0001
0010
0100
1000
0001
0010
0100
1000
0001
0010
0100
0010
0100
1000
0001
0100
,
0020
0000
0000
0000
0000
0000
0000
0000
0000
0000
0000
0000
0000
0000
0000
0030
,
1001
0000
1000
0000
0101
0000
1000
0001
1000
0001
1000
0000
0101
0000
0100
0001
,
1000
0000
0100
0000
1100
0000
0001
1000
0001
1000
0001
0000
1100
0000
0100
1000
,
0001
0000
0100
0010
0000
0100
0001
0000
1000
0001
0000
0001
1000
0000
1000
0100
,
0010
0000
0100
0000
1001
0000
0100
0010
0100
0010
0100
0000
1001
0000
0001
0010
,
0100
0000
1000
0000
0011
0000
1000
0100
1000
0100
1000
0000
0011
0000
1000
0010
,
0100
0000
0001
0000
1010
0000
0001
0100
0001
0100
0001
0000
1010
0000
0010
1000
,
0001
0000
0010
0100
0000
0010
0001
0000
1000
0001
0000
0001
1000
0000
1000
0010
,
0100
0000
0001
0000
0110
0000
0001
1000
0001
1000
0001
0000
0110
0000
1000
0000
,
0002
0003
000M
0000
0002
0003
2000
3000
0200
0300
0020
0030
0200
0300
2000
3000
,
1001
0000
0001
0000
0101
0000
1000
0100
1000
0001
1000
0000
0101
0000
1000
0010
,
1000
0000
0001
0000
1100
0000
0001
0100
0001
1000
0001
0000
1100
0000
0001
0010
,
0001
0000
1000
0000
0011
0000
1000
0010
1000
0001
0100
0001
0010
0100
1000
0100
,
1000
0000
0001
0000
1001
0000
0000
0001
0100
0001
1000
0000
1001
0000
1000
0100
,
0010
0000
0100
0000
1001
0000
1000
0001
0100
0001
1000
0000
1001
0000
0001
0010
,
0100
0000
0010
0000
1001
0000
1000
0100
1000
0001
1000
0001
1000
0001
1000
0001
,
0020
0000
0100
0000
0100
0000
0100
0000
0001
0000
0001
0000
0001
0000
0001
0030
,
1001
0000
0001
0000
1010
0000
0001
1000
0001
1000
0001
0000
1010
0000
0010
1000
,
0001
0000
0010
0000
0011
0000
1000
0001
1000
0001
1000
0000
0011
0000
0010
0001
,
1000
0000
0010
0100
0000
0010
1000
0000
0001
1000
0000
1000
0001
0000
0001
0010
,
0100
0000
0010
0000
1001
0000
0010
0100
0010
0100
0010
0000
1001
0000
1000
0100
,
0010
0000
0001
0000
1100
0000
0001
0010
0001
0010
0001
0000
1100
0000
0001
0100
,
0010
0000
1000
0000
0101
0000
1000
0010
1000
0010
1000
0000
0101
0000
0100
0001
,
1000
0000
0100
0010
0000
0100
1000
0000
0001
1000
0000
1000
0001
0000
0001
0100
,
0010
0000
1000
0000
0110
0000
1000
0001
1000
0001
1000
0000
0110
0000
0001
0000
,
2000
3000
M000
0000
2000
3000
0002
0003
0020
0030
0200
0300
0020
0030
0002
0003
,
1001
0000
1000
0000
1010
0000
0001
0010
0001
1000
0001
0000
1010
0000
0001
0100
,
0001
0000
1000
0000
0011
0000
1000
0010
1000
0001
1000
0000
0011
0000
1000
0100
,
1000
0000
0001
0000
1100
0000
0001
0100
0001
1000
0010
1000
0100
0010
0001
0010
,
0001
0000
1000
0000
1001
0000
0000
1000
0010
1000
0001
0000
1001
0000
0001
0010
,
0100
0000
0010
0000
1001
0000
0001
1000
0010
1000
0001
0000
1001
0000
1000
0100
,
0010
0000
0100
0000
1001
0000
0001
0100
0001
1000
0001
1000
0001
1000
0001
1000
,
0010
0000
0010
0000
0100
0010
1000
0001
0100
0001
1000
0100
1000
0010
0100
0001
,
0020
0030
0200
0300
2000
3000
0002
0000
0000
0000
0000
0003
0020
0000
0000
0030
,
1001
0000
0001
0000
0101
0000
1000
0001
1000
0001
1000
0000
0101
0000
0100
0001
,
1000
0000
0100
0010
0000
0100
1000
0000
0001
1000
0000
1000
0001
0000
0001
0100
,
0010
0000
0100
0000
1001
0000
0100
0010
0100
0010
0100
0000
1001
0000
1000
0010
,
0100
0000
0001
0000
1010
0000
0001
0100
0001
0100
0001
0000
1010
0000
0001
0010
,
0100
0000
1000
0000
0011
0000
1000
0100
1000
0100
1000
0000
0011
0000
0010
0001
,
1000
0000
0010
0100
0000
0010
1000
0000
0001
1000
0000
1000
0001
0000
0001
0010
,
0100
0000
1000
0000
0110
0000
1000
0001
1000
0001
1000
0000
0110
0000
0001
0000
,
2000
3000
M000
0000
2000
3000
0002
0003
0200
0300
0020
0030
0200
0300
0002
0003
,
1001
0000
1000
0000
1100
0000
0001
0100
0001
1000
0001
0000
1100
0000
0001
0010
,
0001
0000
1000
0000
0101
0000
1000
0100
1000
0001
1000
0000
0101
0000
1000
0010
,
1000
0000
0001
0000
1010
0000
0001
0010
0001
1000
0100
1000
0010
0100
0001
0100
,
0001
0000
1000
0000
1001
0000
0000
1000
0100
1000
0001
0000
1001
0000
0001
0100
,
0010
0000
0100
0000
1001
0000
0001
1000
0100
1000
0001
0000
1001
0000
1000
0010
,
0100
0000
0010
0000
1001
0000
1000
0010
1000
0001
1000
0001
1000
0001
1000
0001
,
0200
0010
0010
0010
0001
0001
0001
0301
,
1001
0000
1000
0000
0011
0000
1000
0001
1000
0001
1000
0000
0011
0000
0010
0001
,
1000
0000
0010
0000
1010
0000
0001
1000
0001
1000
0001
0000
1010
0000
0010
1000
,
0001
0000
0010
0100
0000
0010
0001
0000
1000
0001
0000
0001
1000
0000
1000
0010
,
0100
0000
0010
0000
1001
0000
0010
0100
0010
0100
0010
0000
1001
0000
0001
0100
,
0010
0000
1000
0000
0101
0000
1000
0010
1000
0010
1000
0000
0101
0000
1000
0100
,
0010
0000
0001
0000
1100
0000
0001
0010
0001
0010
0001
0000
1100
0000
0100
1000
,
0001
0000
0100
0010
0000
0100
0001
0000
1000
0001
0000
0001
1000
0000
1000
0100
,
0010
0000
0001
0000
0110
0000
0001
1000
0001
1000
0001
0000
0110
0000
1000
0000
,
0002
0003
000M
0000
0002
0003
2000
3000
0020
0030
0200
0300
0020
0030
2000
3000
,
1001
0000
0001
0000
0011
0000
1000
0010
1000
0001
1000
0000
0011
0000
1000
0100
,
1000
0000
0001
0000
1010
0000
0001
0010
0001
1000
0001
0000
1010
0000
0001
0100
,
0001
0000
1000
0000
0101
0000
1000
0100
1000
0001
0010
0001
0100
0010
1000
0010
,
1000
0000
0001
0000
1001
0000
0000
0001
0010
0001
1000
0000
1001
0000
1000
0010
,
0100
0000
0010
0000
1001
0000
1000
0001
0010
0001
1000
0000
1001
0000
0001
0100
,
0010
0000
0100
0000
1001
0000
1000
0100
1000
0001
1000
0001
1000
0001
1000
0001
,
0010
0000
0010
0000
0011
0000
1000
0100
1000
0001
0100
0001
1000
0000
0000
0000
,
0001
0010
0100
1000
0001
0100
0010
1000
0001
0010
0100
1000
0010
0000
0100
0001
,
1000
0001
1000
0001
0010
0000
0100
1000
0001
1000
0001
1000
0010
0000
0100
0001
,
1000
0001
0010
0100
1000
0001
0100
0010
1000
0001
0010
0001
0100
0000
0010
0100
,
0001
0100
0001
0100
0010
0000
1000
0100
0010
0100
0010
0100
1000
0000
0001
1000
,
0001
0010
0100
1000
0001
0100
0010
1000
0001
0010
0100
1000
0010
0000
0100
0001
,
1000
0001
1000
0001
0010
0000
0100
1000
0001
1000
0001
1000
0010
0000
0100
0001
,
1000
0001
0010
0100
1000
0001
0100
0010
1000
0001
0010
0001
0100
0000
0010
0100
,
0001
0100
0001
0100
0010
0000
1000
0100
0010
0100
0010
0100
1000
0000
0001
1000
,
0001
0010
0100
1000
0001
0100
0010
1000
0001
0010
0100
1000
0010
0000
0100
0001
,
1000
0001
1000
0001
0010
0000
0100
1000
0001
1000
0001
1000
0010
0000
0100
0001
,
1000
0001
0010
0100
1000
0001
0100
0010
1000
0001
0010
0001
0100
0000
0010
0100
,
0001
0100
0001
0100
0010
0000
1000
0100
0010
0100
0010
0100
1000
0000
0001
1000
,
0001
0010
0100
1000
0001
0100
0010
1000
0001
0010
0100
1000
0010
0000
0100
0001
,
1000
0001
1000
0001
0010
0000
0100
1000
0001
1000
0001
1000
0010
0000
0100
0001
,
1000
0001
0010
0100
1000
0001
0100
0010
1000
0001
0010
0001
0100
0000
0010
0100
,
0001
0100
0001
0100
0010
0000
1000
0100
0010
0100
0010
0100
1000
0000
0001
1000
,
0020
0000
0000
0000
,
0000
0000
0000
0000
,
0000
0000
0000
0000
,
0000
0000
0000
0000
,
0030
0000
0000
0000
;

//---------------dance-single - I. Pyles----------------
#NOTES:
     dance-single:
     I. Pyles:
     Medium:
     14:
     1.000,1.000,0.438,0.236,1.000,3207.000,197.000,106.000,280.000,0.000:
0000
0000
0000
0000
,
1000
0100
0010
0001
1000
0010
0100
0001
1000
0100
0010
0001
0100
0000
0010
1000
,
0001
1000
0001
1000
0100
0000
0010
0001
1000
0001
1000
0001
0100
0000
0010
1000
,
0001
1000
0100
0010
0001
1000
0010
0100
0001
1000
0100
1000
0010
0000
0100
0010
,
1000
0010
1000
0010
0100
0000
0001
0010
0100
0010
0100
0010
0001
0000
1000
0001
,
1000
0100
0010
0001
1000
0010
0100
0001
1000
0100
0010
0001
0100
0000
0010
1000
,
0001
1000
0001
1000
0100
0000
0010
0001
1000
0001
1000
0001
0100
0000
0010
1000
,
0001
1000
0100
0010
0001
1000
0010
0100
0001
1000
0100
1000
0010
0000
0100
0010
,
1000
0010
1000
0010
0100
0000
0001
0010
0100
0010
0100
0010
0001
0000
1000
0001
,
1000
0100
0010
0001
1000
0010
0100
0001
1000
0100
0010
0001
0100
0000
0010
1000
,
0001
1000
0001
1000
0100
0000
0010
0001
1000
0001
1000
0001
0100
0000
0010
1000
,
0001
1000
0100
0010
0001
1000
0010
0100
0001
1000
0100
1000
0010
0000
0100
0010
,
1000
0010
1000
0010
0100
0000
0001
0010
0100
0010
0100
0010
0001
0000
1000
0001
,
1000
0100
0010
0001
1000
0010
0100
0001
1000
0100
0010
0001
0100
0000
0010
1000
,
0001
1000
0001
1000
0100
0000
0010
0001
1000
0001
1000
0001
0100
0000
0010
1000
,
0001
1000
0100
0010
0001
1000
0010
0100
0001
1000
0100
1000
0010
0000
0100
0010
,
1000
0010
1000
0010
0100
0000
0001
0010
0100
0010
0100
0010
0001
0000
1000
0001
,
1000
0100
0010
0001
1000
0010
0100
0001
1000
0100
0010
0001
0100
0000
0010
1000
,
0001
1000
0001
1000
0100
0000
0010
0001
1000
0001
1000
0001
0100
0000
0010
1000
,
0001
1000
0100
0010
0001
1000
0010
0100
0001
1000
0100
1000
0010
0000
0100
0010
,
1000
0010
1000
0010
0100
0000
0001
0010
0100
0010
0100
0010
0001
0000
1000
0001
,
1000
0100
0010
0001
1000
0010
0100
0001
1000
0100
0010
0001
0100
0000
0010
1000
,
0001
1000
0001
1000
0100
0000
0010
0001
1000
0001
1000
0001
0100
0000
0010
1000
,
0001
1000
0100
0010
0001
1000
0010
0100
0001
1000
0100
1000
0010
0000
0100
0010
,
1000
0010
1000
0010
0100
0000
0001
0010
0100
0010
0100
0010
0001
0000
1000
0001
,
1000
0100
0010
0001
1000
0010
0100
0001
1000
0100
0010
0001
0100
0000
0010
1000
,
0001
1000
0001
1000
0100
0000
0010
0001
1000
0001
1000
0001
0100
0000
0010
1000
,
0001
1000
0100
0010
0001
1000
0010
0100
0001
1000
0100
1000
0010
0000
0100
0010
,
1000
0010
1000
0010
0100
0000
0001
0010
0100
0010
0100
0010
0001
0000
1000
0001
,
1000
0100
0010
0001
1000
0010
0100
0001
1000
0100
0010
0001
0100
0000
0010
1000
,
0001
1000
0001
1000
0100
0000
0010
0001
1000
0001
1000
0001
0100
0000
0010
1000
,
0001
1000
0100
0010
0001
1000
0010
0100
0001
1000
0100
1000
0010
0000
0100
0010
,
1000
0010
1000
0010
0100
0000
0001
0010
0100
0010
0100
0010
0001
0000
1000
0001
,
1000
0100
0010
0001
1000
0010
0100
0001
1000
0100
0010
0001
0100
0000
0010
1000
,
0001
1000
0001
1000
0100
0000
0010
0001
1000
0001
1000
0001
0100
0000
0001
1000
,
0010
0000
0010
0000
1000
0010
0100
0001
0000
1000
0001
0000
1000
0100
0010
0001
,
0000
1000
0001
0000
1000
0010
0100
0001
0000
1000
0001
0000
0100
0001
1000
0000
,
0001
0010
0100
1000
0001
0100
0010
1000
0001
0010
0100
1000
0010
0000
0100
0001
,
1000
0001
1000
0001
0010
0000
0100
1000
0001
1000
0001
1000
0010
0000
1000
0001
,
0010
0000
0010
0000
0001
0010
0100
1000
0000
0001
1000
0000
0001
0100
0010
1000
,
0000
0001
1000
0000
0001
0010
0100
1000
0000
1000
0001
0010
0100
0000
0010
0001
,
1000
0010
0100
0001
1000
0100
0010
0001
1000
0010
0100
0001
0010
0000
0100
1000
,
0001
1000
0001
1000
0010
0000
0100
0001
1000
0001
1000
0001
0100
0000
0001
1000
,
0100
0000
0100
0000
1000
0100
0010
0001
0000
1000
0001
0000
1000
0010
0100
0001
,
0000
1000
0001
0000
1000
0100
0010
0001
0000
1000
0001
0000
1000
0001
0010
0001
,
1000
0100
0010
0001
1000
0010
0100
0001
1000
0100
0010
0001
0100
0000
0010
1000
,
0001
1000
0001
1000
0100
0000
0010
0001
1000
0001
1000
0001
0100
0000
0001
1000
,
0100
0000
0100
0000
1000
0010
0100
0001
0000
1000
0001
0000
1000
0100
0010
0001
,
0000
1000
0001
0000
1000
0010
0100
0001
0000
1000
0001
0010
0100
0000
0010
0001
,
1000
0000
1000
0000
0001
0000
0000
0010
0000
0010
0100
1000
0001
0000
0000
0010
,
0000
0010
0100
1000
0001
0000
0000
0010
0000
0010
0100
1000
0001
0000
0000
0100
,
0010
0000
0010
0000
1000
0010
0100
0001
0000
1000
0001
0000
1000
0100
0010
0001
,
0000
1000
0001
0000
1000
0010
0100
0001
0000
1000
0001
0000
1000
0100
0010
0000
,
0100
1000
0100
1000
0001
0000
0000
0100
0000
0100
0010
1000
0001
0000
0000
0100
,
0000
0100
0010
1000
0001
0000
0000
0100
0000
0100
0010
1000
0001
0000
0000
0010
,
0100
0000
0100
0000
1000
0100
0010
0001
0000
1000
0001
0000
1000
0010
0100
0001
,
0000
1000
0001
0000
1000
0100
0010
0001
0000
1000
0001
0100
0010
0000
0100
0001
,
1000
0000
1000
0000
0001
0000
0000
0100
0000
0100
0010
1000
0001
0000
0000
0100
,
0000
0100
0010
1000
0001
0000
0000
0100
0000
0100
0010
1000
0001
0000
0000
0010
,
0100
0000
0100
0000
1000
0100
0010
0001
0000
1000
0001
0000
1000
0010
0100
0001
,
0000
1000
0001
0000
1000
0100
0010
0001
0000
1000
0001
0000
1000
0010
0100
0000
,
0010
1000
0010
1000
0001
0000
0000
0010
0000
0010
0100
1000
0001
0000
0000
0010
,
0000
0010
0100
1000
0001
0000
0000
0010
0000
0010
0100
1000
0001
0000
0000
0100
,
0010
0000
0010
0000
1000
0010
0100
0001
0000
1000
0001
0000
1000
0100
0010
0001
,
0000
1000
0001
0000
1000
0010
0100
0001
0000
1000
0001
0010
0100
0000
0010
0001
,
1000
0010
1000
0010
0100
0001
1000
0001
1000
0001
1000
0001
0010
0100
1000
0100
,
1000
0100
1000
0100
0010
0001
1000
0001
1000
0001
1000
0001
0100
0010
1000
0010
,
1000
0010
1000
0010
0100
0001
0010
0001
0010
0001
0010
0001
0100
0010
1000
0010
,
1000
0010
1000
0010
0100
0001
1000
0001
1000
0001
1000
0001
0010
0100
1000
0100
,
1000
0100
1000
0100
0010
0001
0100
0001
0100
0001
0100
0001
0010
0100
1000
0100
,
1000
0100
1000
0100
0010
0001
1000
0100
0010
0000
M000
0000
0M00
0000
00M0
0000
,
000M
M000
00M0
0M00
000M
M000
0000
0000
,
1000
0000
0100
0000
0010
0000
0001
0000
0000
1000
0000
0000
0001
0000
0100
0000
0010
0000
1000
0000
0000
0001
0000
0000
1000
0000
0100
0000
0010
0000
0001
0000
0000
1000
0000
0000
0001
0000
0100
0000
0010
0000
1000
0000
0000
0001
0000
0000
,
1000
0000
0001
0000
1000
0000
0100
0010
0100
0010
0100
0000
1000
0000
0010
0100
,
0010
0100
0010
0000
1000
0000
0100
0010
0100
0010
0100
0000
1000
0001
1000
0000
,
0001
0000
1000
0000
0001
0000
0100
0010
0100
0010
0100
0000
0001
0000
0010
0100
,
0010
0100
0010
0000
0001
0000
0100
0010
0100
0010
0100
0000
0001
1000
0001
0000
,
0100
0000
0100
0000
0010
0000
1000
0010
0100
0010
1000
0000
0001
0000
0001
0000
,
0010
0000
0010
0000
0100
0000
1000
0100
0010
0100
1000
0000
0001
0000
0001
0000
,
1000
0100
0010
0001
1000
0100
0010
0001
1000
0100
0010
0100
0010
0001
1000
0010
,
0200
0000
0000
0000
0000
0000
0000
0000
0000
0000
0000
0000
0000
0000
0000
0300
,
1001
0000
0001
0000
1010
0000
0001
1000
0001
1000
0001
0000
1010
0000
0010
1000
,
0001
0000
0010
0000
0011
0000
1000
0001
1000
0001
1000
0000
0011
0000
0010
0001
,
1000
0000
0010
0100
0000
0010
1000
0000
0001
1000
0000
1000
0001
0000
0001
0010
,
0100
0000
0010
0000
1001
0000
0010
0100
0010
0100
0010
0000
1001
0000
1000
0100
,
0010
0000
0001
0000
1100
0000
0001
0010
0001
0010
0001
0000
1100
0000
0001
0100
,
0010
0000
1000
0000
0101
0000
1000
0010
1000
0010
1000
0000
0101
0000
0100
0001
,
1000
0000
0100
0010
0000
0100
1000
0000
0001
1000
0000
1000
0001
0000
0001
0100
,
0010
0000
1000
0000
0110
0000
1000
0001
1000
0001
1000
0000
0110
0000
0001
0000
,
2000
3000
M000
0000
2000
3000
0002
0003
0020
0030
0200
0300
0020
0030
0002
0003
,
1001
0000
1000
0000
1010
0000
0001
0010
0001
1000
0001
0000
1010
0000
0001
0100
,
0001
0000
1000
0000
0011
0000
1000
0010
1000
0001
1000
0000
0011
0000
1000
0100
,
1000
0000
0001
0000
1100
0000
0001
0100
0001
1000
0010
1000
0100
0010
0001
0010
,
0001
0000
1000
0000
1001
0000
0000
1000
0010
1000
0001
0000
1001
0000
0001
0010
,
0100
0000
0010
0000
1001
0000
0001
1000
0010
1000
0001
0000
1001
0000
1000
0100
,
0010
0000
0100
0000
1001
0000
1000
0100
1000
0001
1000
0001
1000
0001
1000
0001
,
0020
0000
0100
0000
0100
0000
0100
0000
0001
0000
0001
0000
0001
0000
0001
0030
,
1001
0000
1000
0000
0101
0000
1000
0001
1000
0001
1000
0000
0101
0000
0100
0001
,
1000
0000
0100
0000
1100
0000
0001
1000
0001
1000
0001
0000
1100
0000
0100
1000
,
0001
0000
0100
0010
0000
0100
0001
0000
1000
0001
0000
0001
1000
0000
1000
0100
,
0010
0000
0100
0000
1001
0000
0100
0010
0100
0010
0100
0000
1001
0000
0001
0010
,
0100
0000
1000
0000
0011
0000
1000
0100
1000
0100
1000
0000
0011
0000
1000
0010
,
0100
0000
0001
0000
1010
0000
0001
0100
0001
0100
0001
0000
1010
0000
0010
1000
,
0001
0000
0010
0100
0000
0010
0001
0000
1000
0001
0000
0001
1000
0000
1000
0010
,
0100
0000
0001
0000
0110
0000
0001
1000
0001
1000
0001
0000
0110
0000
1000
0000
,
0002
0003
000M
0000
0002
0003
2000
3000
0200
0300
0020
0030
0200
0300
2000
3000
,
1001
0000
0001
0000
0101
0000
1000
0100
1000
0001
1000
0000
0101
0000
1000
0010
,
1000
0000
0001
0000
1100
0000
0001
0100
0001
1000
0001
0000
1100
0000
0001
0010
,
0001
0000
1000
0000
0011
0000
1000
0010
1000
0001
0100
0001
0010
0100
1000
0100
,
1000
0000
0001
0000
1001
0000
0000
0001
0100
0001
1000
0000
1001
0000
1000
0100
,
0010
0000
0100
0000
1001
0000
1000
0001
0100
0001
1000
0000
1001
0000
0001
0010
,
0100
0000
0010
0000
1001
0000
1000
0010
1000
0001
1000
0001
1000
0001
1000
0001
,
0100
0000
0100
0000
0010
0100
0001
1000
0010
1000
0001
0010
0001
0100
0010
1000
,
0000
0000
0000
0000
,
1000
0000
0001
0100
0000
0010
0100
0010
1000
0001
0000
0010
,
0001
0000
1000
0100
0000
0010
0100
0010
0001
1000
0000
0000
,
0001
0010
0100
0010
0100
1000
0001
0100
0010
0100
0010
1000
,
0001
0100
0001
1000
0100
1000
0001
0010
0001
1000
0010
1000
,
0001
0000
0001
1000
0000
0001
1000
0010
1000
0001
0000
1000
,
0001
0000
0001
1000
0000
0001
1000
0010
1000
0001
0000
1000
,
0001
0000
0001
1000
0000
0001
0100
0001
1000
0100
1000
0001
,
0020
0000
0000
0000
0000
0000
0230
0000
0000
0000
0000
0000
2300
0000
0000
3000
1000
0000
0002
0000
0000
0000
0000
0000
,
0023
0000
0000
0000
0000
0000
0230
0000
0000
0300
0100
0000
2000
0000
0000
3000
1000
0000
0002
0000
0000
0000
0003
0000
,
0002
0000
0000
0003
0001
0000
0200
0000
0000
0300
0100
0000
0010
0000
1000
0000
0001
0000
0020
0000
0000
0030
0010
0000
,
0002
0000
0000
0003
0001
0000
0200
0000
0000
0000
0000
0000
0320
0000
0000
0000
0000
0000
0000
0000
0000
0030
0000
0000
,
1000
0100
1000
0001
0100
0001
1000
0010
1000
0001
0010
0001
,
1000
0000
1000
0001
0000
1000
0001
0100
0001
1000
0000
0001
,
1000
0000
1000
0001
0000
1000
0001
0100
0001
1000
0000
0001
,
1000
0000
1000
0001
0000
1000
0010
1000
0001
0100
0001
0010
,
M100
0000
0010
M001
0000
0010
0100
0010
0001
0010
0000
0100
,
100M
0000
0100
001M
0000
0100
1000
0100
0010
0100
0000
1000
,
00M1
0000
0100
00M1
0000
1000
0100
1000
0001
0100
0000
0001
,
0M10
0000
0001
1M00
0000
0010
1000
0001
0010
0001
1000
0010
,
010M
0000
0010
100M
0000
0010
0100
0010
1000
0100
0000
0010
,
M100
0000
0010
M001
0000
0010
0100
0010
0001
0100
0000
0010
,
1M00
0000
0001
1M00
0000
0001
0010
0001
1000
0010
0000
1000
,
00M1
0000
0100
00M1
0000
1000
0100
1000
0001
0100
0000
0001
,
001M
0000
0100
100M
0000
0010
0100
0010
1000
0100
0000
0010
,
M001
0000
0100
M010
0000
0100
0001
0010
0100
0010
0000
0001
,
01M0
0000
0001
10M0
0000
0100
1000
0001
0100
0001
0000
1000
,
0M01
0000
0010
0M01
0000
1000
0010
1000
0001
0010
0001
1000
,
0010
0000
0100
0000
0010
0000
0100
0000
0010
1000
0100
0000
0010
0000
0100
1000
,
0010
0000
0100
0000
0010
0000
0100
0000
0010
1000
0100
0000
0010
0000
0100
1000
,
0010
0100
0001
1000
0010
0100
0001
1000
0100
0010
0001
1000
0001
0010
0100
1000
,
0001
0100
0001
1000
0001
0100
0010
1000
0001
0010
0100
1000
0000
0000
0000
0000
,
0020
0030
0200
0300
0002
0003
2000
0000
0000
0000
0000
3000
0200
0000
0000
0300
,
1001
0000
1000
0000
1010
0000
0001
1000
0001
1000
0001
0000
1010
0000
0010
1000
,
0001
0000
0010
0100
0000
0010
0001
0000
1000
0001
0000
0001
1000
0000
1000
0010
,
0100
0000
0010
0000
1001
0000
0010
0100
0010
0100
0010
0000
1001
0000
0001
0100
,
0010
0000
1000
0000
0101
0000
1000
0010
1000
0010
1000
0000
0101
0000
1000
0100
,
0010
0000
0001
0000
1100
0000
0001
0010
0001
0010
0001
0000
1100
0000
0100
1000
,
0001
0000
0100
0010
0000
0100
0001
0000
1000
0001
0000
0001
1000
0000
1000
0100
,
0010
0000
0001
0000
0110
0000
0001
1000
0001
1000
0001
0000
0110
0000
1000
0000
,
0002
0003
000M
0000
0002
0003
2000
3000
0020
0030
0200
0300
0020
0030
2000
3000
,
1001
0000
0001
0000
0011
0000
1000
0010
1000
0001
1000
0000
0011
0000
1000
0100
,
1000
0000
0001
0000
1010
0000
0001
0010
0001
1000
0001
0000
1010
0000
0001
0100
,
0001
0000
1000
0000
0101
0000
1000
0100
1000
0001
0010
0001
0100
0010
1000
0010
,
1000
0000
0001
0000
1001
0000
0000
0001
0010
0001
1000
0000
1001
0000
1000
0010
,
0100
0000
0010
0000
1001
0000
1000
0001
0010
0001
1000
0000
1001
0000
0001
0100
,
0010
0000
0100
0000
1001
0000
1000
0010
1000
0001
1000
0001
1000
0001
1000
0001
,
0200
0010
0010
0010
0001
0001
0001
0301
,
1001
0000
0001
0000
1100
0000
0001
1000
0001
1000
0001
0000
1100
0000
0100
1000
,
0001
0000
0100
0000
0101
0000
1000
0001
1000
0001
1000
0000
0101
0000
0100
0001
,
1000
0000
0100
0010
0000
0100
1000
0000
0001
1000
0000
1000
0001
0000
0001
0100
,
0010
0000
0100
0000
1001
0000
0100
0010
0100
0010
0100
0000
1001
0000
1000
0010
,
0100
0000
0001
0000
1010
0000
0001
0100
0001
0100
0001
0000
1010
0000
0001
0010
,
0100
0000
1000
0000
0011
0000
1000
0100
1000
0100
1000
0000
0011
0000
0010
0001
,
1000
0000
0010
0100
0000
0010
1000
0000
0001
1000
0000
1000
0001
0000
0001
0010
,
0100
0000
1000
0000
0110
0000
1000
0001
1000
0001
1000
0000
0110
0000
0001
0000
,
2000
3000
M000
0000
2000
3000
0002
0003
0200
0300
0020
0030
0200
0300
0002
0003
,
1001
0000
1000
0000
1100
0000
0001
0100
0001
1000
0001
0000
1100
0000
0001
0010
,
0001
0000
1000
0000
0101
0000
1000
0100
1000
0001
1000
0000
0101
0000
1000
0010
,
1000
0000
0001
0000
1010
0000
0001
0010
0001
1000
0100
1000
0010
0100
0001
0100
,
0001
0000
1000
0000
1001
0000
0000
1000
0100
1000
0001
0000
1001
0000
0001
0100
,
0010
0000
0100
0000
1001
0000
0001
1000
0100
1000
0001
0000
1001
0000
1000
0010
,
0100
0000
0010
0000
1001
0000
0001
0010
0001
1000
0001
1000
0001
1000
0001
1000
,
0100
0000
0100
0000
1100
0000
0001
0010
0001
1000
0010
1000
0001
0000
0000
0000
,
1000
0100
0000
0100
0020
0000
0000
0030
0000
0000
0001
1000
0000
0001
1000
0000
,
0001
0100
0000
0100
0020
0000
0000
0030
0000
0000
1000
0001
0000
1000
0001
0000
,
0100
0010
0000
0010
2000
0000
0000
3000
0000
0000
0001
0100
0000
0001
0100
0000
,
0010
1000
0000
1000
0002
0000
0000
0003
0000
0000
1000
0100
0000
1000
0100
0000
,
1000
0010
0000
0010
0200
0000
0000
0300
0000
0000
0001
1000
0000
0001
1000
0000
,
0001
0010
0000
0010
0200
0000
0000
0300
0000
0000
1000
0001
0000
1000
0001
0000
,
0010
0100
0000
0100
2000
0000
0000
3000
0000
0000
0001
0010
0000
0001
0010
0000
,
0100
1000
0000
1000
0002
0000
0000
0003
0000
0000
1000
0010
0000
1000
0010
0000
,
1000
0010
0100
0001
1000
0100
0010
0001
1000
0010
0100
0001
0010
0000
0100
1000
,
0001
1000
0001
1000
0010
0000
0100
0001
1000
0001
1000
0001
0010
0000
0100
1000
,
0001
1000
0010
0100
0001
1000
0100
0010
0001
1000
0010
1000
0100
0000
0010
0100
,
1000
0100
1000
0100
0010
0000
0001
0100
0010
0100
0010
0100
0001
0000
1000
0001
,
1000
0010
0100
0001
1000
0100
0010
0001
1000
0010
0100
0001
0010
0000
0100
1000
,
0001
1000
0001
1000
0010
0000
0100
0001
1000
0001
1000
0001
0010
0000
0100
1000
,
0001
1000
0010
0100
0001
1000
0100
0010
0001
1000
0010
1000
0100
0000
0010
0100
,
1000
0100
1000
0100
0010
0000
0001
0100
0010
0100
0010
0100
0001
0000
0100
0001
,
2000
0000
0000
0000
,
0000
0000
0000
0000
,
0000
0000
0000
0000
,
0000
0000
0000
0000
0000
0000
0000
0000
0000
0000
0000
0000
0000
0000
0000
0000
0000
0000
0000
0000
0000
0000
0000
0000
0000
0000
0000
0000
0000
0000
0000
0000
0000
0000
0000
0000
0000
0000
0000
0000
0000
0000
0000
0000
0000
0000
0000
0000
0000
0000
0000
0000
0000
0000
0000
0000
0000
0000
0000
0000
0000
0000
0000
3000
,
2002
0000
0000
0000
,
0000
0000
0000
0000
,
0000
00M0
00M0
00M0
,
00M0
0000
0000
0000
0000
0000
0000
0000
0000
0000
0000
0000
0000
0000
0000
0000
00M0
0000
0000
0000
0000
0000
0000
0000
0000
0000
0000
0000
0000
0000
0000
0000
00M0
0000
0000
0000
0000
0000
0000
0000
0000
0000
0000
0000
0000
0000
0000
0000
00M0
0000
0000
0000
0000
0000
0000
0000
0000
0000
0000
0000
0000
0000
0000
3003
,
20M2
0M00
00M0
0M00
00M0
0M00
00M0
0M00
,
00M0
0M00
00M0
0M00
00M0
0M00
00M0
0M00
,
00M0
0M00
00M0
0M00
00M0
0M00
00M0
0M00
00M0
0M00
00M0
0M00
00M0
0M00
00M0
0M00
,
00M0
0000
0000
0000
0M00
0000
0000
0000
00M0
0000
0000
0000
0M00
0000
0000
0000
00M0
0000
0000
0000
0M00
0000
0000
0000
00M0
0000
0000
0000
0M00
0000
0000
0000
00M0
0000
0000
0000
0M00
0000
0000
0000
00M0
0000
0000
0000
0M00
0000
0000
0000
00M0
0000
0000
0000
0M00
0000
0000
0000
00M0
0000
0000
0000
0M00
0000
0000
3003
,
20M2
0M00
00M0
0M00
00M0
0M00
00M0
0M00
00M0
0M00
00M0
0M00
00M0
0M00
00M0
0M00
,
00M0
0M00
00M0
0M00
00M0
0M00
00M0
0M00
00M0
0M00
00M0
0M00
00M0
0M00
00M0
0M00
,
00M0
0M00
00M0
0M00
00M0
0M00
00M0
0M00
00M0
0M00
00M0
0M00
00M0
0M00
00M0
0M00
,
00M0
0000
0000
0000
0M00
0000
0000
0000
00M0
0000
0000
0000
0M00
0000
0000
0000
00M0
0000
0000
0000
0M00
0000
0000
0000
00M0
0000
0000
0000
0M00
0000
0000
0000
00M0
0000
0000
0000
0M00
0000
0000
0000
00M0
0000
0000
0000
0M00
0000
0000
0000
00M0
0000
0000
0000
0M00
0000
0000
0000
00M0
0000
0000
0000
0M00
0000
0000
3003
,
20M2
0M00
00M0
0M00
00M0
0M00
00M0
0M00
00M0
0M00
00M0
0M00
00M0
0M00
00M0
0M00
00M0
0M00
00M0
0M00
00M0
0M00
00M0
0M00
,
00M0
0M00
00M0
0M00
00M0
0M00
00M0
0M00
00M0
0M00
00M0
0M00
00M0
0M00
00M0
0M00
00M0
0M00
00M0
0M00
00M0
0M00
00M0
0M00
,
00M0
0M00
00M0
0M00
00M0
0M00
00M0
0M00
00M0
0M00
00M0
0M00
00M0
0M00
00M0
0M00
00M0
0M00
00M0
0M00
00M0
0M00
00M0
0M00
,
00M0
0M00
00M0
0M00
00M0
0M00
00M0
0M00
00M0
0M00
00M0
0M00
00M0
0M00
00M0
0M00
00M0
0M00
00M0
0M00
00M0
0M00
00M0
0M00
,
00M0
0M00
00M0
0M00
00M0
0M00
00M0
0M00
00M0
0M00
00M0
0M00
00M0
0M00
00M0
0M00
00M0
0M00
00M0
0M00
00M0
0M00
00M0
0M00
,
3003
0012
0000
0003
0000
2010
0000
3000
,
0000
4004
0000
0000
0000
0000
0000
0000
,
0000
0000
0000
3003
0000
0000
0000
0000
,
0001
0000
1000
0000
0001
0000
0010
0100
0010
0100
0010
0000
0001
0000
0100
0010
,
0100
0010
0100
0000
0001
0000
0010
0100
0010
0100
0010
0000
0001
1000
0001
0000
,
1000
0000
0001
0000
1000
0000
0010
0100
0010
0100
0010
0000
1000
0000
0100
0010
,
0100
0010
0100
0000
1000
0000
0010
0100
0010
0100
0010
0000
1000
0001
1000
0000
,
0010
0000
0010
0000
0100
0000
0001
0100
0010
0100
0001
0000
1000
0000
1000
0000
,
0100
0000
0100
0000
0010
0000
0001
0010
0100
0010
0001
0000
1000
0000
1000
0000
,
0001
0010
0100
1000
0001
0010
0100
1000
0001
0010
0100
0010
0100
1000
0001
0100
,
0020
0000
0000
0000
0000
0000
0000
0000
0000
0000
0000
0000
0000
0000
0000
0030
,
1001
0000
1000
0000
0101
0000
1000
0001
1000
0001
1000
0000
0101
0000
0100
0001
,
1000
0000
0100
0000
1100
0000
0001
1000
0001
1000
0001
0000
1100
0000
0100
1000
,
0001
0000
0100
0010
0000
0100
0001
0000
1000
0001
0000
0001
1000
0000
1000
0100
,
0010
0000
0100
0000
1001
0000
0100
0010
0100
0010
0100
0000
1001
0000
0001
0010
,
0100
0000
1000
0000
0011
0000
1000
0100
1000
0100
1000
0000
0011
0000
1000
0010
,
0100
0000
0001
0000
1010
0000
0001
0100
0001
0100
0001
0000
1010
0000
0010
1000
,
0001
0000
0010
0100
0000
0010
0001
0000
1000
0001
0000
0001
1000
0000
1000
0010
,
0100
0000
0001
0000
0110
0000
0001
1000
0001
1000
0001
0000
0110
0000
1000
0000
,
0002
0003
000M
0000
0002
0003
2000
3000
0200
0300
0020
0030
0200
0300
2000
3000
,
1001
0000
0001
0000
0101
0000
1000
0100
1000
0001
1000
0000
0101
0000
1000
0010
,
1000
0000
0001
0000
1100
0000
0001
0100
0001
1000
0001
0000
1100
0000
0001
0010
,
0001
0000
1000
0000
0011
0000
1000
0010
1000
0001
0100
0001
0010
0100
1000
0100
,
1000
0000
0001
0000
1001
0000
0000
0001
0100
0001
1000
0000
1001
0000
1000
0100
,
0010
0000
0100
0000
1001
0000
1000
0001
0100
0001
1000
0000
1001
0000
0001
0010
,
0100
0000
0010
0000
1001
0000
1000
0100
1000
0001
1000
0001
1000
0001
1000
0001
,
0020
0000
0100
0000
0100
0000
0100
0000
0001
0000
0001
0000
0001
0000
0001
0030
,
1001
0000
0001
0000
1010
0000
0001
1000
0001
1000
0001
0000
1010
0000
0010
1000
,
0001
0000
0010
0000
0011
0000
1000
0001
1000
0001
1000
0000
0011
0000
0010
0001
,
1000
0000
0010
0100
0000
0010
1000
0000
0001
1000
0000
1000
0001
0000
0001
0010
,
0100
0000
0010
0000
1001
0000
0010
0100
0010
0100
0010
0000
1001
0000
1000
0100
,
0010
0000
0001
0000
1100
0000
0001
0010
0001
0010
0001
0000
1100
0000
0001
0100
,
0010
0000
1000
0000
0101
0000
1000
0010
1000
0010
1000
0000
0101
0000
0100
0001
,
1000
0000
0100
0010
0000
0100
1000
0000
0001
1000
0000
1000
0001
0000
0001
0100
,
0010
0000
1000
0000
0110
0000
1000
0001
1000
0001
1000
0000
0110
0000
0001
0000
,
2000
3000
M000
0000
2000
3000
0002
0003
0020
0030
0200
0300
0020
0030
0002
0003
,
1001
0000
1000
0000
1010
0000
0001
0010
0001
1000
0001
0000
1010
0000
0001
0100
,
0001
0000
1000
0000
0011
0000
1000
0010
1000
0001
1000
0000
0011
0000
1000
0100
,
1000
0000
0001
0000
1100
0000
0001
0100
0001
1000
0010
1000
0100
0010
0001
0010
,
0001
0000
1000
0000
1001
0000
0000
1000
0010
1000
0001
0000
1001
0000
0001
0010
,
0100
0000
0010
0000
1001
0000
0001
1000
0010
1000
0001
0000
1001
0000
1000
0100
,
0010
0000
0100
0000
1001
0000
0001
0100
0001
1000
0001
1000
0001
1000
0001
1000
,
0010
0000
0010
0000
0100
0010
1000
0001
0100
0001
1000
0100
1000
0010
0100
0001
,
0020
0030
0200
0300
2000
3000
0002
0000
0000
0000
0000
0003
0020
0000
0000
0030
,
1001
0000
0001
0000
0101
0000
1000
0001
1000
0001
1000
0000
0101
0000
0100
0001
,
1000
0000
0100
0010
0000
0100
1000
0000
0001
1000
0000
1000
0001
0000
0001
0100
,
0010
0000
0100
0000
1001
0000
0100
0010
0100
0010
0100
0000
1001
0000
1000
0010
,
0100
0000
0001
0000
1010
0000
0001
0100
0001
0100
0001
0000
1010
0000
0001
0010
,
0100
0000
1000
0000
0011
0000
1000
0100
1000
0100
1000
0000
0011
0000
0010
0001
,
1000
0000
0010
0100
0000
0010
1000
0000
0001
1000
0000
1000
0001
0000
0001
0010
,
0100
0000
1000
0000
0110
0000
1000
0001
1000
0001
1000
0000
0110
0000
0001
0000
,
2000
3000
M000
0000
2000
3000
0002
0003
0200
0300
0020
0030
0200
0300
0002
0003
,
1001
0000
1000
0000
1100
0000
0001
0100
0001
1000
0001
0000
1100
0000
0001
0010
,
0001
0000
1000
0000
0101
0000
1000
0100
1000
0001
1000
0000
0101
0000
1000
0010
,
1000
0000
0001
0000
1010
0000
0001
0010
0001
1000
0100
1000
0010
0100
0001
0100
,
0001
0000
1000
0000
1001
0000
0000
1000
0100
1000
0001
0000
1001
0000
0001
0100
,
0010
0000
0100
0000
1001
0000
0001
1000
0100
1000
0001
0000
1001
0000
1000
0010
,
0100
0000
0010
0000
1001
0000
1000
0010
1000
0001
1000
0001
1000
0001
1000
0001
,
0200
0010
0010
0010
0001
0001
0001
0301
,
1001
0000
1000
0000
0011
0000
1000
0001
1000
0001
1000
0000
0011
0000
0010
0001
,
1000
0000
0010
0000
1010
0000
0001
1000
0001
1000
0001
0000
1010
0000
0010
1000
,
0001
0000
0010
0100
0000
0010
0001
0000
1000
0001
0000
0001
1000
0000
1000
0010
,
0100
0000
0010
0000
1001
0000
0010
0100
0010
0100
0010
0000
1001
0000
0001
0100
,
0010
0000
1000
0000
0101
0000
1000
0010
1000
0010
1000
0000
0101
0000
1000
0100
,
0010
0000
0001
0000
1100
0000
0001
0010
0001
0010
0001
0000
1100
0000
0100
1000
,
0001
0000
0100
0010
0000
0100
0001
0000
1000
0001
0000
0001
1000
0000
1000
0100
,
0010
0000
0001
0000
0110
0000
0001
1000
0001
1000
0001
0000
0110
0000
1000
0000
,
0002
0003
000M
0000
0002
0003
2000
3000
0020
0030
0200
0300
0020
0030
2000
3000
,
1001
0000
0001
0000
0011
0000
1000
0010
1000
0001
1000
0000
0011
0000
1000
0100
,
1000
0000
0001
0000
1010
0000
0001
0010
0001
1000
0001
0000
1010
0000
0001
0100
,
0001
0000
1000
0000
0101
0000
1000
0100
1000
0001
0010
0001
0100
0010
1000
0010
,
1000
0000
0001
0000
1001
0000
0000
0001
0010
0001
1000
0000
1001
0000
1000
0010
,
0100
0000
0010
0000
1001
0000
1000
0001
0010
0001
1000
0000
1001
0000
0001
0100
,
0010
0000
0100
0000
1001
0000
1000
0100
1000
0001
1000
0001
1000
0001
1000
0001
,
0010
0000
0010
0000
0011
0000
1000
0100
1000
0001
0100
0001
1000
0000
0000
0000
,
0001
0010
0100
1000
0001
0100
0010
1000
0001
0010
0100
1000
0010
0000
0100
0001
,
1000
0001
1000
0001
0010
0000
0100
1000
0001
1000
0001
1000
0010
0000
0100
0001
,
1000
0001
0010
0100
1000
0001
0100
0010
1000
0001
0010
0001
0100
0000
0010
0100
,
0001
0100
0001
0100
0010
0000
1000
0100
0010
0100
0010
0100
1000
0000
0001
1000
,
0001
0010
0100
1000
0001
0100
0010
1000
0001
0010
0100
1000
0010
0000
0100
0001
,
1000
0001
1000
0001
0010
0000
0100
1000
0001
1000
0001
1000
0010
0000
0100
0001
,
1000
0001
0010
0100
1000
0001
0100
0010
1000
0001
0010
0001
0100
0000
0010
0100
,
0001
0100
0001
0100
0010
0000
1000
0100
0010
0100
0010
0100
1000
0000
0001
1000
,
0001
0010
0100
1000
0001
0100
0010
1000
0001
0010
0100
1000
0010
0000
0100
0001
,
1000
0001
1000
0001
0010
0000
0100
1000
0001
1000
0001
1000
0010
0000
0100
0001
,
1000
0001
0010
0100
1000
0001
0100
0010
1000
0001
0010
0001
0100
0000
0010
0100
,
0001
0100
0001
0100
0010
0000
1000
0100
0010
0100
0010
0100
1000
0000
0001
1000
,
0001
0010
0100
1000
0001
0100
0010
1000
0001
0010
0100
1000
0010
0000
0100
0001
,
1000
0001
1000
0001
0010
0000
0100
1000
0001
1000
0001
1000
0010
0000
0100
0001
,
1000
0001
0010
0100
1000
0001
0100
0010
1000
0001
0010
0001
0100
0000
0010
0100
,
0001
0100
0001
0100
0010
0000
1000
0100
0010
0100
0010
0100
1000
0000
0001
1000
,
0020
0000
0000
0000
,
0000
0000
0000
0000
,
0000
0000
0000
0000
,
0000
0000
0000
0000
,
0030
0000
0000
0000
;

//---------------dance-single - I. Pyles----------------
#NOTES:
     dance-single:
     I. Pyles:
     Hard:
     15:
     1.000,1.000,0.229,0.218,1.000,3749.000,103.000,98.000,280.000,0.000:
0000
0000
0000
0000
,
0001
0010
0001
0010
0100
1000
0001
1000
0010
0100
0001
1000
0100
0010
0100
0010
,
0001
1000
0100
1000
0010
0100
0010
0100
0001
1000
0010
1000
0100
0010
0100
0010
,
0001
0100
0010
1000
0001
1000
0010
1000
0001
0010
0001
1000
0100
0010
0100
0010
,
0001
1000
0100
1000
0010
0100
0010
0100
0001
1000
0010
1000
0100
0010
0100
0010
,
0001
0100
0001
0100
0010
1000
0001
1000
0100
0010
0001
1000
0010
0100
0010
0100
,
0001
1000
0010
1000
0100
0010
0100
0010
0001
1000
0100
1000
0010
0100
0010
0100
,
0001
0010
0100
1000
0001
1000
0100
1000
0001
0100
0001
1000
0010
0100
0010
0100
,
0001
1000
0010
1000
0100
0010
0100
0010
0001
1000
0100
1000
0010
0100
0010
0100
,
0001
1000
0010
0100
0001
1000
0100
1000
0001
0010
0001
1000
0100
0010
0100
0010
,
0001
1000
0100
1000
0010
0100
0010
0100
0001
1000
0010
1000
0100
0010
0100
0010
,
0001
1000
0100
1000
0001
0100
0010
1000
0010
1000
0001
1000
0100
0010
0100
0010
,
0001
1000
0100
1000
0010
0100
0010
0100
0001
1000
0010
1000
0100
0010
0100
0010
,
0001
1000
0100
0010
0001
1000
0010
1000
0001
0100
0001
1000
0010
0100
0010
0100
,
0001
1000
0010
1000
0100
0010
0100
0010
0001
1000
0100
1000
0010
0100
0010
0100
,
0001
1000
0010
1000
0001
0010
0100
1000
0100
1000
0001
1000
0010
0100
0010
0100
,
0001
1000
0010
1000
0100
0010
0100
0010
0001
1000
0100
1000
0010
0100
0010
0100
,
0001
1000
0100
1000
0001
0010
0001
1000
0010
0100
0001
1000
0100
0010
0100
0010
,
0001
1000
0100
1000
0010
0100
0010
0100
0001
1000
0010
1000
0100
0010
0100
0010
,
0001
1000
0100
1000
0001
1000
0100
0010
0001
1000
0001
1000
0100
0010
0100
0010
,
0001
1000
0100
1000
0010
0100
0010
0100
0001
1000
0010
1000
0100
0010
0100
0010
,
0001
1000
0100
1000
0001
0010
0001
1000
0010
0100
0001
1000
0010
0100
0010
0100
,
0001
1000
0010
1000
0100
0010
0100
0010
0001
1000
0100
1000
0010
0100
0010
0100
,
0001
1000
0100
1000
0001
1000
0100
0010
0001
1000
0001
1000
0010
0100
0010
0100
,
0001
1000
0010
1000
0100
0010
0100
0010
0001
1000
0100
1000
0010
0100
0010
0100
,
0001
1000
0100
0010
0001
1000
0100
1000
0001
0100
0010
1000
0100
0010
0100
0010
,
0001
1000
0100
1000
0010
0100
0010
0100
0001
1000
0010
1000
0100
0010
0100
0010
,
0001
1000
0010
1000
0001
0010
0001
1000
0100
1000
0001
1000
0100
0010
0100
0010
,
0001
1000
0100
1000
0010
0100
0010
0100
0001
1000
0010
1000
0100
0010
0100
0010
,
0001
1000
0010
0100
0001
1000
0010
1000
0001
0010
0100
1000
0010
0100
0010
0100
,
0001
1000
0010
1000
0100
0010
0100
0010
0001
1000
0100
1000
0010
0100
0010
0100
,
0001
1000
0100
1000
0001
0100
0001
1000
0010
1000
0001
1000
0010
0100
0010
0100
,
0001
1000
0010
1000
0100
0010
0100
0010
0001
1000
0100
1000
0010
0100
0010
0100
,
0001
0010
0100
1000
0001
0010
0001
1000
0001
0100
0010
1000
0100
0010
0100
0010
,
0001
1000
0100
1000
0010
0100
0010
0100
0001
1000
0010
1000
0100
0010
0100
0010
,
0001
1000
0001
1000
0010
0100
0001
0010
0100
1000
0001
1000
0100
0010
0001
0100
,
0010
1000
0001
1000
0010
0100
0001
0010
0100
1000
0001
1000
0100
0010
0001
1000
,
0001
0100
0010
1000
0001
0100
0001
1000
0001
0010
0100
1000
0010
0100
0010
0100
,
0001
1000
0010
1000
0100
0010
0100
0010
0001
1000
0100
1000
0010
0100
0010
0100
,
0001
1000
0001
1000
0100
0010
0001
0100
0010
1000
0001
1000
0010
0100
0001
0010
,
0100
1000
0001
1000
0100
0010
0001
0100
0010
1000
0001
1000
0010
0100
0001
1000
,
0010
0100
0001
1000
0100
1000
0001
0010
0100
1000
0001
1000
0100
0010
0100
0010
,
0001
1000
0100
1000
0010
0100
0010
0100
0001
1000
0010
1000
0100
0010
0100
0010
,
0001
1000
0001
1000
0010
0100
0001
0010
0100
1000
0001
1000
0100
0010
0001
0100
,
0010
1000
0001
1000
0010
0100
0001
0010
0100
1000
0001
1000
0100
0010
0001
1000
,
0100
0010
0001
1000
0010
1000
0001
0100
0010
1000
0001
1000
0010
0100
0010
0100
,
0001
1000
0010
1000
0100
0010
0100
0010
0001
1000
0100
1000
0010
0100
0010
0100
,
0001
1000
0001
1000
0100
0010
0001
0100
0010
1000
0001
1000
0010
0100
0001
0010
,
0100
1000
0001
1000
0100
0010
0001
0100
0010
1000
0001
1000
0010
0100
0001
1000
,
0100
0010
0001
0100
0010
1000
0001
0010
0100
0010
0001
0100
0010
1000
0001
0010
,
0100
0010
0001
0100
0010
1000
0001
0010
0100
0010
0001
0100
0010
1000
0001
0010
,
0001
1000
0001
1000
0010
0100
0001
0010
0100
1000
0001
1000
0100
0010
0001
0100
,
0010
1000
0001
1000
0010
0100
0001
0010
0100
1000
0001
1000
0100
0010
0001
1000
,
0010
0100
0001
0010
0100
1000
0001
0100
0010
0100
0001
0010
0100
1000
0001
0100
,
0010
0100
0001
0010
0100
1000
0001
0100
0010
0100
0001
0010
0100
1000
0001
0100
,
0001
1000
0001
1000
0100
0010
0001
0100
0010
1000
0001
1000
0010
0100
0001
0010
,
0100
1000
0001
1000
0100
0010
0001
0100
0010
1000
0001
1000
0010
0100
0001
1000
,
0100
0010
0001
0100
0010
1000
0001
0010
0100
0010
0001
0100
0010
1000
0001
0010
,
0100
0010
0001
0100
0010
1000
0001
0010
0100
0010
0001
0100
0010
1000
0001
0010
,
0001
1000
0001
1000
0010
0100
0001
0010
0100
1000
0001
1000
0100
0010
0001
0100
,
0010
1000
0001
1000
0010
0100
0001
0010
0100
1000
0001
1000
0100
0010
0001
1000
,
0010
0100
0001
0010
0100
1000
0001
0100
0010
0100
0001
0010
0100
1000
0001
0100
,
0010
0100
0001
0010
0100
1000
0001
0100
0010
0100
0001
0010
0100
1000
0001
0100
,
0001
1000
0001
1000
0100
0010
0001
0100
0010
1000
0001
1000
0010
0100
0001
0010
,
0100
1000
0001
1000
0100
0010
0001
0100
0010
1000
0001
1000
0010
0100
0001
1000
,
0010
0100
0001
0100
0010
1000
0001
1000
0001
1000
0001
1000
0100
0010
0001
0010
,
0001
0010
0001
0010
0100
1000
0001
1000
0001
1000
0001
1000
0010
0100
0001
0100
,
0001
0100
0001
0100
0010
1000
0100
1000
0100
1000
0100
1000
0010
0100
0001
0100
,
0001
0100
0001
0100
0010
1000
0001
1000
0001
1000
0001
1000
0100
0010
0001
0010
,
0001
0010
0001
0010
0100
1000
0010
1000
0010
1000
0010
1000
0100
0010
0001
0010
,
0001
0010
0001
0010
0100
1000
0001
0010
0100
0000
M000
0000
0M00
0000
00M0
0000
,
000M
M000
00M0
0M00
000M
M000
0000
0000
,
1000
0000
0100
0000
0010
0000
0001
0000
0000
1000
0000
0000
0001
0000
0100
0000
0010
0000
1000
0000
0000
0001
0000
0000
1000
0000
0100
0000
0010
0000
0001
0000
0000
1000
0000
0000
0001
0000
0100
0000
0010
0000
1000
0000
0000
0001
0000
0000
,
1000
0000
0001
0000
1000
0000
0100
0010
0100
0010
0100
0000
1000
0000
0010
0100
,
0010
0100
0010
0000
1000
0000
0100
0010
0100
0010
0100
0000
1000
0001
1000
0000
,
0001
0000
1000
0000
0001
0000
0100
0010
0100
0010
0100
0000
0001
0000
0010
0100
,
0010
0100
0010
0000
0001
0000
0100
0010
0100
0010
0100
0000
0001
1000
0001
0000
,
0100
0000
0100
0000
0010
0000
1000
0010
0100
0010
1000
0000
0001
0000
0001
0000
,
0010
0000
0010
0000
0100
0000
1000
0100
0010
0100
1000
0000
0001
0000
0001
0000
,
1000
0100
0010
0001
1000
0100
0010
0001
1000
0100
0010
0100
0010
0001
1000
0010
,
0200
0000
0000
0000
0000
0000
0000
0000
0000
0000
0000
0000
0000
0000
0000
0300
,
1001
0000
0001
0000
1010
0000
0001
1000
0001
1000
0001
0000
1010
0000
0010
1000
,
0001
0000
0010
0000
0011
0000
1000
0001
1000
0001
1000
0000
0011
0000
0010
0001
,
1000
0000
0010
0100
0000
0010
1000
0000
0001
1000
0000
1000
0001
0000
0001
0010
,
0100
0000
0010
0000
1001
0000
0010
0100
0010
0100
0010
0000
1001
0000
1000
0100
,
0010
0000
0001
0000
1100
0000
0001
0010
0001
0010
0001
0000
1100
0000
0001
0100
,
0010
0000
1000
0000
0101
0000
1000
0010
1000
0010
1000
0000
0101
0000
0100
0001
,
1000
0000
0100
0010
0000
0100
1000
0000
0001
1000
0000
1000
0001
0000
0001
0100
,
0010
0000
1000
0000
0110
0000
1000
0001
1000
0001
1000
0000
0110
0000
0001
0000
,
2000
3000
M000
0000
2000
3000
0002
0003
0020
0030
0200
0300
0020
0030
0002
0003
,
1001
0000
1000
0000
1010
0000
0001
0010
0001
1000
0001
0000
1010
0000
0001
0100
,
0001
0000
1000
0000
0011
0000
1000
0010
1000
0001
1000
0000
0011
0000
1000
0100
,
1000
0000
0001
0000
1100
0000
0001
0100
0001
1000
0010
1000
0100
0010
0001
0010
,
0001
0000
1000
0000
1001
0000
0000
1000
0010
1000
0001
0000
1001
0000
0001
0010
,
0100
0000
0010
0000
1001
0000
0001
1000
0010
1000
0001
0000
1001
0000
1000
0100
,
0010
0000
0100
0000
1001
0000
1000
0100
1000
0001
1000
0001
1000
0001
1000
0001
,
0020
0000
0100
0000
0100
0000
0100
0000
0001
0000
0001
0000
0001
0000
0001
0030
,
1001
0000
1000
0000
0101
0000
1000
0001
1000
0001
1000
0000
0101
0000
0100
0001
,
1000
0000
0100
0000
1100
0000
0001
1000
0001
1000
0001
0000
1100
0000
0100
1000
,
0001
0000
0100
0010
0000
0100
0001
0000
1000
0001
0000
0001
1000
0000
1000
0100
,
0010
0000
0100
0000
1001
0000
0100
0010
0100
0010
0100
0000
1001
0000
0001
0010
,
0100
0000
1000
0000
0011
0000
1000
0100
1000
0100
1000
0000
0011
0000
1000
0010
,
0100
0000
0001
0000
1010
0000
0001
0100
0001
0100
0001
0000
1010
0000
0010
1000
,
0001
0000
0010
0100
0000
0010
0001
0000
1000
0001
0000
0001
1000
0000
1000
0010
,
0100
0000
0001
0000
0110
0000
0001
1000
0001
1000
0001
0000
0110
0000
1000
0000
,
0002
0003
000M
0000
0002
0003
2000
3000
0200
0300
0020
0030
0200
0300
2000
3000
,
1001
0000
0001
0000
0101
0000
1000
0100
1000
0001
1000
0000
0101
0000
1000
0010
,
1000
0000
0001
0000
1100
0000
0001
0100
0001
1000
0001
0000
1100
0000
0001
0010
,
0001
0000
1000
0000
0011
0000
1000
0010
1000
0001
0100
0001
0010
0100
1000
0100
,
1000
0000
0001
0000
1001
0000
0000
0001
0100
0001
1000
0000
1001
0000
1000
0100
,
0010
0000
0100
0000
1001
0000
1000
0001
0100
0001
1000
0000
1001
0000
0001
0010
,
0100
0000
0010
0000
1001
0000
1000
0010
1000
0001
1000
0001
1000
0001
1000
0001
,
0100
0000
0100
0000
0010
0100
0001
1000
0010
1000
0001
0010
0001
0100
0010
1000
,
0000
0000
0000
0000
,
1000
0000
0001
0100
0000
0010
0100
0010
1000
0001
0000
0010
,
0001
0000
1000
0100
0000
0010
0100
0010
0001
1000
0000
0000
,
0001
0010
0100
0010
0100
1000
0001
0100
0010
0100
0010
1000
,
0001
0100
0001
1000
0100
1000
0001
0010
0001
1000
0010
1000
,
0001
0000
0001
1000
0000
0001
1000
0010
1000
0001
0000
1000
,
0001
0000
0001
1000
0000
0001
1000
0010
1000
0001
0000
1000
,
0001
0000
0001
1000
0000
0001
0100
0001
1000
0100
1000
0001
,
0020
0000
0000
0000
0000
0000
0230
0000
0000
0000
0000
0000
2300
0000
0000
3000
1000
0000
0002
0000
0000
0000
0000
0000
,
0023
0000
0000
0000
0000
0000
0230
0000
0000
0300
0100
0000
2000
0000
0000
3000
1000
0000
0002
0000
0000
0000
0003
0000
,
0002
0000
0000
0003
0001
0000
0200
0000
0000
0300
0100
0000
0010
0000
1000
0000
0001
0000
0020
0000
0000
0030
0010
0000
,
0002
0000
0000
0003
0001
0000
0200
0000
0000
0000
0000
0000
0320
0000
0000
0000
0000
0000
0000
0000
0000
0030
0000
0000
,
1000
0100
1000
0001
0100
0001
1000
0010
1000
0001
0010
0001
,
1000
0000
1000
0001
0000
1000
0001
0100
0001
1000
0000
0001
,
1000
0000
1000
0001
0000
1000
0001
0100
0001
1000
0000
0001
,
1000
0000
1000
0001
0000
1000
0010
1000
0001
0100
0001
0010
,
M100
0000
0010
M001
0000
0010
0100
0010
0001
0010
0000
0100
,
100M
0000
0100
001M
0000
0100
1000
0100
0010
0100
0000
1000
,
00M1
0000
0100
00M1
0000
1000
0100
1000
0001
0100
0000
0001
,
0M10
0000
0001
1M00
0000
0010
1000
0001
0010
0001
1000
0010
,
010M
0000
0010
100M
0000
0010
0100
0010
1000
0100
0000
0010
,
M100
0000
0010
M001
0000
0010
0100
0010
0001
0100
0000
0010
,
1M00
0000
0001
1M00
0000
0001
0010
0001
1000
0010
0000
1000
,
00M1
0000
0100
00M1
0000
1000
0100
1000
0001
0100
0000
0001
,
001M
0000
0100
100M
0000
0010
0100
0010
1000
0100
0000
0010
,
M001
0000
0100
M010
0000
0100
0001
0010
0100
0010
0000
0001
,
01M0
0000
0001
10M0
0000
0100
1000
0001
0100
0001
0000
1000
,
0M01
0000
0010
0M01
0000
1000
0010
1000
0001
0010
0001
1000
,
0010
0000
0100
0000
0010
0000
0100
0000
0010
1000
0100
0000
0010
0000
0100
1000
,
0010
0000
0100
0000
0010
0000
0100
0000
0010
1000
0100
0000
0010
0000
0100
1000
,
0010
0100
0001
1000
0010
0100
0001
1000
0100
0010
0001
1000
0001
0010
0100
1000
,
0001
0100
0001
1000
0001
0100
0010
1000
0001
0010
0100
1000
0000
0000
0000
0000
,
0020
0030
0200
0300
0002
0003
2000
0000
0000
0000
0000
3000
0200
0000
0000
0300
,
1001
0000
1000
0000
1010
0000
0001
1000
0001
1000
0001
0000
1010
0000
0010
1000
,
0001
0000
0010
0100
0000
0010
0001
0000
1000
0001
0000
0001
1000
0000
1000
0010
,
0100
0000
0010
0000
1001
0000
0010
0100
0010
0100
0010
0000
1001
0000
0001
0100
,
0010
0000
1000
0000
0101
0000
1000
0010
1000
0010
1000
0000
0101
0000
1000
0100
,
0010
0000
0001
0000
1100
0000
0001
0010
0001
0010
0001
0000
1100
0000
0100
1000
,
0001
0000
0100
0010
0000
0100
0001
0000
1000
0001
0000
0001
1000
0000
1000
0100
,
0010
0000
0001
0000
0110
0000
0001
1000
0001
1000
0001
0000
0110
0000
1000
0000
,
0002
0003
000M
0000
0002
0003
2000
3000
0020
0030
0200
0300
0020
0030
2000
3000
,
1001
0000
0001
0000
0011
0000
1000
0010
1000
0001
1000
0000
0011
0000
1000
0100
,
1000
0000
0001
0000
1010
0000
0001
0010
0001
1000
0001
0000
1010
0000
0001
0100
,
0001
0000
1000
0000
0101
0000
1000
0100
1000
0001
0010
0001
0100
0010
1000
0010
,
1000
0000
0001
0000
1001
0000
0000
0001
0010
0001
1000
0000
1001
0000
1000
0010
,
0100
0000
0010
0000
1001
0000
1000
0001
0010
0001
1000
0000
1001
0000
0001
0100
,
0010
0000
0100
0000
1001
0000
1000
0010
1000
0001
1000
0001
1000
0001
1000
0001
,
0200
0010
0010
0010
0001
0001
0001
0301
,
1001
0000
0001
0000
1100
0000
0001
1000
0001
1000
0001
0000
1100
0000
0100
1000
,
0001
0000
0100
0000
0101
0000
1000
0001
1000
0001
1000
0000
0101
0000
0100
0001
,
1000
0000
0100
0010
0000
0100
1000
0000
0001
1000
0000
1000
0001
0000
0001
0100
,
0010
0000
0100
0000
1001
0000
0100
0010
0100
0010
0100
0000
1001
0000
1000
0010
,
0100
0000
0001
0000
1010
0000
0001
0100
0001
0100
0001
0000
1010
0000
0001
0010
,
0100
0000
1000
0000
0011
0000
1000
0100
1000
0100
1000
0000
0011
0000
0010
0001
,
1000
0000
0010
0100
0000
0010
1000
0000
0001
1000
0000
1000
0001
0000
0001
0010
,
0100
0000
1000
0000
0110
0000
1000
0001
1000
0001
1000
0000
0110
0000
0001
0000
,
2000
3000
M000
0000
2000
3000
0002
0003
0200
0300
0020
0030
0200
0300
0002
0003
,
1001
0000
1000
0000
1100
0000
0001
0100
0001
1000
0001
0000
1100
0000
0001
0010
,
0001
0000
1000
0000
0101
0000
1000
0100
1000
0001
1000
0000
0101
0000
1000
0010
,
1000
0000
0001
0000
1010
0000
0001
0010
0001
1000
0100
1000
0010
0100
0001
0100
,
0001
0000
1000
0000
1001
0000
0000
1000
0100
1000
0001
0000
1001
0000
0001
0100
,
0010
0000
0100
0000
1001
0000
0001
1000
0100
1000
0001
0000
1001
0000
1000
0010
,
0100
0000
0010
0000
1001
0000
0001
0010
0001
1000
0001
1000
0001
1000
0001
1000
,
0100
0000
0100
0000
1100
0000
0001
0010
0001
1000
0010
1000
0001
0000
0000
0000
,
1000
0001
0100
0001
0010
0100
1000
0001
1000
0001
1000
0001
0010
0100
1000
0001
,
0010
0100
0010
0001
0100
0010
1000
0001
1000
0001
1000
0001
0100
0010
1000
0001
,
0100
0010
0100
0001
0010
0100
1000
0001
1000
0001
1000
0001
0010
0100
1000
0001
,
0010
0100
0010
0001
0100
0010
1000
0001
1000
0001
1000
0001
0100
0010
1000
0001
,
0100
0010
0100
0001
0010
0100
1000
0001
1000
0001
1000
0001
0010
0100
1000
0001
,
0010
0100
0010
0001
0100
0010
1000
0001
1000
0001
1000
0001
0100
0010
1000
0001
,
0100
0010
0100
0001
0010
0100
1000
0001
1000
0001
1000
0001
0100
0010
1000
0001
,
0100
0010
0100
0001
0010
0100
1000
0001
1000
0001
1000
0001
0010
0100
1000
0001
,
0010
0100
0010
0001
0100
0010
1000
0001
1000
0001
1000
0001
0010
0100
0010
0100
,
1000
0001
0010
0001
0100
0010
0100
0010
1000
0001
0100
0001
0010
0100
0010
0100
,
1000
0001
0100
0001
0010
0100
1000
0001
0010
0001
1000
0001
0100
0010
0100
0010
,
1000
0001
0100
0001
0010
0100
0010
0100
1000
0001
0010
0001
0100
0010
0100
0010
,
1000
0100
1000
0001
0010
0100
0010
0001
0100
0010
0100
0001
0010
0100
0010
0100
,
1000
0001
0010
0001
0100
0010
0100
0010
1000
0001
0100
0001
0010
0100
0010
0100
,
1000
0001
0010
0001
0100
0010
1000
0001
0100
0001
1000
0001
0100
0010
0100
0010
,
1000
0001
0100
0001
0010
0100
0010
0100
1000
0001
0010
0001
0100
0010
0100
0010
,
2000
0000
0000
0000
,
0000
0000
0000
0000
,
0000
0000
0000
0000
,
0000
0000
0000
0000
0000
0000
0000
0000
0000
0000
0000
0000
0000
0000
0000
0000
0000
0000
0000
0000
0000
0000
0000
0000
0000
0000
0000
0000
0000
0000
0000
0000
0000
0000
0000
0000
0000
0000
0000
0000
0000
0000
0000
0000
0000
0000
0000
0000
0000
0000
0000
0000
0000
0000
0000
0000
0000
0000
0000
0000
0000
0000
0000
3000
,
2002
0000
0000
0000
,
0000
0000
0000
0000
,
0000
00M0
00M0
00M0
,
00M0
0000
0000
0000
0000
0000
0000
0000
0000
0000
0000
0000
0000
0000
0000
0000
00M0
0000
0000
0000
0000
0000
0000
0000
0000
0000
0000
0000
0000
0000
0000
0000
00M0
0000
0000
0000
0000
0000
0000
0000
0000
0000
0000
0000
0000
0000
0000
0000
00M0
0000
0000
0000
0000
0000
0000
0000
0000
0000
0000
0000
0000
0000
0000
3003
,
20M2
0M00
00M0
0M00
00M0
0M00
00M0
0M00
,
00M0
0M00
00M0
0M00
00M0
0M00
00M0
0M00
,
00M0
0M00
00M0
0M00
00M0
0M00
00M0
0M00
00M0
0M00
00M0
0M00
00M0
0M00
00M0
0M00
,
00M0
0000
0000
0000
0M00
0000
0000
0000
00M0
0000
0000
0000
0M00
0000
0000
0000
00M0
0000
0000
0000
0M00
0000
0000
0000
00M0
0000
0000
0000
0M00
0000
0000
0000
00M0
0000
0000
0000
0M00
0000
0000
0000
00M0
0000
0000
0000
0M00
0000
0000
0000
00M0
0000
0000
0000
0M00
0000
0000
0000
00M0
0000
0000
0000
0M00
0000
0000
3003
,
20M2
0M00
00M0
0M00
00M0
0M00
00M0
0M00
00M0
0M00
00M0
0M00
00M0
0M00
00M0
0M00
,
00M0
0M00
00M0
0M00
00M0
0M00
00M0
0M00
00M0
0M00
00M0
0M00
00M0
0M00
00M0
0M00
,
00M0
0M00
00M0
0M00
00M0
0M00
00M0
0M00
00M0
0M00
00M0
0M00
00M0
0M00
00M0
0M00
,
00M0
0000
0000
0000
0M00
0000
0000
0000
00M0
0000
0000
0000
0M00
0000
0000
0000
00M0
0000
0000
0000
0M00
0000
0000
0000
00M0
0000
0000
0000
0M00
0000
0000
0000
00M0
0000
0000
0000
0M00
0000
0000
0000
00M0
0000
0000
0000
0M00
0000
0000
0000
00M0
0000
0000
0000
0M00
0000
0000
0000
00M0
0000
0000
0000
0M00
0000
0000
3003
,
20M2
0M00
00M0
0M00
00M0
0M00
00M0
0M00
00M0
0M00
00M0
0M00
00M0
0M00
00M0
0M00
00M0
0M00
00M0
0M00
00M0
0M00
00M0
0M00
,
00M0
0M00
00M0
0M00
00M0
0M00
00M0
0M00
00M0
0M00
00M0
0M00
00M0
0M00
00M0
0M00
00M0
0M00
00M0
0M00
00M0
0M00
00M0
0M00
,
00M0
0M00
00M0
0M00
00M0
0M00
00M0
0M00
00M0
0M00
00M0
0M00
00M0
0M00
00M0
0M00
00M0
0M00
00M0
0M00
00M0
0M00
00M0
0M00
,
00M0
0M00
00M0
0M00
00M0
0M00
00M0
0M00
00M0
0M00
00M0
0M00
00M0
0M00
00M0
0M00
00M0
0M00
00M0
0M00
00M0
0M00
00M0
0M00
,
00M0
0M00
00M0
0M00
00M0
0M00
00M0
0M00
00M0
0M00
00M0
0M00
00M0
0M00
00M0
0M00
00M0
0M00
00M0
0M00
00M0
0M00
00M0
0M00
,
3003
0012
0000
0003
0000
2010
0000
3000
,
0000
4004
0000
0000
0000
0000
0000
0000
,
0000
0000
0000
3003
0000
0000
0000
0000
,
0001
0000
1000
0000
0001
0000
0010
0100
0010
0100
0010
0000
0001
0000
0100
0010
,
0100
0010
0100
0000
0001
0000
0010
0100
0010
0100
0010
0000
0001
1000
0001
0000
,
1000
0000
0001
0000
1000
0000
0010
0100
0010
0100
0010
0000
1000
0000
0100
0010
,
0100
0010
0100
0000
1000
0000
0010
0100
0010
0100
0010
0000
1000
0001
1000
0000
,
0010
0000
0010
0000
0100
0000
0001
0100
0010
0100
0001
0000
1000
0000
1000
0000
,
0100
0000
0100
0000
0010
0000
0001
0010
0100
0010
0001
0000
1000
0000
1000
0000
,
0001
0010
0100
1000
0001
0010
0100
1000
0001
0010
0100
0010
0100
1000
0001
0100
,
0020
0000
0000
0000
0000
0000
0000
0000
0000
0000
0000
0000
0000
0000
0000
0030
,
1000
0010
0100
0001
0010
0100
1000
0001
1000
0100
1000
0001
0100
0010
1000
0001
,
1000
0010
0100
0001
0010
0100
1000
0001
1000
0100
1000
0001
0100
0010
1000
0001
,
1000
0100
1000
0010
0100
0010
1000
0100
1000
0001
0010
0001
0100
0010
0100
0001
,
1000
0001
0100
0010
1000
0100
0010
0001
0100
0010
1000
0001
0010
0100
1000
0001
,
1000
0010
0100
0001
0010
0100
1000
0001
1000
0100
1000
0001
0100
0010
1000
0001
,
1000
0010
0100
0001
0010
0100
1000
0001
1000
0100
1000
0001
0100
0010
1000
0001
,
1000
0100
1000
0010
0100
0010
1000
0100
1000
0001
0010
0001
0100
0010
0100
0001
,
1000
0001
0100
0010
1000
0100
0010
0001
0100
0010
1000
0001
0010
0100
1000
0001
,
2000
3000
M000
0000
2000
3000
0002
0003
0020
0030
0200
0300
0020
0030
0002
0003
,
1000
0100
0010
0001
0100
0010
0100
0001
1000
0001
0010
0001
0100
0010
1000
0001
,
0010
0100
0010
0001
0100
0010
1000
0001
1000
0100
0010
0001
0100
0010
0100
0001
,
1000
0001
0100
0001
0010
0100
0010
0001
1000
0010
0100
0001
0010
0100
1000
0001
,
1000
0100
0010
0100
0010
0100
0010
0100
1000
0010
0100
0010
0100
0010
0100
0010
,
1000
0001
0010
0001
1000
0010
1000
0001
0010
0100
0010
0100
1000
0010
0100
0010
,
1000
0001
0100
0001
1000
0010
0100
0010
1000
0001
0010
0001
1000
0001
1000
0001
,
0020
0000
0100
0000
0100
0000
0100
0000
0001
0000
0001
0000
0001
0000
0001
0030
,
1000
0100
0010
0001
0100
0010
1000
0001
1000
0010
1000
0001
0010
0100
1000
0001
,
1000
0100
0010
0001
0100
0010
1000
0001
1000
0010
1000
0001
0010
0100
1000
0001
,
1000
0010
1000
0100
0010
0100
1000
0010
1000
0001
0100
0001
0010
0100
0010
0001
,
1000
0001
0010
0100
1000
0010
0100
0001
0010
0100
1000
0001
0100
0010
1000
0001
,
1000
0100
0010
0001
0100
0010
1000
0001
1000
0010
1000
0001
0010
0100
1000
0001
,
1000
0100
0010
0001
0100
0010
1000
0001
1000
0010
1000
0001
0010
0100
1000
0001
,
1000
0010
1000
0100
0010
0100
1000
0010
1000
0001
0100
0001
0010
0100
0010
0001
,
1000
0001
0010
0100
1000
0010
0100
0001
0010
0100
1000
0001
0100
0010
1000
0001
,
2000
3000
M000
0000
2000
3000
0002
0003
0200
0300
0020
0030
0200
0300
0002
0003
,
1000
0010
0100
0001
0010
0100
0010
0001
1000
0001
0100
0001
0010
0100
1000
0001
,
0100
0010
0100
0001
0010
0100
1000
0001
1000
0010
0100
0001
0010
0100
0010
0001
,
1000
0001
0010
0001
0100
0010
0100
0001
1000
0100
0010
0001
0100
0010
1000
0001
,
1000
0010
0100
0010
0100
0010
0100
0010
1000
0100
0010
0100
0010
0100
0010
0100
,
1000
0001
0100
0001
1000
0100
1000
0001
0100
0010
0100
0010
1000
0100
0010
0100
,
1000
0001
0010
0001
1000
0100
0010
0100
1000
0001
0100
0001
1000
0001
1000
0001
,
0010
0000
0010
0000
0100
0010
0001
1000
0100
1000
0001
0100
0001
0010
0100
1000
,
0020
0030
0200
0300
0002
0003
2000
0000
0000
0000
0000
3000
0200
0000
0000
0300
,
1000
0100
0010
0001
0100
0010
1000
0001
1000
0010
1000
0001
0010
0100
1000
0001
,
1000
0010
1000
0100
0010
0100
1000
0010
1000
0001
0100
0001
0010
0100
0010
0001
,
1000
0001
0010
0100
1000
0010
0100
0001
0010
0100
1000
0001
0100
0010
1000
0001
,
1000
0100
0010
0001
0100
0010
1000
0001
1000
0010
1000
0001
0010
0100
1000
0001
,
1000
0100
0010
0001
0100
0010
1000
0001
1000
0010
1000
0001
0010
0100
1000
0001
,
1000
0010
1000
0100
0010
0100
1000
0010
1000
0001
0100
0001
0010
0100
0010
0001
,
1000
0001
0010
0100
1000
0010
0100
0001
0010
0100
1000
0001
0100
0010
1000
0001
,
2000
3000
M000
0000
2000
3000
0002
0003
0200
0300
0020
0030
0200
0300
0002
0003
,
1000
0010
0100
0001
0010
0100
0010
0001
1000
0001
0100
0001
0010
0100
1000
0001
,
0100
0010
0100
0001
0010
0100
1000
0001
1000
0010
0100
0001
0010
0100
0010
0001
,
1000
0001
0010
0001
0100
0010
0100
0001
1000
0100
0010
0001
0100
0010
1000
0001
,
1000
0010
0100
0010
0100
0010
0100
0010
1000
0100
0010
0100
0010
0100
0010
0100
,
1000
0001
0100
0001
1000
0100
1000
0001
0100
0010
0100
0010
1000
0100
0010
0100
,
1000
0001
0010
0001
1000
0100
0010
0100
1000
0001
0100
0001
1000
0001
1000
0001
,
0200
0010
0010
0010
0001
0001
0001
0301
,
1000
0010
0100
0001
0010
0100
1000
0001
1000
0100
1000
0001
0100
0010
1000
0001
,
1000
0010
0100
0001
0010
0100
1000
0001
1000
0100
1000
0001
0100
0010
1000
0001
,
1000
0100
1000
0010
0100
0010
1000
0100
1000
0001
0010
0001
0100
0010
0100
0001
,
1000
0001
0100
0010
1000
0100
0010
0001
0100
0010
1000
0001
0010
0100
1000
0001
,
1000
0010
0100
0001
0010
0100
1000
0001
1000
0100
1000
0001
0100
0010
1000
0001
,
1000
0010
0100
0001
0010
0100
1000
0001
1000
0100
1000
0001
0100
0010
1000
0001
,
1000
0100
1000
0010
0100
0010
1000
0100
1000
0001
0010
0001
0100
0010
0100
0001
,
1000
0001
0100
0010
1000
0100
0010
0001
0100
0010
1000
0001
0010
0100
1000
0001
,
2000
3000
M000
0000
2000
3000
0002
0003
0020
0030
0200
0300
0020
0030
0002
0003
,
1000
0100
0010
0001
0100
0010
0100
0001
1000
0001
0010
0001
0100
0010
1000
0001
,
0010
0100
0010
0001
0100
0010
1000
0001
1000
0100
0010
0001
0100
0010
0100
0001
,
1000
0001
0100
0001
0010
0100
0010
0001
1000
0010
0100
0001
0010
0100
1000
0001
,
1000
0100
0010
0100
0010
0100
0010
0100
1000
0010
0100
0010
0100
0010
0100
0010
,
1000
0001
0010
0001
1000
0010
1000
0001
0010
0100
0010
0100
1000
0010
0100
0010
,
1000
0001
0100
0001
1000
0010
0100
0010
1000
0001
0010
0001
1000
0001
1000
0001
,
0100
0000
0100
0000
0101
0000
0001
0010
0001
1000
0010
1000
0001
0000
0000
0000
,
1000
0010
1000
0010
0100
0001
1000
0001
0010
0100
1000
0001
0100
0010
0100
0010
,
1000
0001
0100
0001
0010
0100
0010
0100
1000
0001
0010
0001
0100
0010
0100
0010
,
1000
0100
0010
0001
1000
0001
0010
0001
1000
0010
1000
0001
0100
0010
0100
0010
,
1000
0001
0100
0001
0010
0100
0010
0100
1000
0001
0010
0001
0100
0010
0100
0010
,
1000
0100
1000
0100
0010
0001
1000
0001
0100
0010
1000
0001
0010
0100
0010
0100
,
1000
0001
0010
0001
0100
0010
0100
0010
1000
0001
0100
0001
0010
0100
0010
0100
,
1000
0010
0100
0001
1000
0001
0100
0001
1000
0100
1000
0001
0010
0100
0010
0100
,
1000
0001
0010
0001
0100
0010
0100
0010
1000
0001
0100
0001
0010
0100
0010
0100
,
1000
0001
0010
0100
1000
0001
0100
0001
1000
0010
1000
0001
0100
0010
0100
0010
,
1000
0001
0100
0001
0010
0100
0010
0100
1000
0001
0010
0001
0100
0010
0100
0010
,
1000
0001
0100
0001
1000
0100
0010
0001
0010
0001
1000
0001
0100
0010
0100
0010
,
1000
0001
0100
0001
0010
0100
0010
0100
1000
0001
0010
0001
0100
0010
0100
0010
,
1000
0001
0100
0010
1000
0001
0010
0001
1000
0100
1000
0001
0010
0100
0010
0100
,
1000
0001
0010
0001
0100
0010
0100
0010
1000
0001
0100
0001
0010
0100
0010
0100
,
1000
0001
0010
0001
1000
0010
0100
0001
0100
0001
1000
0001
0010
0100
0010
0100
,
1000
0001
0010
0001
0100
0010
0100
0010
1000
0001
0100
0001
0010
0100
0010
0100
,
2000
0000
0000
0000
,
0000
0000
0000
0000
,
0000
0000
0000
0000
,
0000
0000
0000
0000
,
3000
0000
0000
0000
;

//---------------dance-single - I. Pyles----------------
#NOTES:
     dance-single:
     I. Pyles:
     Challenge:
     16:
     1.000,1.000,0.020,0.209,1.000,4044.000,9.000,94.000,280.000,0.000:

0000
0000
0000
0000
,
0001
0010
0001
0010
0100
1000
0001
1000
0010
0100
0001
1000
0100
0010
0100
0010
,
0001
1000
0100
1000
0010
0100
0010
0100
0001
1000
0010
1000
0100
0010
0100
0010
,
0001
0100
0010
1000
0001
1000
0010
1000
0001
0010
0001
1000
0100
0010
0100
0010
,
0001
1000
0100
1000
0010
0100
0010
0100
0001
1000
0010
1000
0100
0010
0100
0010
,
0001
0100
0001
0100
0010
1000
0001
1000
0100
0010
0001
1000
0010
0100
0010
0100
,
0001
1000
0010
1000
0100
0010
0100
0010
0001
1000
0100
1000
0010
0100
0010
0100
,
0001
0010
0100
1000
0001
1000
0100
1000
0001
0100
0001
1000
0010
0100
0010
0100
,
0001
1000
0010
1000
0100
0010
0100
0010
0001
1000
0100
1000
0010
0100
0010
0100
,
0001
1000
0010
0100
0001
1000
0100
1000
0001
0010
0001
1000
0100
0010
0100
0010
,
0001
1000
0100
1000
0010
0100
0010
0100
0001
1000
0010
1000
0100
0010
0100
0010
,
0001
1000
0100
1000
0001
0100
0010
1000
0010
1000
0001
1000
0100
0010
0100
0010
,
0001
1000
0100
1000
0010
0100
0010
0100
0001
1000
0010
1000
0100
0010
0100
0010
,
0001
1000
0100
0010
0001
1000
0010
1000
0001
0100
0001
1000
0010
0100
0010
0100
,
0001
1000
0010
1000
0100
0010
0100
0010
0001
1000
0100
1000
0010
0100
0010
0100
,
0001
1000
0010
1000
0001
0010
0100
1000
0100
1000
0001
1000
0010
0100
0010
0100
,
0001
1000
0010
1000
0100
0010
0100
0010
0001
1000
0100
1000
0010
0100
0010
0100
,
0001
1000
0100
1000
0001
0010
0001
1000
0010
0100
0001
1000
0100
0010
0100
0010
,
0001
1000
0100
1000
0010
0100
0010
0100
0001
1000
0010
1000
0100
0010
0100
0010
,
0001
1000
0100
1000
0001
1000
0100
0010
0001
1000
0001
1000
0100
0010
0100
0010
,
0001
1000
0100
1000
0010
0100
0010
0100
0001
1000
0010
1000
0100
0010
0100
0010
,
0001
1000
0100
1000
0001
0010
0001
1000
0010
0100
0001
1000
0010
0100
0010
0100
,
0001
1000
0010
1000
0100
0010
0100
0010
0001
1000
0100
1000
0010
0100
0010
0100
,
0001
1000
0100
1000
0001
1000
0100
0010
0001
1000
0001
1000
0010
0100
0010
0100
,
0001
1000
0010
1000
0100
0010
0100
0010
0001
1000
0100
1000
0010
0100
0010
0100
,
0001
1000
0100
0010
0001
1000
0100
1000
0001
0100
0010
1000
0100
0010
0100
0010
,
0001
1000
0100
1000
0010
0100
0010
0100
0001
1000
0010
1000
0100
0010
0100
0010
,
0001
1000
0010
1000
0001
0010
0001
1000
0100
1000
0001
1000
0100
0010
0100
0010
,
0001
1000
0100
1000
0010
0100
0010
0100
0001
1000
0010
1000
0100
0010
0100
0010
,
0001
1000
0010
0100
0001
1000
0010
1000
0001
0010
0100
1000
0010
0100
0010
0100
,
0001
1000
0010
1000
0100
0010
0100
0010
0001
1000
0100
1000
0010
0100
0010
0100
,
0001
1000
0100
1000
0001
0100
0001
1000
0010
1000
0001
1000
0010
0100
0010
0100
,
0001
1000
0010
1000
0100
0010
0100
0010
0001
1000
0100
1000
0010
0100
0010
0100
,
0001
0010
0100
1000
0001
0010
0001
1000
0001
0100
0010
1000
0100
0010
0100
0010
,
0001
1000
0100
1000
0010
0100
0010
0100
0001
1000
0010
1000
0100
0010
0100
0010
,
0001
1000
0001
1000
0010
0100
0001
0010
0100
1000
0001
1000
0100
0010
0001
0100
,
0010
1000
0001
1000
0010
0100
0001
0010
0100
1000
0001
1000
0100
0010
0001
1000
,
0001
0100
0010
1000
0001
0100
0001
1000
0001
0010
0100
1000
0010
0100
0010
0100
,
0001
1000
0010
1000
0100
0010
0100
0010
0001
1000
0100
1000
0010
0100
0010
0100
,
0001
1000
0001
1000
0100
0010
0001
0100
0010
1000
0001
1000
0010
0100
0001
0010
,
0100
1000
0001
1000
0100
0010
0001
0100
0010
1000
0001
1000
0010
0100
0001
1000
,
0010
0100
0001
1000
0100
1000
0001
0010
0100
1000
0001
1000
0100
0010
0100
0010
,
0001
1000
0100
1000
0010
0100
0010
0100
0001
1000
0010
1000
0100
0010
0100
0010
,
0001
1000
0001
1000
0010
0100
0001
0010
0100
1000
0001
1000
0100
0010
0001
0100
,
0010
1000
0001
1000
0010
0100
0001
0010
0100
1000
0001
1000
0100
0010
0001
1000
,
0100
0010
0001
1000
0010
1000
0001
0100
0010
1000
0001
1000
0010
0100
0010
0100
,
0001
1000
0010
1000
0100
0010
0100
0010
0001
1000
0100
1000
0010
0100
0010
0100
,
0001
1000
0001
1000
0100
0010
0001
0100
0010
1000
0001
1000
0010
0100
0001
0010
,
0100
1000
0001
1000
0100
0010
0001
0100
0010
1000
0001
1000
0010
0100
0001
1000
,
0100
0010
0001
0100
0010
1000
0001
0010
0100
0010
0001
0100
0010
1000
0001
0010
,
0100
0010
0001
0100
0010
1000
0001
0010
0100
0010
0001
0100
0010
1000
0001
0010
,
0001
1000
0001
1000
0010
0100
0001
0010
0100
1000
0001
1000
0100
0010
0001
0100
,
0010
1000
0001
1000
0010
0100
0001
0010
0100
1000
0001
1000
0100
0010
0001
1000
,
0010
0100
0001
0010
0100
1000
0001
0100
0010
0100
0001
0010
0100
1000
0001
0100
,
0010
0100
0001
0010
0100
1000
0001
0100
0010
0100
0001
0010
0100
1000
0001
0100
,
0001
1000
0001
1000
0100
0010
0001
0100
0010
1000
0001
1000
0010
0100
0001
0010
,
0100
1000
0001
1000
0100
0010
0001
0100
0010
1000
0001
1000
0010
0100
0001
1000
,
0100
0010
0001
0100
0010
1000
0001
0010
0100
0010
0001
0100
0010
1000
0001
0010
,
0100
0010
0001
0100
0010
1000
0001
0010
0100
0010
0001
0100
0010
1000
0001
0010
,
0001
1000
0001
1000
0010
0100
0001
0010
0100
1000
0001
1000
0100
0010
0001
0100
,
0010
1000
0001
1000
0010
0100
0001
0010
0100
1000
0001
1000
0100
0010
0001
1000
,
0010
0100
0001
0010
0100
1000
0001
0100
0010
0100
0001
0010
0100
1000
0001
0100
,
0010
0100
0001
0010
0100
1000
0001
0100
0010
0100
0001
0010
0100
1000
0001
0100
,
0001
1000
0001
1000
0100
0010
0001
0100
0010
1000
0001
1000
0010
0100
0001
0010
,
0100
1000
0001
1000
0100
0010
0001
0100
0010
1000
0001
1000
0010
0100
0001
1000
,
0010
0100
0001
0100
0010
1000
0001
1000
0001
1000
0001
1000
0100
0010
0001
0010
,
0001
0010
0001
0010
0100
1000
0001
1000
0001
1000
0001
1000
0010
0100
0001
0100
,
0001
0100
0001
0100
0010
1000
0100
1000
0100
1000
0100
1000
0010
0100
0001
0100
,
0001
0100
0001
0100
0010
1000
0001
1000
0001
1000
0001
1000
0100
0010
0001
0010
,
0001
0010
0001
0010
0100
1000
0010
1000
0010
1000
0010
1000
0100
0010
0001
0010
,
0001
0010
0001
0010
0100
1000
0001
0010
0100
0000
M000
0000
0M00
0000
00M0
0000
,
000M
M000
00M0
0M00
000M
M000
0000
0000
,
0001
0000
0100
0000
0010
0000
1000
0000
0000
0001
0000
0000
1000
0000
0100
0000
0010
0000
0001
0000
0000
1000
0000
0000
0001
0000
0100
0000
0010
0000
1000
0000
0000
0001
0000
0000
1000
0000
0100
0000
0010
0000
0001
0000
0000
1000
0000
0000
,
0001
0000
1000
0000
0001
0000
0010
0100
0010
0100
0010
0000
0001
0000
0100
0010
,
0100
0010
0100
0000
0001
0000
0010
0100
0010
0100
0010
0000
0001
1000
0001
0000
,
1000
0000
0001
0000
1000
0000
0010
0100
0010
0100
0010
0000
1000
0000
0100
0010
,
0100
0010
0100
0000
1000
0000
0010
0100
0010
0100
0010
0000
1000
0001
1000
0000
,
0010
0000
0010
0000
0100
0000
0001
0100
0010
0100
0001
0000
1000
0000
1000
0000
,
0100
0000
0100
0000
0010
0000
0001
0010
0100
0010
0001
0000
1000
0000
1000
0000
,
0001
0010
0100
1000
0001
0010
0100
1000
0001
0010
0100
0010
0100
1000
0001
0100
,
0020
0000
0000
0000
0000
0000
0000
0000
0000
0000
0000
0000
0000
0000
0000
0030
,
1000
0010
0100
0001
0010
0100
1000
0001
1000
0100
1000
0001
0100
0010
1000
0001
,
1000
0010
0100
0001
0010
0100
1000
0001
1000
0100
1000
0001
0100
0010
1000
0001
,
1000
0100
1000
0010
0100
0010
1000
0100
1000
0001
0010
0001
0100
0010
0100
0001
,
1000
0001
0100
0010
1000
0100
0010
0001
0100
0010
1000
0001
0010
0100
1000
0001
,
1000
0010
0100
0001
0010
0100
1000
0001
1000
0100
1000
0001
0100
0010
1000
0001
,
1000
0010
0100
0001
0010
0100
1000
0001
1000
0100
1000
0001
0100
0010
1000
0001
,
1000
0100
1000
0010
0100
0010
1000
0100
1000
0001
0010
0001
0100
0010
0100
0001
,
1000
0001
0100
0010
1000
0100
0010
0001
0100
0010
1000
0001
0010
0100
1000
0001
,
2000
3000
M000
0000
2000
3000
0002
0003
0020
0030
0200
0300
0020
0030
0002
0003
,
1000
0100
0010
0001
0100
0010
0100
0001
1000
0001
0010
0001
0100
0010
1000
0001
,
0010
0100
0010
0001
0100
0010
1000
0001
1000
0100
0010
0001
0100
0010
0100
0001
,
1000
0001
0100
0001
0010
0100
0010
0001
1000
0010
0100
0001
0010
0100
1000
0001
,
1000
0100
0010
0100
0010
0100
0010
0100
1000
0010
0100
0010
0100
0010
0100
0010
,
1000
0001
0010
0001
1000
0010
1000
0001
0010
0100
0010
0100
1000
0010
0100
0010
,
1000
0001
0100
0001
1000
0010
0100
0010
1000
0001
0010
0001
1000
0010
1000
0010
,
0100
0001
1000
0001
1000
0001
0100
0000
0010
1000
0001
1000
0001
1000
0010
0100
,
0001
0010
0100
1000
0010
0100
0001
1000
0001
0100
0001
1000
0100
0010
0001
1000
,
0001
0010
0100
1000
0010
0100
0001
1000
0001
0100
0001
1000
0100
0010
0001
1000
,
0001
0100
0001
0010
0100
0010
0001
0100
0001
1000
0010
1000
0100
0010
0100
1000
,
0001
1000
0100
0010
0001
0100
0010
1000
0100
0010
0001
1000
0010
0100
0001
1000
,
0001
0010
0100
1000
0010
0100
0001
1000
0001
0100
0001
1000
0100
0010
0001
1000
,
0001
0010
0100
1000
0010
0100
0001
1000
0001
0100
0001
1000
0100
0010
0001
1000
,
0001
0100
0001
0010
0100
0010
0001
0100
0001
1000
0010
1000
0100
0010
0100
1000
,
0001
1000
0100
0010
0001
0100
0010
1000
0100
0010
0001
1000
0010
0100
0001
1000
,
0002
0003
000M
0000
0002
0003
2000
3000
0020
0030
0200
0300
0020
0030
2000
3000
,
0001
0100
0010
1000
0100
0010
0100
1000
0001
1000
0010
1000
0100
0010
0001
1000
,
0010
0100
0010
1000
0100
0010
0001
1000
0001
0100
0010
1000
0100
0010
0100
1000
,
0001
1000
0100
1000
0010
0100
0010
1000
0001
0010
0100
1000
0010
0100
0001
1000
,
0001
0100
0010
0100
0010
0100
0010
0100
0001
0010
0100
0010
0100
0010
0100
0010
,
0001
1000
0010
1000
0001
0010
0001
1000
0010
0100
0010
0100
0001
0010
0100
0010
,
0001
1000
0100
1000
0001
0010
0100
0010
0001
1000
0010
1000
0001
0100
0001
0100
,
0010
0000
0010
0000
0100
0010
1000
0001
0100
0001
1000
0100
1000
0010
0100
0001
,
0000
0000
0000
0000
,
1000
0000
0001
0100
0000
0010
0100
0010
1000
0001
0000
0010
,
0001
0000
1000
0100
0000
0010
0100
0010
0001
1000
0000
0000
,
0001
0010
0100
0010
0100
1000
0001
0100
0010
0100
0010
1000
,
0001
0100
0001
1000
0100
1000
0001
0010
0001
1000
0010
1000
,
0001
0000
0001
1000
0000
0001
1000
0010
1000
0001
0000
1000
,
0001
0000
0001
1000
0000
0001
1000
0010
1000
0001
0000
1000
,
0001
0000
0001
1000
0000
0001
0100
0001
1000
0100
1000
0001
,
0020
0000
0000
0000
0000
0000
0230
0000
0000
0000
0000
0000
2300
0000
0000
3000
1000
0000
0002
0000
0000
0000
0000
0000
,
0023
0000
0000
0000
0000
0000
0230
0000
0000
0300
0100
0000
2000
0000
0000
3000
1000
0000
0002
0000
0000
0000
0003
0000
,
0002
0000
0000
0003
0001
0000
0200
0000
0000
0300
0100
0000
0010
0000
1000
0000
0001
0000
0020
0000
0000
0030
0010
0000
,
0002
0000
0000
0003
0001
0000
0200
0000
0000
0000
0000
0000
0320
0000
0000
0000
0000
0000
0000
0000
0000
0030
0000
0000
,
1000
0100
1000
0001
0100
0001
1000
0010
1000
0001
0010
0001
,
1000
0000
1000
0001
0000
1000
0001
0100
0001
1000
0000
0001
,
1000
0000
1000
0001
0000
1000
0001
0100
0001
1000
0000
0001
,
1000
0000
1000
0001
0000
1000
0010
1000
0001
0100
0001
0010
,
M100
0000
0010
M001
0000
0010
0100
0010
0001
0010
0000
0100
,
100M
0000
0100
001M
0000
0100
1000
0100
0010
0100
0000
1000
,
00M1
0000
0100
00M1
0000
1000
0100
1000
0001
0100
0000
0001
,
0M10
0000
0001
1M00
0000
0010
1000
0001
0010
0001
1000
0010
,
010M
0000
0010
100M
0000
0010
0100
0010
1000
0100
0000
0010
,
M100
0000
0010
M001
0000
0010
0100
0010
0001
0100
0000
0010
,
1M00
0000
0001
1M00
0000
0001
0010
0001
1000
0010
0000
1000
,
00M1
0000
0100
00M1
0000
1000
0100
1000
0001
0100
0000
0001
,
001M
0000
0100
100M
0000
0010
0100
0010
1000
0100
0000
0010
,
M001
0000
0100
M010
0000
0100
0001
0010
0100
0010
0000
0001
,
01M0
0000
0001
10M0
0000
0100
1000
0001
0100
0001
0000
1000
,
0M01
0000
0010
0M01
0000
1000
0010
1000
0001
0010
0001
1000
,
0010
0000
0100
0000
0010
0000
0100
0000
0010
1000
0100
0000
0010
0000
0100
1000
,
0010
0000
0100
0000
0010
0000
0100
0000
0010
1000
0100
0000
0010
0000
0100
1000
,
0010
0100
0001
1000
0010
0100
0001
1000
0100
0010
0001
1000
0001
0010
0100
1000
,
0001
0100
0001
1000
0001
0100
0010
1000
0001
0010
0100
1000
0000
0000
0000
0000
,
0020
0030
0200
0300
0002
0003
2000
0000
0000
0000
0000
3000
0200
0000
0000
0300
,
1000
0100
0010
0001
0100
0010
1000
0001
1000
0010
1000
0001
0010
0100
1000
0001
,
1000
0010
1000
0100
0010
0100
1000
0010
1000
0001
0100
0001
0010
0100
0010
0001
,
1000
0001
0010
0100
1000
0010
0100
0001
0010
0100
1000
0001
0100
0010
1000
0001
,
1000
0100
0010
0001
0100
0010
1000
0001
1000
0010
1000
0001
0010
0100
1000
0001
,
1000
0100
0010
0001
0100
0010
1000
0001
1000
0010
1000
0001
0010
0100
1000
0001
,
1000
0010
1000
0100
0010
0100
1000
0010
1000
0001
0100
0001
0010
0100
0010
0001
,
1000
0001
0010
0100
1000
0010
0100
0001
0010
0100
1000
0001
0100
0010
1000
0001
,
2000
3000
M000
0000
2000
3000
0002
0003
0200
0300
0020
0030
0200
0300
0002
0003
,
1000
0010
0100
0001
0010
0100
0010
0001
1000
0001
0100
0001
0010
0100
1000
0001
,
0100
0010
0100
0001
0010
0100
1000
0001
1000
0010
0100
0001
0010
0100
0010
0001
,
1000
0001
0010
0001
0100
0010
0100
0001
1000
0100
0010
0001
0100
0010
1000
0001
,
1000
0010
0100
0010
0100
0010
0100
0010
1000
0100
0010
0100
0010
0100
0010
0100
,
1000
0001
0100
0001
1000
0100
1000
0001
0100
0010
0100
0010
1000
0100
0010
0100
,
1000
0001
0010
0001
1000
0100
0010
0100
1000
0001
0100
0001
1000
0100
1000
0100
,
0010
0001
1000
0001
1000
0001
0010
0000
0100
1000
0001
1000
0001
1000
0100
0010
,
0001
0100
0010
1000
0100
0010
0001
1000
0001
0010
0001
1000
0010
0100
0001
1000
,
0001
0100
0010
1000
0100
0010
0001
1000
0001
0010
0001
1000
0010
0100
0001
1000
,
0001
0010
0001
0100
0010
0100
0001
0010
0001
1000
0100
1000
0010
0100
0010
1000
,
0001
1000
0010
0100
0001
0010
0100
1000
0010
0100
0001
1000
0100
0010
0001
1000
,
0001
0100
0010
1000
0100
0010
0001
1000
0001
0010
0001
1000
0010
0100
0001
1000
,
0001
0100
0010
1000
0100
0010
0001
1000
0001
0010
0001
1000
0010
0100
0001
1000
,
0001
0010
0001
0100
0010
0100
0001
0010
0001
1000
0100
1000
0010
0100
0010
1000
,
0001
1000
0010
0100
0001
0010
0100
1000
0010
0100
0001
1000
0100
0010
0001
1000
,
0002
0003
000M
0000
0002
0003
2000
3000
0200
0300
0020
0030
0200
0300
2000
3000
,
0001
0010
0100
1000
0010
0100
0010
1000
0001
1000
0100
1000
0010
0100
0001
1000
,
0100
0010
0100
1000
0010
0100
0001
1000
0001
0010
0100
1000
0010
0100
0010
1000
,
0001
1000
0010
1000
0100
0010
0100
1000
0001
0100
0010
1000
0100
0010
0001
1000
,
0001
0010
0100
0010
0100
0010
0100
0010
0001
0100
0010
0100
0010
0100
0010
0100
,
0001
1000
0100
1000
0001
0100
0001
1000
0100
0010
0100
0010
0001
0100
0010
0100
,
0001
1000
0010
1000
0001
0100
0010
0100
0001
1000
0100
1000
0001
1000
0001
1000
,
0010
0000
0010
0000
1010
0000
1000
0100
1000
0001
0100
0001
1000
0000
0000
0000
,
0001
1000
0010
1000
0100
0010
0001
1000
0001
1000
0001
1000
0100
0010
0001
1000
,
0100
0010
0100
1000
0010
0100
0001
1000
0001
1000
0001
1000
0010
0100
0001
1000
,
0010
0100
0010
1000
0100
0010
0001
1000
0001
1000
0001
1000
0100
0010
0001
1000
,
0100
0010
0100
1000
0010
0100
0001
1000
0001
1000
0001
1000
0010
0100
0001
1000
,
0010
0100
0010
1000
0100
0010
0001
1000
0001
1000
0001
1000
0100
0010
0001
1000
,
0100
0010
0100
1000
0010
0100
0001
1000
0001
1000
0001
1000
0010
0100
0001
1000
,
0010
0100
0010
1000
0100
0010
0001
1000
0001
1000
0001
1000
0010
0100
0001
1000
,
0010
0100
0010
1000
0100
0010
0001
1000
0001
1000
0001
1000
0100
0010
0001
1000
,
0100
0010
0100
1000
0010
0100
0001
1000
0001
1000
0001
1000
0100
0010
0100
0010
,
0001
1000
0100
1000
0010
0100
0010
0100
0001
1000
0010
1000
0100
0010
0100
0010
,
0001
1000
0010
1000
0100
0010
0001
1000
0100
1000
0001
1000
0010
0100
0010
0100
,
0001
1000
0010
1000
0100
0010
0100
0010
0001
1000
0100
1000
0010
0100
0010
0100
,
0001
0010
0001
1000
0100
0010
0100
1000
0010
0100
0010
1000
0100
0010
0100
0010
,
0001
1000
0100
1000
0010
0100
0010
0100
0001
1000
0010
1000
0100
0010
0100
0010
,
0001
1000
0100
1000
0010
0100
0001
1000
0010
1000
0001
1000
0010
0100
0010
0100
,
0001
1000
0010
1000
0100
0010
0100
0010
0001
1000
0100
1000
0010
0100
0010
0100
,
0002
0000
0000
0000
,
0000
0000
0000
0000
,
0000
0000
0000
0000
,
0000
0000
0000
0000
0000
0000
0000
0000
0000
0000
0000
0000
0000
0000
0000
0000
0000
0000
0000
0000
0000
0000
0000
0000
0000
0000
0000
0000
0000
0000
0000
0000
0000
0000
0000
0000
0000
0000
0000
0000
0000
0000
0000
0000
0000
0000
0000
0000
0000
0000
0000
0000
0000
0000
0000
0000
0000
0000
0000
0000
0000
0000
0000
0003
,
2002
0000
0000
0000
,
0000
0000
0000
0000
,
0000
0M00
0M00
0M00
,
0M00
0000
0000
0000
0000
0000
0000
0000
0000
0000
0000
0000
0000
0000
0000
0000
0M00
0000
0000
0000
0000
0000
0000
0000
0000
0000
0000
0000
0000
0000
0000
0000
0M00
0000
0000
0000
0000
0000
0000
0000
0000
0000
0000
0000
0000
0000
0000
0000
0M00
0000
0000
0000
0000
0000
0000
0000
0000
0000
0000
0000
0000
0000
0000
3003
,
2M02
00M0
0M00
00M0
0M00
00M0
0M00
00M0
,
0M00
00M0
0M00
00M0
0M00
00M0
0M00
00M0
,
0M00
00M0
0M00
00M0
0M00
00M0
0M00
00M0
0M00
00M0
0M00
00M0
0M00
00M0
0M00
00M0
,
0M00
0000
0000
0000
00M0
0000
0000
0000
0M00
0000
0000
0000
00M0
0000
0000
0000
0M00
0000
0000
0000
00M0
0000
0000
0000
0M00
0000
0000
0000
00M0
0000
0000
0000
0M00
0000
0000
0000
00M0
0000
0000
0000
0M00
0000
0000
0000
00M0
0000
0000
0000
0M00
0000
0000
0000
00M0
0000
0000
0000
0M00
0000
0000
0000
00M0
0000
0000
3003
,
2M02
00M0
0M00
00M0
0M00
00M0
0M00
00M0
0M00
00M0
0M00
00M0
0M00
00M0
0M00
00M0
,
0M00
00M0
0M00
00M0
0M00
00M0
0M00
00M0
0M00
00M0
0M00
00M0
0M00
00M0
0M00
00M0
,
0M00
00M0
0M00
00M0
0M00
00M0
0M00
00M0
0M00
00M0
0M00
00M0
0M00
00M0
0M00
00M0
,
0M00
0000
0000
0000
00M0
0000
0000
0000
0M00
0000
0000
0000
00M0
0000
0000
0000
0M00
0000
0000
0000
00M0
0000
0000
0000
0M00
0000
0000
0000
00M0
0000
0000
0000
0M00
0000
0000
0000
00M0
0000
0000
0000
0M00
0000
0000
0000
00M0
0000
0000
0000
0M00
0000
0000
0000
00M0
0000
0000
0000
0M00
0000
0000
0000
00M0
0000
0000
3003
,
2M02
00M0
0M00
00M0
0M00
00M0
0M00
00M0
0M00
00M0
0M00
00M0
0M00
00M0
0M00
00M0
0M00
00M0
0M00
00M0
0M00
00M0
0M00
00M0
,
0M00
00M0
0M00
00M0
0M00
00M0
0M00
00M0
0M00
00M0
0M00
00M0
0M00
00M0
0M00
00M0
0M00
00M0
0M00
00M0
0M00
00M0
0M00
00M0
,
0M00
00M0
0M00
00M0
0M00
00M0
0M00
00M0
0M00
00M0
0M00
00M0
0M00
00M0
0M00
00M0
0M00
00M0
0M00
00M0
0M00
00M0
0M00
00M0
,
0M00
00M0
0M00
00M0
0M00
00M0
0M00
00M0
0M00
00M0
0M00
00M0
0M00
00M0
0M00
00M0
0M00
00M0
0M00
00M0
0M00
00M0
0M00
00M0
,
0M00
00M0
0M00
00M0
0M00
00M0
0M00
00M0
0M00
00M0
0M00
00M0
0M00
00M0
0M00
00M0
0M00
00M0
0M00
00M0
0M00
00M0
0M00
00M0
,
3003
0012
0000
0003
0000
2010
0000
3000
,
0000
4004
0000
0000
0000
0000
0000
0000
,
0000
0000
0000
3003
0000
0000
0000
0000
,
1000
0000
0001
0000
1000
0000
0100
0010
0100
0010
0100
0000
1000
0000
0010
0100
,
0010
0100
0010
0000
1000
0000
0100
0010
0100
0010
0100
0000
1000
0001
1000
0000
,
0001
0000
1000
0000
0001
0000
0100
0010
0100
0010
0100
0000
0001
0000
0010
0100
,
0010
0100
0010
0000
0001
0000
0100
0010
0100
0010
0100
0000
0001
1000
0001
0000
,
0100
0000
0100
0000
0010
0000
1000
0010
0100
0010
1000
0000
0001
0000
0001
0000
,
0010
0000
0010
0000
0100
0000
1000
0100
0010
0100
1000
0000
0001
0000
0001
0000
,
1000
0100
0010
0001
1000
0100
0010
0001
1000
0100
0010
0100
0010
0001
1000
0010
,
0200
0000
0000
0000
0000
0000
0000
0000
0000
0000
0000
0000
0000
0000
0000
0300
,
0001
0100
0010
1000
0100
0010
0001
1000
0001
0010
0001
1000
0010
0100
0001
1000
,
0001
0100
0010
1000
0100
0010
0001
1000
0001
0010
0001
1000
0010
0100
0001
1000
,
0001
0010
0001
0100
0010
0100
0001
0010
0001
1000
0100
1000
0010
0100
0010
1000
,
0001
1000
0010
0100
0001
0010
0100
1000
0010
0100
0001
1000
0100
0010
0001
1000
,
0001
0100
0010
1000
0100
0010
0001
1000
0001
0010
0001
1000
0010
0100
0001
1000
,
0001
0100
0010
1000
0100
0010
0001
1000
0001
0010
0001
1000
0010
0100
0001
1000
,
0001
0010
0001
0100
0010
0100
0001
0010
0001
1000
0100
1000
0010
0100
0010
1000
,
0001
1000
0010
0100
0001
0010
0100
1000
0010
0100
0001
1000
0100
0010
0001
1000
,
0002
0003
000M
0000
0002
0003
2000
3000
0200
0300
0020
0030
0200
0300
2000
3000
,
0001
0010
0100
1000
0010
0100
0010
1000
0001
1000
0100
1000
0010
0100
0001
1000
,
0100
0010
0100
1000
0010
0100
0001
1000
0001
0010
0100
1000
0010
0100
0010
1000
,
0001
1000
0010
1000
0100
0010
0100
1000
0001
0100
0010
1000
0100
0010
0001
1000
,
0001
0010
0100
0010
0100
0010
0100
0010
0001
0100
0010
0100
0010
0100
0010
0100
,
0001
1000
0100
1000
0001
0100
0001
1000
0100
0010
0100
0010
0001
0100
0010
0100
,
0001
1000
0010
1000
0001
0100
0010
0100
0001
1000
0100
1000
0001
0100
0001
0100
,
0010
1000
0001
1000
0001
1000
0010
0000
0100
0001
1000
0001
1000
0001
0100
0010
,
1000
0100
0010
0001
0100
0010
1000
0001
1000
0010
1000
0001
0010
0100
1000
0001
,
1000
0100
0010
0001
0100
0010
1000
0001
1000
0010
1000
0001
0010
0100
1000
0001
,
1000
0010
1000
0100
0010
0100
1000
0010
1000
0001
0100
0001
0010
0100
0010
0001
,
1000
0001
0010
0100
1000
0010
0100
0001
0010
0100
1000
0001
0100
0010
1000
0001
,
1000
0100
0010
0001
0100
0010
1000
0001
1000
0010
1000
0001
0010
0100
1000
0001
,
1000
0100
0010
0001
0100
0010
1000
0001
1000
0010
1000
0001
0010
0100
1000
0001
,
1000
0010
1000
0100
0010
0100
1000
0010
1000
0001
0100
0001
0010
0100
0010
0001
,
1000
0001
0010
0100
1000
0010
0100
0001
0010
0100
1000
0001
0100
0010
1000
0001
,
2000
3000
M000
0000
2000
3000
0002
0003
0200
0300
0020
0030
0200
0300
0002
0003
,
1000
0010
0100
0001
0010
0100
0010
0001
1000
0001
0100
0001
0010
0100
1000
0001
,
0100
0010
0100
0001
0010
0100
1000
0001
1000
0010
0100
0001
0010
0100
0010
0001
,
1000
0001
0010
0001
0100
0010
0100
0001
1000
0100
0010
0001
0100
0010
1000
0001
,
1000
0010
0100
0010
0100
0010
0100
0010
1000
0100
0010
0100
0010
0100
0010
0100
,
1000
0001
0100
0001
1000
0100
1000
0001
0100
0010
0100
0010
1000
0100
0010
0100
,
1000
0001
0010
0001
1000
0100
0010
0100
1000
0001
0100
0001
1000
0100
1000
0100
,
0010
0000
0010
0000
0100
0010
0001
1000
0100
1000
0001
0100
0001
0010
0100
1000
,
0020
0030
0200
0300
0002
0003
2000
0000
0000
0000
0000
3000
0200
0000
0000
0300
,
1000
0100
0010
0001
0100
0010
1000
0001
1000
0010
1000
0001
0010
0100
1000
0001
,
1000
0010
1000
0100
0010
0100
1000
0010
1000
0001
0100
0001
0010
0100
0010
0001
,
1000
0001
0010
0100
1000
0010
0100
0001
0010
0100
1000
0001
0100
0010
1000
0001
,
1000
0100
0010
0001
0100
0010
1000
0001
1000
0010
1000
0001
0010
0100
1000
0001
,
1000
0100
0010
0001
0100
0010
1000
0001
1000
0010
1000
0001
0010
0100
1000
0001
,
1000
0010
1000
0100
0010
0100
1000
0010
1000
0001
0100
0001
0010
0100
0010
0001
,
1000
0001
0010
0100
1000
0010
0100
0001
0010
0100
1000
0001
0100
0010
1000
0001
,
2000
3000
M000
0000
2000
3000
0002
0003
0200
0300
0020
0030
0200
0300
0002
0003
,
1000
0010
0100
0001
0010
0100
0010
0001
1000
0001
0100
0001
0010
0100
1000
0001
,
0100
0010
0100
0001
0010
0100
1000
0001
1000
0010
0100
0001
0010
0100
0010
0001
,
1000
0001
0010
0001
0100
0010
0100
0001
1000
0100
0010
0001
0100
0010
1000
0001
,
1000
0010
0100
0010
0100
0010
0100
0010
1000
0100
0010
0100
0010
0100
0010
0100
,
1000
0001
0100
0001
1000
0100
1000
0001
0100
0010
0100
0010
1000
0100
0010
0100
,
1000
0001
0010
0001
1000
0100
0010
0100
1000
0001
0100
0001
1000
0100
1000
0100
,
0010
0001
1000
0001
1000
0001
0010
0000
0100
1000
0001
1000
0001
1000
0100
0010
,
0001
0100
0010
1000
0100
0010
0001
1000
0001
0010
0001
1000
0010
0100
0001
1000
,
0001
0100
0010
1000
0100
0010
0001
1000
0001
0010
0001
1000
0010
0100
0001
1000
,
0001
0010
0001
0100
0010
0100
0001
0010
0001
1000
0100
1000
0010
0100
0010
1000
,
0001
1000
0010
0100
0001
0010
0100
1000
0010
0100
0001
1000
0100
0010
0001
1000
,
0001
0100
0010
1000
0100
0010
0001
1000
0001
0010
0001
1000
0010
0100
0001
1000
,
0001
0100
0010
1000
0100
0010
0001
1000
0001
0010
0001
1000
0010
0100
0001
1000
,
0001
0010
0001
0100
0010
0100
0001
0010
0001
1000
0100
1000
0010
0100
0010
1000
,
0001
1000
0010
0100
0001
0010
0100
1000
0010
0100
0001
1000
0100
0010
0001
1000
,
0002
0003
000M
0000
0002
0003
2000
3000
0200
0300
0020
0030
0200
0300
2000
3000
,
0001
0010
0100
1000
0010
0100
0010
1000
0001
1000
0100
1000
0010
0100
0001
1000
,
0100
0010
0100
1000
0010
0100
0001
1000
0001
0010
0100
1000
0010
0100
0010
1000
,
0001
1000
0010
1000
0100
0010
0100
1000
0001
0100
0010
1000
0100
0010
0001
1000
,
0001
0010
0100
0010
0100
0010
0100
0010
0001
0100
0010
0100
0010
0100
0010
0100
,
0001
1000
0100
1000
0001
0100
0001
1000
0100
0010
0100
0010
0001
0100
0010
0100
,
0001
1000
0010
1000
0001
0100
0010
0100
0001
1000
0100
1000
0001
0100
0001
0100
,
0010
0000
0010
0000
1010
0000
1000
0100
1000
0001
0100
0001
1000
0000
0000
0000
,
0001
0100
0001
0100
0010
1000
0001
1000
0100
0010
0001
1000
0010
0100
0010
0100
,
0001
1000
0010
1000
0100
0010
0100
0010
0001
1000
0100
1000
0010
0100
0010
0100
,
0001
0010
0100
1000
0001
1000
0100
1000
0001
0100
0001
1000
0010
0100
0010
0100
,
0001
1000
0010
1000
0100
0010
0100
0010
0001
1000
0100
1000
0010
0100
0010
0100
,
0001
0010
0001
0010
0100
1000
0001
1000
0010
0100
0001
1000
0100
0010
0100
0010
,
0001
1000
0100
1000
0010
0100
0010
0100
0001
1000
0010
1000
0100
0010
0100
0010
,
0001
0100
0010
1000
0001
1000
0010
1000
0001
0010
0001
1000
0100
0010
0100
0010
,
0001
1000
0100
1000
0010
0100
0010
0100
0001
1000
0010
1000
0100
0010
0100
0010
,
0001
1000
0100
0010
0001
1000
0010
1000
0001
0100
0001
1000
0010
0100
0010
0100
,
0001
1000
0010
1000
0100
0010
0100
0010
0001
1000
0100
1000
0010
0100
0010
0100
,
0001
1000
0010
1000
0001
0010
0100
1000
0100
1000
0001
1000
0010
0100
0010
0100
,
0001
1000
0010
1000
0100
0010
0100
0010
0001
1000
0100
1000
0010
0100
0010
0100
,
0001
1000
0010
0100
0001
1000
0100
1000
0001
0010
0001
1000
0100
0010
0100
0010
,
0001
1000
0100
1000
0010
0100
0010
0100
0001
1000
0010
1000
0100
0010
0100
0010
,
0001
1000
0100
1000
0001
0100
0010
1000
0010
1000
0001
1000
0100
0010
0100
0010
,
0001
1000
0100
1000
0010
0100
0010
0100
0001
1000
0010
1000
0100
0010
0100
0010
,
0002
0000
0000
0000
,
0000
0000
0000
0000
,
0000
0000
0000
0000
,
0000
0000
0000
0000
,
0003
0000
0000
0000
;
