#TITLE:Sandstorm;
#SUBTITLE:;
#ARTIST:DaRude;
#TITLETRANSLIT:;
#SUBTITLETRANSLIT:;
#ARTISTTRANSLIT:;
#CREDIT:;
#BANNER:../ban - Jawn2.png;
#BACKGROUND:../Jawn2 - bg.png;
#LYRICSPATH:;
#CDTITLE:../CDa.png;
#MUSIC:Sandstorm.ogg;
#OFFSET:0.035;
#SAMPLESTART:36.139;
#SAMPLELENGTH:20.200;
#SELECTABLE:YES;
#BPMS:0.000=272.128;
#STOPS:;
#BGCHANGES:;
// cache tags:
#FIRSTBEAT:4.000;
#LASTBEAT:1004.000;
#SONGFILENAME:Songs/Jimmy Jawns 2/Sandstorm - [Aoreo]/Sandstorm.sm;
#HASMUSIC:1;
#HASBANNER:1;
#MUSICLENGTH:224.571;
// end cache tags

//---------------dance-single - Bitch Relevant----------------
#NOTES:
     dance-single:
     Bitch Relevant:
     Challenge:
     17:
     0.933,1.000,0.049,0.085,0.178,1436.000,11.000,19.000,0.000,0.000:
0000
0000
0000
0000
,
2002
0000
0000
0000
,
0000
0000
0000
0000
,
0000
0000
0000
0000
,
0000
0000
0000
0000
,
0000
0000
0000
0000
,
3003
0000
0000
1000
,
0100
0000
0000
0100
0000
0000
0100
0000
,
0100
0000
0000
0100
0000
0000
1000
0000
,
0100
0000
0000
0100
0000
0000
0100
0000
,
0100
0000
0000
0100
0000
0000
0010
0000
,
0010
0000
0000
0010
0000
0000
0001
0000
,
0001
0000
0000
0001
0000
0000
1000
0000
,
0100
0000
0000
0100
0000
0000
0100
0000
,
0100
0000
0000
0100
0000
0000
1000
0000
,
0100
0000
0000
0100
0000
0000
0100
0000
,
0100
0000
1001
0000
,
1000
1000
1000
1000
1000
0000
1000
0000
,
0100
0000
0000
0100
0000
0000
1000
0000
,
0010
0000
0000
0010
0000
0000
0100
0000
,
0001
0000
0002
0003
,
1000
1000
1000
1000
1000
0000
1000
0000
,
0100
0000
0000
0100
0000
0000
1000
0000
,
0100
0000
0000
0100
0000
0000
1000
0000
,
0100
0000
0000
0100
0000
0000
1000
0000
,
0100
0100
0100
0100
0100
0000
0000
0000
,
0100
0100
0100
0100
0100
0000
0000
0000
,
0100
0100
0100
0100
0100
0000
0000
0000
,
0100
0100
0100
0100
0100
0000
0000
0000
,
0100
0100
0100
0100
0100
0100
0100
0100
,
0100
0100
0100
0100
0100
0100
0100
0100
,
0100
1000
0001
0100
0001
1000
0010
0100
0010
1000
0001
1000
0100
0010
0001
1000
,
0001
0100
0010
0100
0001
1000
0001
0010
0100
1000
0001
1000
0010
0100
0001
1000
,
0100
0100
0100
0100
0100
0000
0010
0010
,
0010
0010
0010
0010
0010
0000
1000
1000
,
1000
1000
1000
1000
1000
0000
0100
0100
,
0100
0100
0100
0100
0100
0000
0010
0010
,
0001
0001
0001
0001
0001
0000
0100
0100
,
0100
0100
0100
0100
0100
0000
0010
0010
,
1000
1000
1000
1000
1000
0000
1000
1000
,
1000
1000
1000
1000
1000
0000
0010
0010
,
1000
1000
1000
1000
1000
0000
1000
1000
,
1000
1000
1000
1000
1000
0000
0001
0001
,
0001
0001
0001
0001
0001
0000
0010
0010
,
0010
0010
0010
0010
0010
0000
0100
0100
,
1000
1000
1000
1000
1000
0000
1000
1000
,
1000
1000
1000
1000
1000
0000
0010
0010
,
1000
1000
1000
1000
1000
0000
1000
1000
,
1000
1000
1000
1000
1000
0000
0001
0001
,
0100
0100
0100
0100
0100
0000
0100
0100
,
0100
0100
0100
0100
0100
0000
0001
0001
,
0001
0001
0001
0001
0001
0000
0010
0010
,
0010
0010
0010
0010
0010
0000
0100
0100
,
1000
1000
1000
1000
1000
0000
1000
1000
,
1000
1000
1000
1000
1000
0000
0010
0010
,
1000
1000
1000
1000
1000
0000
1000
1000
,
1000
1000
1000
1000
1000
0000
0100
0100
,
1000
1000
1000
1000
1000
0000
1000
1000
,
1000
1000
1000
1000
1000
0000
0010
0010
,
0010
0010
0010
0010
0010
0000
0010
0010
,
0010
0010
0010
0010
0010
0000
0100
0100
,
0001
0001
0001
0001
0001
0000
0001
0001
,
0001
0001
0001
0001
0001
0000
0100
0100
,
0001
0001
0001
0001
0001
0000
0001
0001
,
0001
0001
0001
0001
0001
0000
0100
0100
,
0010
0010
0010
0000
0010
0000
1000
1000
,
1000
1000
1000
0000
1000
0000
0001
0000
,
1000
1000
1000
0000
1000
0000
1000
1000
,
1000
1000
1000
0000
0100
0000
0100
0000
,
0010
0010
0010
0000
0010
0000
0001
0001
,
0001
0001
0001
0000
0001
0000
0100
0100
,
0100
0100
0100
0000
0100
0000
0100
0100
,
0100
0100
0100
0000
0100
0000
0010
0010
,
1000
1000
1000
0000
1000
0000
1000
1000
,
1000
1000
1000
0000
1000
0000
0010
0000
,
1000
1000
1000
0000
1000
0000
1000
1000
,
1000
1000
1000
0000
0010
0000
0010
0000
,
0100
0100
0100
0000
0100
0000
0100
0100
,
0100
0100
0100
0000
0100
0000
0001
0001
,
0001
0001
0001
0000
0001
0000
0001
0001
,
0001
0001
0001
0000
0001
0000
0100
0100
,
0010
0010
0010
0000
0010
0000
0010
0010
,
0010
0010
0010
0000
0100
0000
0100
0000
,
0001
0001
0001
0000
0001
0000
0001
0001
,
0001
0001
0001
0000
0010
0000
0010
0000
,
0100
0100
0100
0000
0100
0000
0100
0100
,
0100
0100
0100
0000
1000
0000
1000
0000
,
0001
0001
0001
0000
0001
0000
0001
0001
,
0001
0001
0001
0000
0100
0000
0100
0000
,
0010
0010
0010
0000
1000
0000
1000
0000
,
0010
0010
0010
0000
1000
0000
1000
0000
,
0010
0010
0010
0000
1000
0000
1000
0000
,
0010
0010
0010
0000
1000
0000
1000
0000
,
0001
0001
0100
0000
0001
0001
0100
0000
,
0001
0001
0100
0000
0001
0001
0100
0000
,
0001
1000
0001
0100
0010
1000
0010
0100
0001
1000
0100
0010
0001
1000
0001
0100
,
0001
1000
0100
0010
0100
1000
0001
1000
0010
0100
0001
1000
0100
0010
0001
1000
,
0002
0000
0000
0000
,
0000
0000
0000
0000
,
0000
0000
0000
0000
,
0003
0000
0000
1000
,
0100
0000
0000
0100
0000
0000
0100
0000
,
0100
0000
0000
0100
0000
0000
1000
0000
,
0100
0000
0000
0100
0000
0000
0100
0000
,
0100
0000
0000
0100
0000
0000
1000
0000
,
2200
3300
0000
0000
0000
0000
0100
0000
0000
0000
0000
0000
0100
0000
0000
0000
,
0100
0000
0000
0100
0000
0000
1000
0000
,
2200
3300
0000
0000
0000
0000
0100
0000
0000
0000
0000
0000
2200
3300
0000
0000
,
0010
0000
0000
0000
0000
0000
0010
0000
2020
3030
0000
0000
0100
0000
0000
0000
,
2002
3003
0000
0000
0000
0000
0001
0000
0000
0000
0000
0000
0001
0000
0000
0000
,
0001
0000
0000
0001
0000
0000
0010
0000
,
0001
0000
0000
0001
0000
0000
0001
0000
,
0001
0000
0000
0001
0000
0000
0100
0000
,
0220
0330
0000
0000
0000
0000
0010
0000
0000
0000
0000
0000
0010
0000
0000
0000
,
0010
0000
0000
0010
0000
0000
1000
0000
,
0100
0000
0000
0100
0000
0000
1000
0000
,
0010
0000
0000
0010
0000
0000
1000
0000
,
0100
0000
0000
0100
0000
0000
0100
0000
,
0100
0000
0000
0100
0000
0000
1000
0000
,
0100
0000
0000
0100
0000
0000
0100
0000
,
0100
0000
0000
0100
0000
0000
1000
0000
,
0100
0000
0000
0100
0000
0000
0100
0000
,
0100
0000
0000
0100
0000
0000
1000
0000
,
0100
0000
0000
0100
0000
0000
1000
0000
,
0010
0000
0000
0010
0000
0000
1000
0000
,
0100
0000
0000
0100
0000
0000
0100
0000
,
0100
0000
0000
0100
0000
0000
1000
0000
,
0100
0000
0000
0100
0000
0000
0100
0000
,
0100
0000
0000
0100
1100
0000
1001
0000
,
0001
0001
0001
0001
0001
0000
0001
0000
,
0010
0000
0000
0010
0000
0000
0010
0000
,
0010
0000
0000
0010
0000
0000
0010
0000
,
0010
0000
0000
0010
0200
0000
1300
0000
,
0100
0100
0100
0100
0100
0000
1000
0000
,
0100
0000
0000
0100
0000
0000
0100
0000
,
0100
0000
0000
0100
0000
0000
0100
0000
,
0100
0000
0000
0100
0000
0000
0100
0000
,
2001
0001
0001
0001
3001
0000
1000
0000
,
0100
0000
0000
0100
0000
0000
0100
0000
,
0100
0000
0000
0100
0000
0000
0100
0000
,
0100
0000
0000
0000
0010
0000
0001
1000
,
1000
1000
1000
1000
1000
0000
1000
0000
,
0100
0000
0000
0100
0000
0000
0100
0000
,
0100
0000
0000
0100
0000
0000
0100
0000
,
0100
0000
0000
0100
1000
0000
0001
0000
,
0100
0100
0100
0100
0100
0000
0001
0000
,
0010
0000
0000
0010
0000
0000
0010
0000
,
0100
0100
0100
0100
0100
0000
1000
0000
,
0010
0000
0000
0010
0000
0000
0010
0000
,
0100
0100
0100
0100
0100
0000
0001
0000
,
0010
0000
0000
0010
0000
0000
0010
0000
,
0100
0100
0100
0100
0100
0000
1000
0000
,
0010
0000
0000
0010
0000
0000
1000
0000
,
0100
0100
0100
0100
0100
0000
0000
0000
,
0100
0100
0100
0100
0100
0000
0000
0000
,
0100
0100
0100
0100
0100
0000
0000
0000
,
0100
0100
0100
0100
0100
0000
0000
0000
,
0100
0100
0100
0100
0100
0000
0000
0000
,
0100
0100
0100
0100
0100
0000
0000
0000
,
0100
0100
0100
0100
0100
0000
0000
0000
,
0100
0100
0100
0100
0100
0000
0000
0000
,
0100
0100
0100
0100
0100
0100
0100
0100
,
0100
0100
0100
0100
0100
0100
0100
0100
,
0100
0100
0100
0100
0100
0100
0100
0100
,
0100
0100
0100
0100
0100
0100
0100
0100
,
0100
0100
0100
0100
0100
0100
0100
0100
,
0100
0100
0100
0100
0100
0100
0100
0100
,
1000
0001
1000
0010
0100
0001
1000
0100
0010
0001
1000
0001
0100
0010
1000
0001
,
0010
0100
0010
0001
1000
0001
0100
0010
1000
0010
0100
0001
1000
0100
0010
0001
,
1000
1000
1000
1000
1000
0000
0001
0001
,
0001
0001
0001
0001
0001
0000
0100
0100
,
0100
0100
0100
0100
0100
0000
0001
0001
,
0001
0001
0001
0001
0001
0000
1000
1000
,
0100
0100
0100
0100
0100
0000
0010
0010
,
0010
0010
0010
0010
0010
0000
0001
0001
,
1000
1000
1000
1000
1000
0000
1000
1000
,
1000
1000
1000
1000
1000
0000
0001
0001
,
0100
0100
0100
0100
0100
0000
0001
0001
,
0001
0001
0001
0001
0001
0000
1000
1000
,
1000
1000
1000
1000
1000
0000
0001
0001
,
0001
0001
0001
0001
0001
0000
0100
0100
,
0001
0001
0001
0001
0001
0000
1000
1000
,
1000
1000
1000
1000
1000
0000
0010
0010
,
0100
0100
0100
0100
0100
0000
0001
0001
,
0001
0001
0001
0001
0001
0000
1000
1000
,
0100
0100
0100
0100
0100
0000
1000
1000
,
1000
1000
1000
1000
1000
0000
0001
0001
,
0001
0001
0001
0001
0001
0000
0100
0100
,
0100
0100
0100
0100
0100
0000
0001
0001
,
1000
1000
1000
1000
1000
0000
0001
0001
,
0001
0001
0001
0001
0001
0000
1000
1000
,
0010
0010
0010
0010
0010
0000
1000
1000
,
1000
1000
1000
1000
1000
0000
0010
0010
,
0100
0100
0100
0100
0100
0000
0001
0001
,
0001
0001
0001
0001
0001
0000
0100
0100
,
0100
0100
0100
0100
0100
0000
0010
0010
,
0010
0010
0010
0010
0010
0000
1000
1000
,
0001
0001
0001
0001
0001
0000
0100
0100
,
0100
0100
0100
0100
0100
0000
0001
0001
,
1000
1000
1000
1000
1000
0000
0010
0010
,
0010
0010
0010
0010
0010
0000
1000
1000
,
0100
0100
0100
0000
0100
0000
1000
1000
,
1000
1000
1000
0000
0010
0000
0010
0000
,
0100
0100
0100
0000
0100
0000
0001
0001
,
0001
0001
0001
0000
0010
0000
0010
0000
,
0100
0100
0100
0000
0100
0000
1000
1000
,
1000
1000
1000
0000
0010
0000
0010
0000
,
0100
0100
0100
0000
0100
0000
0001
0001
,
0001
0001
0001
0000
1000
0000
1000
0000
,
0010
0010
0010
0000
0100
0000
0100
0000
,
0001
0001
0001
0000
0010
0000
0010
0000
,
0100
0100
0100
0000
1000
0000
1000
0000
,
0010
0010
0010
0000
0100
0000
0100
0000
,
0001
0001
0100
0000
0001
0001
0100
0000
,
0001
0001
0100
0000
0001
0001
0100
0000
,
0001
1000
0001
0100
0010
1000
0010
0100
0001
1000
0100
0010
0001
1000
0001
0100
,
0010
0100
0001
1000
0100
0010
0100
1000
0001
0100
0010
1000
0001
0100
0001
1000
,
0001
0001
0001
0001
0001
0000
1000
1000
,
1000
1000
1000
1000
1000
0000
0010
0010
,
0010
0010
0010
0010
0010
0000
1000
1000
,
1000
1000
1000
1000
1000
0000
0001
0001
,
0010
0010
0010
0010
0010
0000
0100
0100
,
0100
0100
0100
0100
0100
0000
1000
1000
,
0001
0001
0001
0001
0001
0000
0001
0001
,
0001
0001
0001
0001
0001
0000
1000
1000
,
0010
0010
0010
0010
0010
0000
1000
1000
,
1000
1000
1000
1000
1000
0000
0001
0001
,
0001
0001
0001
0001
0001
0000
1000
1000
,
1000
1000
1000
1000
1000
0000
0010
0010
,
1000
1000
1000
1000
1000
0000
0001
0001
,
0001
0001
0001
0001
0001
0000
0100
0100
,
0010
0010
0010
0010
0010
0000
1000
1000
,
1000
1000
1000
1000
1000
0000
0001
0001
,
0010
0010
0010
0010
0010
0000
0001
0001
,
0001
0001
0001
0001
0001
0000
1000
1000
,
1000
1000
1000
1000
1000
0000
0010
0010
,
0010
0010
0010
0010
0010
0000
1000
1000
,
0001
0001
0001
0001
0001
0000
1000
1000
,
1000
1000
1000
1000
1000
0000
0001
0001
,
0100
0100
0100
0100
0100
0000
0001
0001
,
0001
0001
0001
0001
0001
0000
0100
0100
,
0010
0010
0010
0010
0010
0000
1000
1000
,
1000
1000
1000
1000
1000
0000
0010
0010
,
0010
0010
0010
0010
0010
0000
0100
0100
,
0100
0100
0100
0100
0100
0000
0001
0001
,
0100
0100
0100
0100
0100
0100
0100
0100
,
0100
0100
0100
0100
0100
0100
0100
0100
,
0001
1000
0001
0100
0010
0100
0001
1000
0100
0010
0001
1000
0001
0100
0010
0100
,
0001
1000
0100
0010
0001
1000
0100
1000
0001
0100
0010
0100
0001
1000
0100
0010
,
0002
0000
0000
0000
,
0000
0000
0000
0000
,
0003
0000
0000
0000
;

//---------------dance-single - jacks (no stream)----------------
#NOTES:
     dance-single:
     jacks (no stream):
     Hard:
     15:
     0.877,0.950,0.049,0.085,0.000,1348.000,11.000,19.000,0.000,0.000:
0000
0000
0000
0000
,
2002
0000
0000
0000
,
0000
0000
0000
0000
,
0000
0000
0000
0000
,
0000
0000
0000
0000
,
0000
0000
0000
0000
,
3003
0000
0000
1000
,
0100
0000
0000
0100
0000
0000
0100
0000
,
0100
0000
0000
0100
0000
0000
1000
0000
,
0100
0000
0000
0100
0000
0000
0100
0000
,
0100
0000
0000
0100
0000
0000
0010
0000
,
0010
0000
0000
0010
0000
0000
0001
0000
,
0001
0000
0000
0001
0000
0000
1000
0000
,
0100
0000
0000
0100
0000
0000
0100
0000
,
0100
0000
0000
0100
0000
0000
1000
0000
,
0100
0000
0000
0100
0000
0000
0100
0000
,
0100
0000
1001
0000
,
1000
1000
1000
1000
1000
0000
1000
0000
,
0100
0000
0000
0100
0000
0000
1000
0000
,
0010
0000
0000
0010
0000
0000
0100
0000
,
0001
0000
0002
0003
,
1000
1000
1000
1000
1000
0000
1000
0000
,
0100
0000
0000
0100
0000
0000
1000
0000
,
0100
0000
0000
0100
0000
0000
1000
0000
,
0100
0000
0000
0100
0000
0000
1000
0000
,
0100
0100
0100
0100
0100
0000
0000
0000
,
0100
0100
0100
0100
0100
0000
0000
0000
,
0100
0100
0100
0100
0100
0000
0000
0000
,
0100
0100
0100
0100
0100
0000
0000
0000
,
0100
0100
0100
0100
0100
0100
0100
0100
,
0100
0100
0100
0100
0100
0100
0100
0100
,
0100
0100
0100
0100
0100
0100
0100
0100
,
0100
0100
0100
0100
0100
0100
0100
0100
,
1000
1000
1000
1000
1000
0000
0010
0010
,
0010
0010
0010
0010
0010
0000
1000
1000
,
1000
1000
1000
1000
1000
0000
0100
0100
,
0100
0100
0100
0100
0100
0000
0010
0010
,
0001
0001
0001
0001
0001
0000
0100
0100
,
0100
0100
0100
0100
0100
0000
0010
0010
,
1000
1000
1000
1000
1000
0000
1000
1000
,
1000
1000
1000
1000
1000
0000
0010
0010
,
1000
1000
1000
1000
1000
0000
1000
1000
,
1000
1000
1000
1000
1000
0000
0001
0001
,
0001
0001
0001
0001
0001
0000
0010
0010
,
0010
0010
0010
0010
0010
0000
0100
0100
,
1000
1000
1000
1000
1000
0000
1000
1000
,
1000
1000
1000
1000
1000
0000
0010
0010
,
1000
1000
1000
1000
1000
0000
1000
1000
,
1000
1000
1000
1000
1000
0000
0001
0001
,
0100
0100
0100
0100
0100
0000
0100
0100
,
0100
0100
0100
0100
0100
0000
0001
0001
,
0001
0001
0001
0001
0001
0000
0010
0010
,
0010
0010
0010
0010
0010
0000
0100
0100
,
1000
1000
1000
1000
1000
0000
1000
1000
,
1000
1000
1000
1000
1000
0000
0010
0010
,
1000
1000
1000
1000
1000
0000
1000
1000
,
1000
1000
1000
1000
1000
0000
0100
0100
,
1000
1000
1000
1000
1000
0000
1000
1000
,
1000
1000
1000
1000
1000
0000
0010
0010
,
0010
0010
0010
0010
0010
0000
0010
0010
,
0010
0010
0010
0010
0010
0000
0100
0100
,
0001
0001
0001
0001
0001
0000
0001
0001
,
0001
0001
0001
0001
0001
0000
0100
0100
,
0001
0001
0001
0001
0001
0000
0001
0001
,
0001
0001
0001
0001
0001
0000
0100
0100
,
0010
0010
0010
0000
0010
0000
1000
1000
,
1000
1000
1000
0000
1000
0000
0001
0000
,
1000
1000
1000
0000
1000
0000
1000
1000
,
1000
1000
1000
0000
0100
0000
0100
0000
,
0010
0010
0010
0000
0010
0000
0001
0001
,
0001
0001
0001
0000
0001
0000
0100
0100
,
0100
0100
0100
0000
0100
0000
0100
0100
,
0100
0100
0100
0000
0100
0000
0010
0010
,
1000
1000
1000
0000
1000
0000
1000
1000
,
1000
1000
1000
0000
1000
0000
0010
0000
,
1000
1000
1000
0000
1000
0000
1000
1000
,
1000
1000
1000
0000
0010
0000
0010
0000
,
0100
0100
0100
0000
0100
0000
0100
0100
,
0100
0100
0100
0000
0100
0000
0001
0001
,
0001
0001
0001
0000
0001
0000
0001
0001
,
0001
0001
0001
0000
0001
0000
0100
0100
,
0010
0010
0010
0000
0010
0000
0010
0010
,
0010
0010
0010
0000
0100
0000
0100
0000
,
0001
0001
0001
0000
0001
0000
0001
0001
,
0001
0001
0001
0000
0010
0000
0010
0000
,
0100
0100
0100
0000
0100
0000
0100
0100
,
0100
0100
0100
0000
1000
0000
1000
0000
,
0001
0001
0001
0000
0001
0000
0001
0001
,
0001
0001
0001
0000
0100
0000
0100
0000
,
0010
0010
0010
0000
1000
0000
1000
0000
,
0010
0010
0010
0000
1000
0000
1000
0000
,
0010
0010
0010
0000
1000
0000
1000
0000
,
0010
0010
0010
0000
1000
0000
1000
0000
,
0001
0001
0100
0000
0001
0001
0100
0000
,
0001
0001
0100
0000
0001
0001
0100
0000
,
0010
0010
1000
0000
0010
0010
1000
0000
,
0010
0010
1000
0000
0010
0010
1000
0000
,
0002
0000
0000
0000
,
0000
0000
0000
0000
,
0000
0000
0000
0000
,
0003
0000
0000
1000
,
0100
0000
0000
0100
0000
0000
0100
0000
,
0100
0000
0000
0100
0000
0000
1000
0000
,
0100
0000
0000
0100
0000
0000
0100
0000
,
0100
0000
0000
0100
0000
0000
1000
0000
,
2200
3300
0000
0000
0000
0000
0100
0000
0000
0000
0000
0000
0100
0000
0000
0000
,
0100
0000
0000
0100
0000
0000
1000
0000
,
2200
3300
0000
0000
0000
0000
0100
0000
0000
0000
0000
0000
2200
3300
0000
0000
,
0010
0000
0000
0000
0000
0000
0010
0000
2020
3030
0000
0000
0100
0000
0000
0000
,
2002
3003
0000
0000
0000
0000
0001
0000
0000
0000
0000
0000
0001
0000
0000
0000
,
0001
0000
0000
0001
0000
0000
0010
0000
,
0001
0000
0000
0001
0000
0000
0001
0000
,
0001
0000
0000
0001
0000
0000
0100
0000
,
0220
0330
0000
0000
0000
0000
0010
0000
0000
0000
0000
0000
0010
0000
0000
0000
,
0010
0000
0000
0010
0000
0000
1000
0000
,
0100
0000
0000
0100
0000
0000
1000
0000
,
0010
0000
0000
0010
0000
0000
1000
0000
,
0100
0000
0000
0100
0000
0000
0100
0000
,
0100
0000
0000
0100
0000
0000
1000
0000
,
0100
0000
0000
0100
0000
0000
0100
0000
,
0100
0000
0000
0100
0000
0000
1000
0000
,
0100
0000
0000
0100
0000
0000
0100
0000
,
0100
0000
0000
0100
0000
0000
1000
0000
,
0100
0000
0000
0100
0000
0000
1000
0000
,
0010
0000
0000
0010
0000
0000
1000
0000
,
0100
0000
0000
0100
0000
0000
0100
0000
,
0100
0000
0000
0100
0000
0000
1000
0000
,
0100
0000
0000
0100
0000
0000
0100
0000
,
0100
0000
0000
0100
1100
0000
1001
0000
,
0001
0001
0001
0001
0001
0000
0001
0000
,
0010
0000
0000
0010
0000
0000
0010
0000
,
0010
0000
0000
0010
0000
0000
0010
0000
,
0010
0000
0000
0010
0200
0000
1300
0000
,
0100
0100
0100
0100
0100
0000
1000
0000
,
0100
0000
0000
0100
0000
0000
0100
0000
,
0100
0000
0000
0100
0000
0000
0100
0000
,
0100
0000
0000
0100
0000
0000
0100
0000
,
2001
0001
0001
0001
3001
0000
1000
0000
,
0100
0000
0000
0100
0000
0000
0100
0000
,
0100
0000
0000
0100
0000
0000
0100
0000
,
0100
0000
0000
0000
0010
0000
0001
1000
,
1000
1000
1000
1000
1000
0000
1000
0000
,
0100
0000
0000
0100
0000
0000
0100
0000
,
0100
0000
0000
0100
0000
0000
0100
0000
,
0100
0000
0000
0100
1000
0000
0001
0000
,
0100
0100
0100
0100
0100
0000
0001
0000
,
0010
0000
0000
0010
0000
0000
0010
0000
,
0100
0100
0100
0100
0100
0000
1000
0000
,
0010
0000
0000
0010
0000
0000
0010
0000
,
0100
0100
0100
0100
0100
0000
0001
0000
,
0010
0000
0000
0010
0000
0000
0010
0000
,
0100
0100
0100
0100
0100
0000
1000
0000
,
0010
0000
0000
0010
0000
0000
1000
0000
,
0100
0100
0100
0100
0100
0000
0000
0000
,
0100
0100
0100
0100
0100
0000
0000
0000
,
0100
0100
0100
0100
0100
0000
0000
0000
,
0100
0100
0100
0100
0100
0000
0000
0000
,
0100
0100
0100
0100
0100
0000
0000
0000
,
0100
0100
0100
0100
0100
0000
0000
0000
,
0100
0100
0100
0100
0100
0000
0000
0000
,
0100
0100
0100
0100
0100
0000
0000
0000
,
0100
0100
0100
0100
0100
0100
0100
0100
,
0100
0100
0100
0100
0100
0100
0100
0100
,
0100
0100
0100
0100
0100
0100
0100
0100
,
0100
0100
0100
0100
0100
0100
0100
0100
,
0100
0100
0100
0100
0100
0100
0100
0100
,
0100
0100
0100
0100
0100
0100
0100
0100
,
0100
0100
0100
0100
0100
0100
0100
0100
,
0100
0100
0100
0100
0100
0100
0100
0100
,
1000
1000
1000
1000
1000
0000
0001
0001
,
0001
0001
0001
0001
0001
0000
0100
0100
,
0100
0100
0100
0100
0100
0000
0001
0001
,
0001
0001
0001
0001
0001
0000
1000
1000
,
0100
0100
0100
0100
0100
0000
0010
0010
,
0010
0010
0010
0010
0010
0000
0001
0001
,
1000
1000
1000
1000
1000
0000
1000
1000
,
1000
1000
1000
1000
1000
0000
0001
0001
,
0100
0100
0100
0100
0100
0000
0001
0001
,
0001
0001
0001
0001
0001
0000
1000
1000
,
1000
1000
1000
1000
1000
0000
0001
0001
,
0001
0001
0001
0001
0001
0000
0100
0100
,
0001
0001
0001
0001
0001
0000
1000
1000
,
1000
1000
1000
1000
1000
0000
0010
0010
,
0100
0100
0100
0100
0100
0000
0001
0001
,
0001
0001
0001
0001
0001
0000
1000
1000
,
0100
0100
0100
0100
0100
0000
1000
1000
,
1000
1000
1000
1000
1000
0000
0001
0001
,
0001
0001
0001
0001
0001
0000
0100
0100
,
0100
0100
0100
0100
0100
0000
0001
0001
,
1000
1000
1000
1000
1000
0000
0001
0001
,
0001
0001
0001
0001
0001
0000
1000
1000
,
0010
0010
0010
0010
0010
0000
1000
1000
,
1000
1000
1000
1000
1000
0000
0010
0010
,
0100
0100
0100
0100
0100
0000
0001
0001
,
0001
0001
0001
0001
0001
0000
0100
0100
,
0100
0100
0100
0100
0100
0000
0010
0010
,
0010
0010
0010
0010
0010
0000
1000
1000
,
0001
0001
0001
0001
0001
0000
0100
0100
,
0100
0100
0100
0100
0100
0000
0001
0001
,
1000
1000
1000
1000
1000
0000
0010
0010
,
0010
0010
0010
0010
0010
0000
1000
1000
,
0100
0100
0100
0000
0100
0000
1000
1000
,
1000
1000
1000
0000
0010
0000
0010
0000
,
0100
0100
0100
0000
0100
0000
0001
0001
,
0001
0001
0001
0000
0010
0000
0010
0000
,
0100
0100
0100
0000
0100
0000
1000
1000
,
1000
1000
1000
0000
0010
0000
0010
0000
,
0100
0100
0100
0000
0100
0000
0001
0001
,
0001
0001
0001
0000
1000
0000
1000
0000
,
0010
0010
0010
0000
0100
0000
0100
0000
,
0001
0001
0001
0000
0010
0000
0010
0000
,
0100
0100
0100
0000
1000
0000
1000
0000
,
0010
0010
0010
0000
0100
0000
0100
0000
,
0001
0001
0100
0000
0001
0001
0100
0000
,
0001
0001
0100
0000
0001
0001
0100
0000
,
0010
0010
1000
0000
0010
0010
1000
0000
,
0010
0010
1000
0000
0010
0010
1000
0000
,
0001
0001
0001
0001
0001
0000
1000
1000
,
1000
1000
1000
1000
1000
0000
0010
0010
,
0010
0010
0010
0010
0010
0000
1000
1000
,
1000
1000
1000
1000
1000
0000
0001
0001
,
0010
0010
0010
0010
0010
0000
0100
0100
,
0100
0100
0100
0100
0100
0000
1000
1000
,
0001
0001
0001
0001
0001
0000
0001
0001
,
0001
0001
0001
0001
0001
0000
1000
1000
,
0010
0010
0010
0010
0010
0000
1000
1000
,
1000
1000
1000
1000
1000
0000
0001
0001
,
0001
0001
0001
0001
0001
0000
1000
1000
,
1000
1000
1000
1000
1000
0000
0010
0010
,
1000
1000
1000
1000
1000
0000
0001
0001
,
0001
0001
0001
0001
0001
0000
0100
0100
,
0010
0010
0010
0010
0010
0000
1000
1000
,
1000
1000
1000
1000
1000
0000
0001
0001
,
0010
0010
0010
0010
0010
0000
0001
0001
,
0001
0001
0001
0001
0001
0000
1000
1000
,
1000
1000
1000
1000
1000
0000
0010
0010
,
0010
0010
0010
0010
0010
0000
1000
1000
,
0001
0001
0001
0001
0001
0000
1000
1000
,
1000
1000
1000
1000
1000
0000
0001
0001
,
0100
0100
0100
0100
0100
0000
0001
0001
,
0001
0001
0001
0001
0001
0000
0100
0100
,
0010
0010
0010
0010
0010
0000
1000
1000
,
1000
1000
1000
1000
1000
0000
0010
0010
,
0010
0010
0010
0010
0010
0000
1000
1000
,
1000
1000
1000
1000
1000
0000
0001
0001
,
0100
0100
0100
0100
0100
0100
0100
0100
,
0100
0100
0100
0100
0100
0100
0100
0100
,
0100
0100
0100
0100
0100
0100
0100
0100
,
0100
0100
0100
0100
0100
0100
0100
0100
,
0200
0000
0000
0000
,
0000
0000
0000
0000
,
0300
0000
0000
0000
;

//---------------dance-single - no jacks (stream)----------------
#NOTES:
     dance-single:
     no jacks (stream):
     Medium:
     17:
     0.945,1.000,0.036,0.076,0.214,1461.000,8.000,17.000,0.000,0.000:
0000
0000
0000
0000
,
2002
0000
0000
0000
,
0000
0000
0000
0000
,
0000
0000
0000
0000
,
0000
0000
0000
0000
,
0000
0000
0000
0000
,
3003
0000
0000
1000
,
0100
0000
0000
1000
0000
0000
0010
0000
,
0100
0000
0000
0001
0000
0000
0010
0000
,
0001
0000
0000
0100
0000
0000
0001
0000
,
0010
0000
0000
0100
0000
0000
1000
0000
,
0010
0000
0000
0100
0000
0000
0001
0000
,
0010
0000
0000
0100
0000
0000
1000
0000
,
0100
0000
0000
1000
0000
0000
0010
0000
,
0100
0000
0000
0001
0000
0000
1000
0000
,
0100
0000
0000
1000
0000
0000
0010
0000
,
0100
0000
0101
0000
,
0001
0100
0001
0010
0100
0000
1000
0000
,
0010
0000
0000
0100
0000
0000
0010
0000
,
1000
0000
0000
0100
0000
0000
0010
0000
,
0001
0000
2000
3000
,
0001
1000
0001
0010
0100
0000
1000
0000
,
0100
0000
0000
1000
0000
0000
0010
0000
,
0100
0000
0000
0001
0000
0000
0010
0000
,
0100
0000
0000
1000
0000
0000
0100
0000
,
1000
0100
1000
0010
0100
0000
0000
0000
,
0001
0100
0010
0100
0001
0000
0000
0000
,
0010
0100
1000
0001
1000
0000
0000
0000
,
0001
0100
0001
0010
0100
0000
0000
0000
,
1000
0100
1000
0010
0100
0001
1000
0100
,
1000
0010
0100
0001
0010
0100
1000
0010
,
1000
0001
1000
0100
0010
0001
1000
0001
0100
0010
0100
0001
1000
0100
0010
0100
,
1000
0001
0100
0010
1000
0001
1000
0100
0010
0001
0100
0001
1000
0100
1000
0001
,
0100
0001
0010
0100
1000
0000
0001
0100
,
0001
0010
0100
1000
0010
0000
1000
0100
,
1000
0010
0100
0001
0010
0000
0100
1000
,
0001
1000
0010
0100
0010
0000
1000
0100
,
1000
0010
0100
0001
0010
0000
0100
1000
,
0010
1000
0001
0100
0010
0000
1000
0100
,
1000
0010
1000
0001
0100
0000
0001
1000
,
0001
0010
0100
1000
0010
0000
1000
0010
,
1000
0100
0010
0001
0100
0000
0001
1000
,
0001
0010
0100
1000
0010
0000
1000
0100
,
1000
0010
0100
0001
0010
0000
0100
1000
,
0001
1000
0010
0100
0001
0000
1000
0100
,
1000
0010
0100
0001
0010
0000
0100
1000
,
0001
0100
0001
0010
0100
0000
1000
0010
,
0100
0010
1000
0100
0010
0000
0001
0100
,
0001
0010
0100
1000
0010
0000
1000
0001
,
0100
0010
0100
0001
0010
0000
0100
1000
,
0010
0100
0010
1000
0100
0000
1000
0001
,
1000
0010
0100
0001
0010
0000
0100
1000
,
0001
1000
0010
0100
0010
0000
1000
0100
,
0010
0100
1000
0010
0100
0000
0001
0100
,
0001
0010
0100
1000
0010
0000
1000
0010
,
0100
0010
1000
0001
0100
0000
0010
1000
,
0100
0010
0001
1000
0001
0000
0100
0010
,
1000
0001
0100
0001
0010
0000
0100
1000
,
0010
1000
0100
0010
0001
0000
1000
0010
,
1000
0100
0010
0001
0100
0000
0001
0100
,
0001
0010
0100
1000
0001
0000
1000
0100
,
1000
0010
0100
0010
1000
0000
0001
0100
,
0001
0010
0100
1000
0010
0000
1000
0100
,
1000
0010
0100
0001
0100
0000
0001
0100
,
0001
0010
0100
1000
0001
0000
1000
0100
,
1000
0010
0100
0000
0001
0000
1000
0100
,
1000
0010
0100
0000
0001
0000
0010
0000
,
0100
1000
0010
0000
0100
0000
0001
1000
,
0001
0010
0100
0000
1000
0000
0010
0000
,
0100
0001
0100
0000
0001
0000
0010
0100
,
1000
0001
1000
0000
0010
0000
0100
0001
,
1000
0100
0010
0000
0001
0000
1000
0100
,
1000
0010
0100
0000
0001
0000
0100
0010
,
0100
0001
0010
0000
0100
0000
1000
0100
,
1000
0010
0100
0000
0001
0000
0010
0000
,
0100
1000
0010
0000
1000
0000
0001
1000
,
0001
0010
0100
0000
1000
0000
0010
0000
,
0100
0010
0100
0000
0001
0000
0010
0100
,
1000
0010
1000
0000
0001
0000
1000
0100
,
1000
0010
0100
0000
0001
0000
0010
0100
,
1000
0010
1000
0000
0001
0000
0100
0010
,
1000
0100
0010
0000
0001
0000
1000
0100
,
1000
0010
0100
0000
0001
0000
1000
0000
,
0001
0100
0001
0000
0010
0000
0100
1000
,
0010
0100
0010
0000
1000
0000
0100
0000
,
0010
0001
1000
0000
0001
0000
1000
0100
,
1000
0010
0100
0000
0001
0000
1000
0000
,
0001
0010
0100
0000
1000
0000
0010
1000
,
0100
0010
0001
0000
1000
0000
0100
0000
,
1000
0001
0100
0000
0001
0000
0010
0000
,
0100
1000
0010
0000
1000
0000
0100
0000
,
1000
0001
1000
0000
0001
0000
0100
0000
,
0010
1000
0100
0000
0010
0000
0001
0000
,
1000
0100
0010
0000
0001
0100
0010
0000
,
1000
0100
0010
0000
0001
0100
0010
0000
,
1000
0001
1000
0010
0100
0001
0100
0010
1000
0001
1000
0100
0010
0001
1000
0001
,
0100
0010
0100
0001
1000
0100
0010
0100
1000
0001
0100
0010
1000
0010
0100
0001
,
2000
0000
0000
0000
,
0000
0000
0000
0000
,
0000
0000
0000
0000
,
3000
0000
0000
0001
,
0100
0000
0000
0001
0000
0000
0010
0000
,
0100
0000
0000
1000
0000
0000
0010
0000
,
1000
0000
0000
0100
0000
0000
1000
0000
,
0010
0000
0000
0100
0000
0000
0001
0000
,
0022
0033
0000
0000
0000
0000
0010
0000
0000
0000
0000
0000
0100
0000
0000
0000
,
1000
0000
0000
0010
0000
0000
1000
0000
,
2002
3003
0000
0000
0000
0000
0001
0000
0000
0000
0000
0000
0202
0303
0000
0000
,
0100
0000
0000
0000
0000
0000
0010
0000
2000
3000
0000
0000
0100
0000
0000
0000
,
0220
0330
0000
0000
0000
0000
0010
0000
0000
0000
0000
0000
0001
0000
0000
0000
,
0100
0000
0000
0001
0000
0000
1000
0000
,
0100
0000
0000
1000
0000
0000
0010
0000
,
0100
0000
0000
0001
0000
0000
0010
0000
,
0220
0330
0000
0000
0000
0000
0100
0000
0000
0000
0000
0000
1000
0000
0000
0000
,
0010
0000
0000
0100
0000
0000
0010
0000
,
1000
0000
0000
0100
0000
0000
0010
0000
,
0001
0000
0000
1000
0000
0000
0100
0000
,
1000
0000
0000
0010
0000
0000
0100
0000
,
0001
0000
0000
0010
0000
0000
0100
0000
,
1000
0000
0000
0001
0000
0000
1000
0000
,
0100
0000
0000
1000
0000
0000
0010
0000
,
0100
0000
0000
0001
0000
0000
0010
0000
,
0100
0000
0000
0010
0000
0000
0001
0000
,
0100
0000
0000
0010
0000
0000
1000
0000
,
0100
0000
0000
1000
0000
0000
0001
0000
,
0100
0000
0000
0001
0000
0000
0010
0000
,
0100
0000
0000
1000
0000
0000
0001
0000
,
0100
0000
0000
0010
0000
0000
0100
0000
,
0001
0000
0000
1000
0001
0000
0101
0000
,
0100
0001
0010
0100
1000
0000
0001
0000
,
0010
0000
0000
0100
0000
0000
1000
0000
,
0010
0000
0000
1000
0000
0000
0100
0000
,
1000
0000
0000
0010
0100
0000
0001
0000
,
0010
0100
0010
0100
1000
0000
0010
0000
,
0100
0000
0000
0001
0000
0000
0010
0000
,
0001
0000
0000
1000
0000
0000
0100
0000
,
1000
0000
0000
0010
0000
0000
0100
0000
,
0002
0103
0010
1000
0100
0000
0010
0000
,
0001
0000
0000
0100
0000
0000
0001
0000
,
1000
0000
0000
0100
0000
0000
1000
0000
,
0010
0000
0000
0000
0100
0000
0001
1000
,
0100
1000
0010
0100
0001
0000
0010
0000
,
0100
0000
0000
1000
0000
0000
0100
0000
,
1000
0000
0000
0010
0000
0000
0100
0000
,
0001
0000
0000
0010
0100
0000
1000
0000
,
0001
0100
0001
0010
0100
0000
1000
0000
,
0010
0000
0000
0100
0000
0000
0010
0000
,
1000
0100
0010
0001
0100
0000
0001
0000
,
1000
0000
0000
0100
0000
0000
1000
0000
,
0010
0100
0010
1000
0100
0000
0010
0000
,
0001
0000
0000
0100
0000
0000
0001
0000
,
0010
0100
1000
0010
1000
0000
0001
0000
,
0100
0000
0000
0010
0000
0000
1000
0000
,
0100
0010
0001
1000
0001
0000
0000
0000
,
1000
0100
1000
0010
0100
0000
0000
0000
,
0001
0100
0001
0010
0100
0000
0000
0000
,
1000
0100
1000
0010
0100
0000
0000
0000
,
0001
1000
0001
0010
0100
0000
0000
0000
,
1000
0100
0010
0001
1000
0000
0000
0000
,
0001
0100
0001
0010
0100
0000
0000
0000
,
1000
0100
1000
0010
0100
0000
0000
0000
,
0001
1000
0001
0100
0010
0100
0001
1000
,
0100
0010
0001
0100
0001
1000
0100
0010
,
0100
1000
0010
0100
0001
1000
0100
0010
,
0001
0100
0001
1000
0100
1000
0010
1000
,
0001
0100
0010
0100
0001
0010
0100
1000
,
0001
0100
0010
0100
0001
1000
0100
0010
,
0001
1000
0001
0100
0010
1000
0010
0100
0001
1000
0100
0010
0100
1000
0001
0100
,
0010
1000
0010
0100
0001
1000
0100
0010
0001
0100
0001
1000
0100
1000
0001
0100
,
0001
1000
0100
0010
0001
0000
1000
0010
,
1000
0100
0010
0001
0100
0000
0001
0010
,
0001
0100
0010
1000
0100
0000
0010
0001
,
1000
0001
0100
0010
0100
0000
0001
0010
,
0001
0100
0010
1000
0100
0000
0010
0001
,
0100
0001
1000
0010
0100
0000
0001
0010
,
0001
0100
0001
1000
0010
0000
1000
0001
,
1000
0100
0010
0001
0100
0000
0001
0100
,
0001
0010
0100
1000
0010
0000
1000
0001
,
1000
0100
0010
0001
0100
0000
0001
0010
,
0001
0100
0010
1000
0100
0000
0010
0001
,
1000
0001
0100
0010
1000
0000
0001
0010
,
0001
0100
0010
1000
0100
0000
0010
0001
,
1000
0010
1000
0100
0010
0000
0001
0100
,
0010
0100
0001
0010
0100
0000
1000
0010
,
1000
0100
0010
0001
0100
0000
0001
1000
,
0010
0100
0010
1000
0100
0000
0010
0001
,
0100
0010
0100
0001
0010
0000
0001
1000
,
0001
0100
0010
1000
0100
0000
0010
0001
,
1000
0001
0100
0010
0100
0000
0001
0010
,
0100
0010
0001
0100
0010
0000
1000
0010
,
1000
0100
0010
0001
0100
0000
0001
0100
,
0010
0100
0001
1000
0010
0000
0100
0001
,
0010
0100
1000
0001
1000
0000
0010
0100
,
0001
1000
0010
1000
0100
0000
0010
0001
,
0100
0001
0010
0100
1000
0000
0001
0100
,
0001
0010
0100
1000
0010
0000
1000
0010
,
1000
0100
0010
0001
1000
0000
0001
0010
,
0001
0100
0010
0100
0001
1000
0100
0010
,
0001
0100
0001
1000
0010
0100
0010
1000
,
0001
1000
0001
0100
0010
1000
0001
1000
0100
0010
0001
1000
0001
0100
0010
0100
,
0001
1000
0100
0010
0100
1000
0001
1000
0010
0100
0001
1000
0100
0010
0001
1000
,
0001
1000
0100
0000
0010
0000
0001
0010
,
0001
0100
0010
0000
1000
0000
0100
0000
,
0010
0001
0100
0000
0010
0000
1000
0001
,
1000
0100
0010
0000
0001
0000
0100
0000
,
0010
1000
0010
0000
1000
0000
0100
0010
,
0001
1000
0001
0000
0100
0000
0010
1000
,
0001
0010
0100
0000
1000
0000
0001
0010
,
0001
0100
0010
0000
1000
0000
0010
0000
,
1000
0001
0100
0000
0001
0000
0010
0000
,
0100
1000
0010
0000
1000
0000
0100
0000
,
1000
0001
1000
0000
0001
0000
0100
0000
,
0010
1000
0100
0000
0010
0000
0001
0000
,
1000
0100
0010
0001
0100
0010
1000
0100
,
0010
0001
0100
0001
0010
0100
1000
0010
,
1000
0001
1000
0010
0100
0001
0100
0010
1000
0001
0010
0100
0010
0001
1000
0001
,
0100
0010
1000
0010
0100
0001
1000
0100
0010
0001
0100
0001
1000
0100
1000
0001
,
0100
0001
0010
0100
1000
0000
0001
0100
,
0001
0010
0100
1000
0010
0000
1000
0100
,
1000
0010
0100
0001
0010
0000
0100
1000
,
0001
1000
0010
0100
0010
0000
1000
0100
,
1000
0010
0100
0001
0010
0000
0100
1000
,
0010
1000
0001
0100
0010
0000
1000
0100
,
1000
0010
1000
0001
0100
0000
0001
1000
,
0001
0010
0100
1000
0010
0000
1000
0010
,
1000
0100
0010
0001
0100
0000
0001
1000
,
0001
0010
0100
1000
0010
0000
1000
0100
,
1000
0010
0100
0001
0010
0000
0100
1000
,
0001
1000
0010
0100
0001
0000
1000
0100
,
1000
0010
0100
0001
0010
0000
0100
1000
,
0001
0100
0001
0010
0100
0000
1000
0010
,
0100
0010
1000
0100
0010
0000
0001
0100
,
0001
0010
0100
1000
0010
0000
1000
0001
,
0100
0010
0100
0001
0010
0000
0100
1000
,
0010
0100
0010
1000
0100
0000
1000
0001
,
1000
0010
0100
0001
0010
0000
0100
1000
,
0001
1000
0010
0100
0010
0000
1000
0100
,
0010
0100
1000
0010
0100
0000
0001
0100
,
0001
0010
0100
1000
0010
0000
1000
0010
,
0100
0010
1000
0001
0100
0000
0010
1000
,
0100
0010
0001
1000
0001
0000
0100
0010
,
1000
0001
0100
0001
0010
0000
0100
1000
,
0010
1000
0100
0010
0001
0000
1000
0010
,
1000
0100
0010
0001
0100
0000
0001
0100
,
0001
0010
0100
1000
0001
0000
1000
0100
,
1000
0010
0100
0010
1000
0001
0010
0100
,
1000
0010
0100
0010
1000
0100
0010
0001
,
1000
0100
1000
0001
0100
0010
1000
0010
0100
0001
1000
0100
0010
0001
1000
0001
,
0100
0010
0100
0001
1000
0100
0010
0100
1000
0001
0100
0010
1000
0010
0100
0001
,
2000
0000
0000
0000
,
0000
0000
0000
0000
,
3000
0000
0000
0000
;

//---------------dance-single - easy ^_^----------------
#NOTES:
     dance-single:
     easy ^_^:
     Easy:
     11:
     0.874,0.950,0.036,0.076,0.000,1349.000,8.000,17.000,0.000,0.000:
0000
0000
0000
0000
,
2002
0000
0000
0000
,
0000
0000
0000
0000
,
0000
0000
0000
0000
,
0000
0000
0000
0000
,
0000
0000
0000
0000
,
3003
0000
0000
1000
,
0100
0000
0000
1000
0000
0000
0010
0000
,
0100
0000
0000
0001
0000
0000
0010
0000
,
0001
0000
0000
0100
0000
0000
0001
0000
,
0010
0000
0000
0100
0000
0000
1000
0000
,
0010
0000
0000
0100
0000
0000
0001
0000
,
0010
0000
0000
0100
0000
0000
1000
0000
,
0100
0000
0000
1000
0000
0000
0010
0000
,
0100
0000
0000
0001
0000
0000
1000
0000
,
0100
0000
0000
1000
0000
0000
0010
0000
,
0100
0000
0101
0000
,
0001
0100
0001
0010
0100
0000
1000
0000
,
0010
0000
0000
0100
0000
0000
0010
0000
,
1000
0000
0000
0100
0000
0000
0010
0000
,
0001
0000
2000
3000
,
0001
1000
0001
0010
0100
0000
1000
0000
,
0100
0000
0000
1000
0000
0000
0010
0000
,
0100
0000
0000
0001
0000
0000
0010
0000
,
0100
0000
0000
1000
0000
0000
0100
0000
,
1000
0100
1000
0010
0100
0000
0000
0000
,
0001
0100
0010
0100
0001
0000
0000
0000
,
0010
0100
1000
0001
1000
0000
0000
0000
,
0001
0100
0001
0010
0100
0000
0000
0000
,
1000
0100
1000
0010
0100
0001
1000
0100
,
1000
0010
0100
0001
0010
0100
1000
0010
,
1000
0100
0010
0001
0100
0001
0010
0100
,
1000
0010
0100
0001
1000
0100
0010
0001
,
1000
0001
0010
0100
1000
0000
0001
0100
,
0001
0010
0100
1000
0010
0000
1000
0100
,
1000
0010
0100
0001
0010
0000
0100
1000
,
0001
1000
0010
0100
0010
0000
1000
0100
,
1000
0010
0100
0001
0010
0000
0100
1000
,
0010
1000
0001
0100
0010
0000
1000
0100
,
1000
0010
1000
0001
0100
0000
0001
1000
,
0001
0010
0100
1000
0010
0000
1000
0010
,
1000
0100
0010
0001
0100
0000
0001
1000
,
0001
0010
0100
1000
0010
0000
1000
0100
,
1000
0010
0100
0001
0010
0000
0100
1000
,
0001
1000
0010
0100
0001
0000
1000
0100
,
1000
0010
0100
0001
0010
0000
0100
1000
,
0001
0100
0001
0010
0100
0000
1000
0010
,
0100
0010
1000
0100
0010
0000
0001
0100
,
0001
0010
0100
1000
0010
0000
1000
0001
,
0100
0010
0100
0001
0010
0000
0100
1000
,
0010
0100
0010
1000
0100
0000
1000
0001
,
1000
0010
0100
0001
0010
0000
0100
1000
,
0001
1000
0010
0100
0010
0000
1000
0100
,
0010
0100
1000
0010
0100
0000
0001
0100
,
0001
0010
0100
1000
0010
0000
1000
0010
,
0100
0010
1000
0001
0100
0000
0010
1000
,
0100
0010
0001
1000
0001
0000
0100
0010
,
1000
0001
0100
0001
0010
0000
0100
1000
,
0010
1000
0100
0010
0001
0000
1000
0010
,
1000
0100
0010
0001
0100
0000
0001
0100
,
0001
0010
0100
1000
0001
0000
1000
0100
,
1000
0010
0100
0010
1000
0000
0001
0100
,
0001
0010
0100
1000
0010
0000
1000
0100
,
1000
0010
0100
0001
0100
0000
0001
0100
,
0001
0010
0100
1000
0001
0000
1000
0100
,
1000
0010
0100
0000
0001
0000
1000
0100
,
1000
0010
0100
0000
0001
0000
0010
0000
,
0100
1000
0010
0000
0100
0000
0001
1000
,
0001
0010
0100
0000
1000
0000
0010
0000
,
0100
0001
0100
0000
0001
0000
0010
0100
,
1000
0001
1000
0000
0010
0000
0100
0001
,
1000
0100
0010
0000
0001
0000
1000
0100
,
1000
0010
0100
0000
0001
0000
0100
0010
,
0100
0001
0010
0000
0100
0000
1000
0100
,
1000
0010
0100
0000
0001
0000
0010
0000
,
0100
1000
0010
0000
1000
0000
0001
1000
,
0001
0010
0100
0000
1000
0000
0010
0000
,
0100
0010
0100
0000
0001
0000
0010
0100
,
1000
0010
1000
0000
0001
0000
1000
0100
,
1000
0010
0100
0000
0001
0000
0010
0100
,
1000
0010
1000
0000
0001
0000
0100
0010
,
1000
0100
0010
0000
0001
0000
1000
0100
,
1000
0010
0100
0000
0001
0000
1000
0000
,
0001
0100
0001
0000
0010
0000
0100
1000
,
0010
0100
0010
0000
1000
0000
0100
0000
,
0010
0001
1000
0000
0001
0000
1000
0100
,
1000
0010
0100
0000
0001
0000
1000
0000
,
0001
0010
0100
0000
1000
0000
0010
1000
,
0100
0010
0001
0000
1000
0000
0100
0000
,
1000
0001
0100
0000
0001
0000
0010
0000
,
0100
1000
0010
0000
1000
0000
0100
0000
,
1000
0001
1000
0000
0001
0000
0100
0000
,
0010
1000
0100
0000
0010
0000
0001
0000
,
1000
0100
0010
0000
0001
0100
0010
0000
,
1000
0100
0010
0000
0001
0100
0010
0000
,
1000
0100
0010
0000
0001
0100
0010
0000
,
1000
0100
0010
0000
0001
0100
0010
0000
,
2000
0000
0000
0000
,
0000
0000
0000
0000
,
0000
0000
0000
0000
,
3000
0000
0000
0001
,
0100
0000
0000
0001
0000
0000
0010
0000
,
0100
0000
0000
1000
0000
0000
0010
0000
,
1000
0000
0000
0100
0000
0000
1000
0000
,
0010
0000
0000
0100
0000
0000
0001
0000
,
0022
0033
0000
0000
0000
0000
0010
0000
0000
0000
0000
0000
0100
0000
0000
0000
,
1000
0000
0000
0010
0000
0000
1000
0000
,
2002
3003
0000
0000
0000
0000
0001
0000
0000
0000
0000
0000
0202
0303
0000
0000
,
0100
0000
0000
0000
0000
0000
0010
0000
2000
3000
0000
0000
0100
0000
0000
0000
,
0220
0330
0000
0000
0000
0000
0010
0000
0000
0000
0000
0000
0001
0000
0000
0000
,
0100
0000
0000
0001
0000
0000
1000
0000
,
0100
0000
0000
1000
0000
0000
0010
0000
,
0100
0000
0000
0001
0000
0000
0010
0000
,
0220
0330
0000
0000
0000
0000
0100
0000
0000
0000
0000
0000
1000
0000
0000
0000
,
0010
0000
0000
0100
0000
0000
0010
0000
,
1000
0000
0000
0100
0000
0000
0010
0000
,
0001
0000
0000
1000
0000
0000
0100
0000
,
1000
0000
0000
0010
0000
0000
0100
0000
,
0001
0000
0000
0010
0000
0000
0100
0000
,
1000
0000
0000
0001
0000
0000
1000
0000
,
0100
0000
0000
1000
0000
0000
0010
0000
,
0100
0000
0000
0001
0000
0000
0010
0000
,
0100
0000
0000
0010
0000
0000
0001
0000
,
0100
0000
0000
0010
0000
0000
1000
0000
,
0100
0000
0000
1000
0000
0000
0001
0000
,
0100
0000
0000
0001
0000
0000
0010
0000
,
0100
0000
0000
1000
0000
0000
0001
0000
,
0100
0000
0000
0010
0000
0000
0100
0000
,
0001
0000
0000
1000
0001
0000
0101
0000
,
0100
0001
0010
0100
1000
0000
0001
0000
,
0010
0000
0000
0100
0000
0000
1000
0000
,
0010
0000
0000
1000
0000
0000
0100
0000
,
1000
0000
0000
0010
0100
0000
0001
0000
,
0010
0100
0010
0100
1000
0000
0010
0000
,
0100
0000
0000
0001
0000
0000
0010
0000
,
0001
0000
0000
1000
0000
0000
0100
0000
,
1000
0000
0000
0010
0000
0000
0100
0000
,
0002
0103
0010
1000
0100
0000
0010
0000
,
0001
0000
0000
0100
0000
0000
0001
0000
,
1000
0000
0000
0100
0000
0000
1000
0000
,
0010
0000
0000
0000
0100
0000
0001
1000
,
0100
1000
0010
0100
0001
0000
0010
0000
,
0100
0000
0000
1000
0000
0000
0100
0000
,
1000
0000
0000
0010
0000
0000
0100
0000
,
0001
0000
0000
0010
0100
0000
1000
0000
,
0001
0100
0001
0010
0100
0000
1000
0000
,
0010
0000
0000
0100
0000
0000
0010
0000
,
1000
0100
0010
0001
0100
0000
0001
0000
,
1000
0000
0000
0100
0000
0000
1000
0000
,
0010
0100
0010
1000
0100
0000
0010
0000
,
0001
0000
0000
0100
0000
0000
0001
0000
,
0010
0100
1000
0010
1000
0000
0001
0000
,
0100
0000
0000
0010
0000
0000
1000
0000
,
0100
0010
0001
1000
0001
0000
0000
0000
,
1000
0100
1000
0010
0100
0000
0000
0000
,
0001
0100
0001
0010
0100
0000
0000
0000
,
1000
0100
1000
0010
0100
0000
0000
0000
,
0001
1000
0001
0010
0100
0000
0000
0000
,
1000
0100
0010
0001
1000
0000
0000
0000
,
0001
0100
0001
0010
0100
0000
0000
0000
,
1000
0100
1000
0010
0100
0000
0000
0000
,
0001
1000
0001
0100
0010
0100
0001
1000
,
0100
0010
0001
0100
0001
1000
0100
0010
,
0100
1000
0010
0100
0001
1000
0100
0010
,
0001
0100
0001
1000
0100
1000
0010
1000
,
0001
0100
0010
0100
0001
0010
0100
1000
,
0001
0100
0010
0100
0001
1000
0100
0010
,
0001
0100
0001
0010
0001
1000
0100
0010
,
0001
0100
0001
1000
0100
1000
0010
0100
,
0001
1000
0100
0010
0001
0000
1000
0010
,
1000
0100
0010
0001
0100
0000
0001
0010
,
0001
0100
0010
1000
0100
0000
0010
0001
,
1000
0001
0100
0010
0100
0000
0001
0010
,
0001
0100
0010
1000
0100
0000
0010
0001
,
0100
0001
1000
0010
0100
0000
0001
0010
,
0001
0100
0001
1000
0010
0000
1000
0001
,
1000
0100
0010
0001
0100
0000
0001
0100
,
0001
0010
0100
1000
0010
0000
1000
0001
,
1000
0100
0010
0001
0100
0000
0001
0010
,
0001
0100
0010
1000
0100
0000
0010
0001
,
1000
0001
0100
0010
1000
0000
0001
0010
,
0001
0100
0010
1000
0100
0000
0010
0001
,
1000
0010
1000
0100
0010
0000
0001
0100
,
0010
0100
0001
0010
0100
0000
1000
0010
,
1000
0100
0010
0001
0100
0000
0001
1000
,
0010
0100
0010
1000
0100
0000
0010
0001
,
0100
0010
0100
0001
0010
0000
0001
1000
,
0001
0100
0010
1000
0100
0000
0010
0001
,
1000
0001
0100
0010
0100
0000
0001
0010
,
0100
0010
0001
0100
0010
0000
1000
0010
,
1000
0100
0010
0001
0100
0000
0001
0100
,
0010
0100
0001
1000
0010
0000
0100
0001
,
0010
0100
1000
0001
1000
0000
0010
0100
,
0001
1000
0010
1000
0100
0000
0010
0001
,
0100
0001
0010
0100
1000
0000
0001
0100
,
0001
0010
0100
1000
0010
0000
1000
0010
,
1000
0100
0010
0001
1000
0000
0001
0010
,
0001
0100
0010
0100
0001
0000
1000
0100
,
1000
0010
0100
0001
0010
0000
0100
1000
,
0001
0100
0001
0010
0100
0000
1000
0100
,
1000
0010
0100
0001
0010
0000
0100
1000
,
0001
1000
0100
0000
0010
0000
0001
0010
,
0001
0100
0010
0000
1000
0000
0100
0000
,
0010
0001
0100
0000
0010
0000
1000
0001
,
1000
0100
0010
0000
0001
0000
0100
0000
,
0010
1000
0010
0000
1000
0000
0100
0010
,
0001
1000
0001
0000
0100
0000
0010
1000
,
0001
0010
0100
0000
1000
0000
0001
0010
,
0001
0100
0010
0000
1000
0000
0010
0000
,
1000
0001
0100
0000
0001
0000
0010
0000
,
0100
1000
0010
0000
1000
0000
0100
0000
,
1000
0001
1000
0000
0001
0000
0100
0000
,
0010
1000
0100
0000
0010
0000
0001
0000
,
1000
0100
0010
0000
0001
0100
0010
0000
,
1000
0100
0010
0000
0001
0100
0010
0000
,
1000
0100
0010
0000
0001
0100
0010
0000
,
1000
0100
0010
0000
0001
0100
0010
0000
,
1000
0001
0010
0100
1000
0000
0001
0100
,
0001
0010
0100
1000
0010
0000
1000
0100
,
1000
0010
0100
0001
0010
0000
0100
1000
,
0001
1000
0010
0100
0010
0000
1000
0100
,
1000
0010
0100
0001
0010
0000
0100
1000
,
0010
1000
0001
0100
0010
0000
1000
0100
,
1000
0010
1000
0001
0100
0000
0001
1000
,
0001
0010
0100
1000
0010
0000
1000
0010
,
1000
0100
0010
0001
0100
0000
0001
1000
,
0001
0010
0100
1000
0010
0000
1000
0100
,
1000
0010
0100
0001
0010
0000
0100
1000
,
0001
1000
0010
0100
0001
0000
1000
0100
,
1000
0010
0100
0001
0010
0000
0100
1000
,
0001
0100
0001
0010
0100
0000
1000
0010
,
0100
0010
1000
0100
0010
0000
0001
0100
,
0001
0010
0100
1000
0010
0000
1000
0001
,
0100
0010
0100
0001
0010
0000
0100
1000
,
0010
0100
0010
1000
0100
0000
1000
0001
,
1000
0010
0100
0001
0010
0000
0100
1000
,
0001
1000
0010
0100
0010
0000
1000
0100
,
0010
0100
1000
0010
0100
0000
0001
0100
,
0001
0010
0100
1000
0010
0000
1000
0010
,
0100
0010
1000
0001
0100
0000
0010
1000
,
0100
0010
0001
1000
0001
0000
0100
0010
,
1000
0001
0100
0001
0010
0000
0100
1000
,
0010
1000
0100
0010
0001
0000
1000
0010
,
1000
0100
0010
0001
0100
0000
0001
0100
,
0001
0010
0100
1000
0001
0000
1000
0100
,
1000
0010
0100
0010
1000
0001
0010
0100
,
1000
0010
0100
0010
1000
0100
0010
0001
,
1000
0100
1000
0010
0100
0001
0010
0100
,
1000
0010
0100
0001
0010
0001
0100
0010
,
2000
0000
0000
0000
,
0000
0000
0000
0000
,
3000
0000
0000
0000
;
