#TITLE:Karaage Champions;
#SUBTITLE:;
#ARTIST:DJ Sharpnel feat. ANNARISK;
#TITLETRANSLIT:;
#SUBTITLETRANSLIT:;
#ARTISTTRANSLIT:;
#CREDIT:;
#BANNER:karaage champions bn.png;
#BACKGROUND:karaage champions bg.png;
#LYRICSPATH:;
#CDTITLE:;
#MUSIC:Karaage Champions.ogg;
#OFFSET:-0.815;
#SAMPLESTART:200.403;
#SAMPLELENGTH:20.209;
#SELECTABLE:YES;
#BPMS:0.000=190.000;
#STOPS:;
#BGCHANGES:;
// cache tags:
#FIRSTBEAT:32.000;
#LASTBEAT:1029.375;
#SONGFILENAME:Songs/SHARPNELSTREAMZ v2/Karaage Champions/Karaage Champions.sm;
#HASMUSIC:1;
#HASBANNER:1;
#MUSICLENGTH:330.083;
// end cache tags

//---------------dance-single - 16 (CTalon)----------------
#NOTES:
     dance-single:
     16 (CTalon):
     Challenge:
     16:
     1.000,1.000,0.070,0.321,1.000,3001.000,23.000,106.000,21.000,0.000:
0000
0000
0000
0000
,
0000
0000
0000
0000
,
0000
0000
0000
0000
,
0000
0000
0000
0000
,
0000
0000
0000
0000
,
0000
0000
0000
0000
,
0000
0000
0000
0000
,
0000
0000
0000
0000
,
0001
0010
0100
1000
0010
0100
0001
0100
0010
0000
1000
0001
0010
0100
1000
0000
,
0001
1000
0010
1000
0010
0100
0001
1000
0001
0000
0010
0100
1000
0010
0100
0000
,
0001
0010
0001
1000
0001
0100
0001
1000
0001
0000
0010
0100
0010
0001
1000
0000
,
0004
0000
4003
0000
,
3001
0100
0001
0010
0001
1000
0100
0010
0001
0000
1000
0010
0100
0010
1000
0000
,
0001
0010
0001
1000
0100
1000
0010
0100
0001
0000
1000
0001
0010
0100
0010
0000
,
0001
0100
0001
1000
0100
0010
0100
1000
0001
0100
0010
0100
0010
1000
0001
0010
,
0004
0000
0000
0000
,
1003
0100
0010
0001
0100
0010
1000
0001
1000
0100
0010
0001
0100
0010
1000
0001
,
1000
0100
0010
0001
0100
0010
1000
0001
1000
0100
0010
0001
0100
0010
1000
0001
,
1000
0100
0010
0001
0100
0010
1000
0001
1000
0100
0010
0001
0100
0010
1000
0001
,
1000
0100
0010
0001
0100
0010
1000
0001
1000
0100
0010
0001
0100
0010
1000
0001
,
1000
0010
0100
0001
0010
0100
1000
0001
1000
0010
0100
0001
0010
0100
1000
0001
,
1000
0010
0100
0001
0010
0100
1000
0001
1000
0010
0100
0001
0010
0100
1000
0001
,
1000
0010
0100
0001
0010
0100
1000
0001
1000
0010
0100
0001
0010
0100
1000
0001
,
1000
0010
0100
0001
1000
0000
0001
0000
0040
0000
0000
0000
0130
1000
0100
0010
,
0001
0010
0100
1000
0010
0100
0001
1000
0001
0010
0001
0100
0001
0010
0100
1000
,
0001
0010
0001
0100
0010
1000
0001
1000
0001
0010
0100
1000
0010
0100
0001
1000
,
0001
0010
0100
0010
0001
1000
0010
0100
0001
0010
0100
1000
0010
0100
0001
0100
,
0001
1000
0100
0010
0001
0100
0010
1000
0001
0010
0100
1000
0010
0100
0001
1000
,
0001
0010
0001
0010
0001
0010
0100
1000
0001
0100
0010
1000
0010
0100
0001
0010
,
0100
1000
0001
0010
0100
0010
0001
0100
0010
1000
0001
1000
0100
0010
0001
1000
,
0001
0000
0100
0000
0010
0000
1000
0001
0100
0010
1000
0000
0001
0010
0100
1000
,
0100
0000
0000
0000
0100
0000
0100
0000
1000
0001
0000
0100
0000
0000
0010
0000
,
1000
0100
0010
0001
1000
0001
0100
0010
0100
0001
0010
0100
1000
0100
1000
0001
,
0100
0010
1000
0100
0010
0100
1000
0001
1000
0010
0100
0001
0010
0100
1000
0001
,
1000
0010
0100
0010
1000
0001
0010
0001
0100
0010
0100
0001
0010
0100
1000
0001
,
1000
0001
0100
0010
1000
0010
1000
0100
0010
0100
1000
0010
0100
0010
1000
0001
,
1000
0100
0010
0001
1000
0001
0100
0010
0100
0001
0010
0100
1000
0100
1000
0001
,
0100
0010
1000
0100
0010
0100
1000
0001
1000
0010
0100
0001
0010
0100
1000
0001
,
1000
0010
0100
0010
1000
0001
0010
0001
0100
0010
0100
0001
0010
0100
1000
0001
,
1000
0100
1000
0100
1000
0000
0001
0000
0400
0000
0000
0000
0310
1000
0100
0010
,
0001
0010
0100
1000
0001
1000
0010
0100
0010
1000
0100
0010
0001
0010
0001
1000
,
0010
0100
0001
0010
0100
0010
0001
1000
0001
0100
0010
1000
0100
0010
0001
1000
,
0001
0100
0010
0100
0001
1000
0100
1000
0010
0100
0010
1000
0100
0010
0001
1000
,
0001
1000
0010
0100
0001
0100
0001
0010
0100
0010
0001
0100
0010
0100
0001
1000
,
0001
0010
0100
1000
0001
1000
0010
0100
0010
1000
0100
0010
0001
0010
0001
1000
,
0010
0100
0001
0010
0100
0010
0001
1000
0001
0100
0010
1000
0100
0010
0001
1000
,
0001
0100
0010
0100
0001
1000
0100
1000
0010
0100
0010
1000
0100
0010
0001
1000
,
0001
0010
0100
1000
0001
0000
1000
0000
0010
0100
0000
0001
1000
0100
0010
0001
,
1000
0000
0000
0000
,
0000
0000
0000
0000
,
0000
0000
0000
0000
,
0000
0000
0000
0000
,
0000
0000
0000
0000
,
0000
0000
0000
M000
0000
0000
0000
0000
0M00
0000
0000
0000
0000
0000
00M0
0000
0000
0000
0000
0000
0000
0000
0000
0000
0000
0000
0000
0000
0000
0000
0000
0000
,
0001
0000
1001
1000
0010
0000
0101
0001
,
1000
0000
1010
0010
1000
000M
0M00
000M
,
0010
0000
0101
0001
1000
0000
0110
0010
,
0100
0000
1001
1000
0100
00M0
000M
00M0
,
1000
0000
1001
0001
0100
0000
0110
0010
,
1000
0000
0011
0010
0100
000M
M000
000M
,
1000
0000
1100
0100
0010
0000
1001
1000
,
0010
0000
0101
0001
1000
00M0
0M00
00M0
,
1000
0000
0001
0100
0001
0000
1000
0100
0010
0000
0100
1000
0001
0000
0100
0010
,
1000
0000
0001
0010
0001
0000
1000
0100
0010
0000
0002
0000
0203
0000
0320
0000
,
1030
0000
0001
0100
0010
0000
1000
0100
0010
0000
0100
1000
0001
0000
1000
0001
,
0100
0000
0010
1000
0010
0000
1000
0100
0010
0000
0002
0000
0203
0020
0300
0000
,
1030
0000
0100
0010
0001
0000
0010
0100
1000
0000
0001
0100
0001
0000
1000
0010
,
0100
0000
0001
0010
0001
0000
1000
0100
0010
0000
0200
0000
2300
0002
3000
0000
,
1003
0000
0010
0100
0001
0000
0100
0010
1000
0000
0100
0010
0001
0000
1000
0010
,
1000
0000
0001
0100
0010
0000
1000
0100
0010
0000
0002
0000
0203
0000
0320
0000
,
1030
0100
0010
0001
0100
0010
1000
0010
0100
0001
0010
0100
1000
0100
0010
0001
,
1000
0010
0100
0001
0010
0001
1000
0010
1000
0100
0020
0000
0032
0000
2003
0000
,
3001
0100
0010
0100
0001
1000
0001
0010
0100
1000
0010
0100
0001
0100
0001
1000
,
0001
0010
0100
1000
0010
0100
0001
0100
0010
1000
0002
0000
0203
0020
0300
0000
,
1030
0100
0010
0001
0100
0010
1000
0010
0100
0001
0010
0100
1000
0100
0010
0001
,
1000
0010
0100
0001
0010
0001
1000
0010
1000
0100
0020
0000
0032
0000
2003
0000
,
3001
0100
0010
0100
0001
1000
0001
0010
0100
1000
0010
0100
0001
0100
0001
1000
,
0001
0010
0100
1000
0010
0100
0001
0100
0010
1000
0002
0000
0203
0020
0300
0000
,
1030
0010
0100
0001
0010
0100
1000
0100
0010
0001
0100
0010
1000
0010
0100
0001
,
1000
0100
0010
0001
0100
0001
1000
0100
1000
0010
0200
0000
0302
0000
2003
0000
,
3001
0010
0100
0010
0001
1000
0001
0100
0010
1000
0100
0010
0001
0010
0001
1000
,
0001
0100
0010
1000
0100
0010
0001
0010
0100
1000
0002
0000
0023
0200
0030
0000
,
1300
0010
0100
0001
0010
0100
1000
0100
0010
0001
0100
0010
1000
0010
0100
0001
,
1000
0100
0010
0001
0100
0001
1000
0100
1000
0010
0200
0000
0302
0000
2003
0000
,
3001
0010
0100
0010
0001
1000
0001
0100
0010
1000
0100
0010
0001
0010
0001
1000
,
0001
0000
1000
0000
0010
0100
0000
0001
0000
1000
0100
0000
0010
0001
0000
1000
,
0001
0010
0100
1000
0001
1000
0010
0100
0010
1000
0100
0010
0001
0010
0001
1000
,
0010
0100
0001
0010
0100
0010
0001
1000
0001
0100
0010
1000
0100
0010
0001
1000
,
0001
0100
0010
0100
0001
1000
0100
1000
0010
0100
0010
1000
0100
0010
0001
1000
,
0001
1000
0010
0100
0001
0100
0001
0010
0100
0010
0001
0100
0010
0100
0001
1000
,
0001
0010
0100
1000
0001
1000
0010
0100
0010
1000
0100
0010
0001
0010
0001
1000
,
0010
0100
0001
0010
0100
0010
0001
1000
0001
0100
0010
1000
0100
0010
0001
1000
,
0001
0100
0010
0100
0001
1000
0100
1000
0010
0100
0010
1000
0100
0010
0001
1000
,
0004
0000
0000
0000
1003
0010
1000
0010
0100
0001
2000
0000
3020
0000
2030
0000
,
3001
0010
0100
1000
0001
1000
0010
0100
0010
1000
0100
0010
0001
0010
0001
1000
,
0010
0100
0001
0010
0100
0010
0001
1000
0001
0100
0010
1000
0100
0010
0001
1000
,
0001
0100
0010
0100
0001
1000
0100
1000
0010
0100
0010
1000
0100
0010
0001
1000
,
0001
1000
0010
0100
0001
0100
0001
0010
0100
0010
0001
0100
0010
0100
0001
1000
,
0001
0010
0100
1000
0001
1000
0010
0100
0010
1000
0100
0010
0001
0010
0001
1000
,
0010
0100
0001
0010
0100
0010
0001
1000
0001
0100
0010
1000
0100
0010
0001
1000
,
0001
0100
0010
0100
0001
1000
0100
1000
0010
0100
0010
1000
0100
0010
0001
1000
,
0004
0000
0000
0000
0000
0000
4003
0000
0000
0000
0000
0000
3010
0000
0000
0100
0001
0100
0001
0000
0000
1000
0000
0000
,
0001
0010
0100
1000
0010
0100
0001
0010
0100
1000
0010
0100
0001
0010
0100
0010
,
0001
0100
0010
1000
0100
0010
0001
0100
0010
1000
0100
0010
0001
0100
0010
0100
,
0001
0010
0100
1000
0010
0100
0001
0010
0100
1000
0010
0100
0001
0010
0100
0010
,
0001
0100
0010
1000
0100
0010
0001
0100
0010
1000
0100
0010
0001
0100
0010
0100
,
0001
1000
0001
0010
0100
0010
0001
0100
0001
0010
0100
0010
0001
1000
0010
0100
,
0001
1000
0001
0100
0010
0100
0001
0010
0001
0100
0010
0100
0001
1000
0100
0010
,
0001
1000
0001
0010
0100
0010
0001
0100
0001
0010
0100
0010
0001
1000
0010
0100
,
0001
1000
0001
0100
0010
0100
0001
0010
0001
0100
0010
0100
0001
1000
0100
0010
,
0001
0010
0100
1000
0010
0100
0001
0010
0100
1000
0010
0100
0001
0010
0100
0010
,
0001
0100
0010
1000
0100
0010
0001
0100
0010
1000
0100
0010
0001
0100
0010
0100
,
0001
0010
0100
1000
0010
0100
0001
0010
0100
1000
0010
0100
0001
0010
0100
0010
,
0001
0100
0010
1000
0100
0010
0001
0100
0010
1000
0100
0010
0001
0100
0010
0100
,
0001
1000
0001
0010
0100
0010
0001
0100
0001
0010
0100
0010
0001
1000
0010
0100
,
0001
1000
0001
0100
0010
0100
0001
0010
0001
0100
0010
0100
0001
1000
0100
0010
,
0001
1000
0001
0010
0100
0010
0001
0100
0001
0010
0100
0010
0001
1000
0010
0100
,
0001
1000
0001
0100
0010
0100
0001
0010
0004
0000
0000
0000
0000
0000
0000
0000
,
2003
3020
0030
0000
0000
0000
0000
0000
,
0000
0000
0000
0000
,
0000
0000
0000
0000
,
0000
0000
0000
0000
0000
0000
0000
0000
0000
0000
0000
0000
0000
0000
0000
0M0M
,
0000
0000
0000
0000
,
0000
0000
0000
0000
,
0000
0000
0000
0000
,
0000
0000
0000
0000
,
0M00
0000
0000
2000
0000
3002
0000
0203
,
0000
0320
0000
2030
0000
3001
0010
0000
,
0000
0000
0000
0002
0000
2003
0000
3200
,
0000
0320
0000
0032
0000
1003
0001
0000
,
0000
0000
0000
2000
0000
3200
0000
2300
,
0000
3020
0000
0230
0000
0301
1000
0000
,
0000
0000
0000
0002
0000
0023
0000
0230
,
0000
2300
0000
3002
0000
1003
0010
0000
,
2000
3000
0000
0020
0030
0000
0200
0300
,
0002
0003
0000
2000
3000
0000
0020
0030
,
2000
3000
0000
0002
0003
0000
0200
0300
,
0002
0003
0000
0020
0030
0000
0200
0300
,
2000
3000
0000
0002
0003
0000
2000
3000
,
0200
0300
0000
0020
0030
0000
0002
0003
,
2000
3000
0000
0002
0003
0000
0200
0300
,
0002
0003
0000
2000
3000
0000
0020
0030
,
2000
3000
0000
0200
0300
0000
0020
0030
,
0002
0003
0000
2000
3000
0000
0020
0030
,
2000
3000
0000
0002
0003
0000
0200
0300
,
0002
0003
0000
0020
0030
0000
0200
0300
,
2000
3000
0000
0002
0003
0000
2000
3000
,
0020
0030
0000
0200
0300
0000
0002
0003
,
2000
3000
0000
0020
0030
0000
0200
0300
,
0002
0003
0000
0020
0030
0000
0200
0300
,
M00M
0000
0000
0000
,
0000
0000
0000
0000
,
0000
0000
0000
0000
,
0000
0000
0000
0000
,
0000
0000
0000
0000
,
0000
0000
0000
0000
,
0000
0000
0000
0000
,
0000
0000
0000
0000
0000
0000
0000
0000
1000
0001
1000
0001
1000
0001
1000
0001
,
1000
0100
0010
0001
0010
0001
1000
0100
0010
0001
0010
0001
1000
0100
0010
0001
,
1000
0010
0100
0001
0100
0001
1000
0010
0100
0001
0100
0001
1000
0010
0100
0001
,
1000
0100
0010
0001
0010
0001
1000
0100
0010
0001
0010
0001
1000
0100
0010
0001
,
1000
0010
0100
0001
0100
0001
1000
0010
0100
0001
0100
0001
1000
0010
0100
0001
,
1000
0100
0010
0001
0100
0001
1000
0100
0010
0001
0100
0001
1000
0100
0010
0001
,
1000
0010
0100
0001
0010
0001
1000
0010
0100
0001
0010
0001
1000
0010
0100
0001
,
1000
0100
0010
0001
0100
0001
1000
0100
0010
0001
0100
0001
1000
0100
0010
0001
,
1000
0010
0100
0001
0010
0001
1000
0010
0100
0001
0010
0001
1000
0010
0100
0001
,
1000
0001
0010
0100
1000
0010
1000
0001
0010
0100
1000
0010
1000
0001
0010
0100
,
1000
0001
0100
0010
1000
0100
1000
0001
0100
0010
1000
0100
1000
0001
0100
0010
,
1000
0001
0010
0100
1000
0010
1000
0001
0010
0100
1000
0010
1000
0001
0010
0100
,
1000
0001
0100
0010
1000
0100
1000
0001
0100
0010
1000
0100
1000
0001
0100
0010
,
1000
0100
0010
0001
1000
0010
1000
0100
0010
0001
1000
0010
1000
0100
0010
0001
,
1000
0010
0100
0001
1000
0100
1000
0010
0100
0001
1000
0100
1000
0010
0100
0001
,
1000
0100
0010
0001
1000
0010
1000
0100
0010
0001
1000
0010
1000
0100
0010
0001
,
1000
0010
0100
0001
1000
0100
1000
0010
0100
0001
1000
0100
1000
0010
0100
0001
,
1000
0100
0010
0001
0010
0001
1000
0100
0010
0001
0010
0001
1000
0100
0010
0001
,
1000
0010
0100
0001
0100
0001
1000
0010
0100
0001
0100
0001
1000
0010
0100
0001
,
1000
0100
0010
0001
0010
0001
1000
0100
0010
0001
0010
0001
1000
0100
0010
0001
,
1000
0010
0100
0001
0100
0001
1000
0010
0100
0001
0100
0001
1000
0010
0100
0001
,
1000
0100
0010
0001
0100
0001
1000
0100
0010
0001
0100
0001
1000
0100
0010
0001
,
1000
0010
0100
0001
0010
0001
1000
0010
0100
0001
0010
0001
1000
0010
0100
0001
,
1000
0100
0010
0001
0100
0001
1000
0100
0010
0001
0100
0001
1000
0100
0010
0001
,
1000
0010
0100
0001
0010
0001
1000
0010
0100
0001
0010
0001
1000
0010
0100
0001
,
1000
0001
0010
0100
1000
0010
1000
0001
0010
0100
1000
0010
1000
0001
0010
0100
,
1000
0001
0100
0010
1000
0100
1000
0001
0100
0010
1000
0100
1000
0001
0100
0010
,
1000
0001
0010
0100
1000
0010
1000
0001
0010
0100
1000
0010
1000
0001
0010
0100
,
1000
0001
0100
0010
1000
0100
1000
0001
0100
0010
1000
0100
1000
0001
0100
0010
,
1000
0100
0010
0001
1000
0010
1000
0100
0010
0001
1000
0010
1000
0100
0010
0001
,
1000
0010
0100
0001
1000
0100
1000
0010
0100
0001
1000
0100
1000
0010
0100
0001
,
1000
0100
0010
0001
1000
0010
1000
0100
0010
0001
1000
0010
1000
0100
0010
0001
,
1000
0010
0100
0001
1000
0100
1000
0010
0100
0001
1000
0100
1000
0010
0100
0001
,
1000
0100
0010
0001
0010
0001
1000
0100
0010
0001
0010
0001
1000
0100
0010
0001
,
1000
0010
0100
0001
0100
0001
1000
0010
0100
0001
0100
0001
1000
0010
0100
0001
,
1000
0100
0010
0001
0010
0001
1000
0100
0010
0001
0010
0001
1000
0100
0010
0001
,
1000
0010
0100
0001
0100
0001
1000
0010
0100
0001
0100
0001
1000
0010
0100
0001
,
1000
0100
0010
0001
0100
0001
1000
0100
0010
0001
0100
0001
1000
0100
0010
0001
,
1000
0010
0100
0001
0010
0001
1000
0010
0100
0001
0010
0001
1000
0010
0100
0001
,
1000
0100
0010
0001
0100
0001
1000
0100
0010
0001
0100
0001
1000
0100
0010
0001
,
1000
0010
0100
0001
0010
0001
1000
0010
0100
0001
0010
0001
1000
0010
0100
0001
,
1000
0001
0010
0100
1000
0010
1000
0001
0010
0100
1000
0010
1000
0001
0010
0100
,
1000
0001
0100
0010
1000
0100
1000
0001
0100
0010
1000
0100
1000
0001
0100
0010
,
1000
0001
0010
0100
1000
0010
1000
0001
0010
0100
1000
0010
1000
0001
0010
0100
,
1000
0001
0100
0010
1000
0100
1000
0001
0100
0010
1000
0100
1000
0001
0100
0010
,
1000
0100
0010
0001
1000
0010
1000
0100
0010
0001
1000
0010
1000
0100
0010
0001
,
1000
0010
0100
0001
1000
0100
1000
0010
0100
0001
1000
0100
1000
0010
0100
0001
,
1000
0100
0010
0001
1000
0010
1000
0100
0010
0001
1000
0010
1000
0100
0010
0001
,
1000
0010
0100
0001
1000
0100
1000
0010
0100
0001
1000
0100
1000
0010
0100
0001
,
1000
0100
0010
0001
0010
0001
1000
0100
0010
0001
0010
0001
1000
0100
0010
0001
,
1000
0010
0100
0001
0100
0001
1000
0010
0100
0001
0100
0001
1000
0010
0100
0001
,
1000
0100
0010
0001
0010
0001
1000
0100
0010
0001
0010
0001
1000
0100
0010
0001
,
1000
0010
0100
0001
0100
0001
1000
0010
0100
0001
0100
0001
1000
0010
0100
0001
,
1000
0100
0010
0001
0100
0001
1000
0100
0010
0001
0100
0001
1000
0100
0010
0001
,
1000
0010
0100
0001
0010
0001
1000
0010
0100
0001
0010
0001
1000
0010
0100
0001
,
1000
0100
0010
0001
0100
0001
1000
0100
0010
0001
0100
0001
1000
0100
0010
0001
,
1000
0010
0100
0001
0010
0001
1000
0010
0100
0001
0010
0001
1000
0010
0100
0001
,
1000
0001
0010
0100
1000
0010
1000
0001
0010
0100
1000
0010
1000
0001
0010
0100
,
1000
0001
0100
0010
1000
0100
1000
0001
0100
0010
1000
0100
1000
0001
0100
0010
,
1000
0001
0010
0100
1000
0010
1000
0001
0010
0100
1000
0010
1000
0001
0010
0100
,
1000
0001
0100
0010
1000
0100
1000
0001
0100
0010
1000
0100
1000
0001
0100
0010
,
1000
0100
0010
0001
1000
0010
1000
0100
0010
0001
1000
0010
1000
0100
0010
0001
,
1000
0010
0100
0001
1000
0100
1000
0010
0100
0001
1000
0100
1000
0010
0100
0001
,
1000
0100
0010
0001
1000
0010
1000
0100
0010
0001
1000
0010
1000
0100
0010
0001
,
1000
0010
0100
0001
1000
0100
1000
0010
0100
0001
1000
0100
1000
0010
0100
0001
,
1000
0000
0000
0000
,
0000
0000
0000
0000
,
0001
0010
0100
1000
0010
0100
0001
1000
0001
0010
0100
1000
0010
0100
0001
1000
,
0001
0010
0100
1000
0010
0100
0001
1000
0001
0010
0100
1000
0010
0100
0001
1000
,
0001
0010
0100
1000
0010
0100
0001
1000
0001
0010
0100
1000
0010
0100
0001
1000
,
0001
0010
0100
1000
0010
0100
0001
1000
0001
0010
0100
1000
0010
0100
0001
1000
,
0001
0100
0010
1000
0100
0010
0001
1000
0001
0100
0010
1000
0100
0010
0001
1000
,
0001
0100
0010
1000
0100
0010
0001
1000
0001
0100
0010
1000
0100
0010
0001
1000
,
0001
0100
0010
1000
0100
0010
0001
1000
0001
0100
0010
1000
0100
0010
0001
1000
,
0001
0100
0010
1000
0001
0000
1000
0000
0400
0000
0000
0000
0310
0001
0010
0100
,
1000
0100
0010
0001
0100
0010
1000
0001
1000
0100
0010
0001
0100
0010
1000
0001
,
1000
0100
0010
0001
0100
0010
1000
0001
1000
0100
0010
0001
0100
0010
1000
0001
,
1000
0100
0010
0001
0100
0010
1000
0001
1000
0100
0010
0001
0100
0010
1000
0001
,
1000
0100
0010
0001
0100
0010
1000
0001
1000
0100
0010
0001
0100
0010
1000
0001
,
1000
0010
0100
0001
0010
0100
1000
0001
1000
0010
0100
0001
0010
0100
1000
0001
,
1000
0010
0100
0001
0010
0100
1000
0001
1000
0010
0100
0001
0010
0100
1000
0001
,
1000
0010
0100
0001
0010
0100
1000
0001
1000
0010
0100
0001
0010
0100
1000
0001
,
4000
0000
0000
0000
0000
0000
0000
0000
0000
0000
0000
0000
3001
0000
0010
0100
,
1000
0100
0010
0001
0100
0010
1000
0010
1000
0100
0010
0001
0100
0010
1000
0010
,
1000
0100
0010
0001
0100
0010
1000
0010
1000
0100
0010
0001
0100
0010
1000
0010
,
1000
0100
0010
0001
0100
0010
1000
0010
1000
0100
0010
0001
0100
0010
1000
0010
,
1000
0100
0010
0001
0100
0010
1000
0010
1000
0100
0010
0001
0100
0010
1000
0010
,
1000
0010
0100
0001
0010
0100
1000
0010
1000
0010
0100
0001
0010
0100
1000
0010
,
1000
0010
0100
0001
0010
0100
1000
0010
1000
0010
0100
0001
0010
0100
1000
0010
,
1000
0010
0100
0001
0010
0100
1000
0010
1000
0010
0100
0001
0010
0100
1000
0010
,
1000
0010
0100
0001
1000
0000
0001
0000
0040
0000
0000
0000
0130
1000
0100
0010
,
0001
0010
0100
1000
0010
0100
0001
0100
0001
0010
0100
1000
0010
0100
0001
0100
,
0001
0010
0100
1000
0010
0100
0001
0100
0001
0010
0100
1000
0010
0100
0001
0100
,
0001
0010
0100
1000
0010
0100
0001
0100
0001
0010
0100
1000
0010
0100
0001
0100
,
0001
0010
0100
1000
0010
0100
0001
0100
0001
0010
0100
1000
0010
0100
0001
0100
,
0001
0100
0010
1000
0100
0010
0001
0100
0001
0100
0010
1000
0100
0010
0001
0100
,
0001
0100
0010
1000
0100
0010
0001
0100
0001
0100
0010
1000
0100
0010
0001
0100
,
0001
0100
0010
1000
0100
0010
0001
0100
0001
0100
0010
1000
0100
0010
0001
0100
,
0004
0000
0000
0000
0000
0000
0000
0000
0000
0000
0000
0000
1003
0000
0100
0010
,
0001
0000
0000
0000
,
0000
0000
0000
0000
0000
0000
0000
0000
0000
0000
0000
M000
0000
0000
0000
0000
0000
0000
0000
0000
0000
0000
0000
0000
0000
0000
0000
0000
0000
0000
0000
0000
;
