#TITLE:The Limit Does Not Exist;
#SUBTITLE:;
#ARTIST:Cardboard Box;
#TITLETRANSLIT:;
#SUBTITLETRANSLIT:;
#ARTISTTRANSLIT:;
#CREDIT:BoxX;
#BANNER:../Banner.png;
#BACKGROUND:../bg.png;
#LYRICSPATH:;
#CDTITLE:;
#MUSIC:The Limit Does Not Exist.ogg;
#OFFSET:0.005;
#SAMPLESTART:66.467;
#SAMPLELENGTH:20.000;
#SELECTABLE:YES;
#BPMS:0.000=260.000;
#STOPS:;
#BGCHANGES:;
// cache tags:
#FIRSTBEAT:8.000;
#LASTBEAT:492.500;
#SONGFILENAME:Songs/Tachyon Epsilon/The Limit Does Not Exist - [TheBoxX]/The Limit Does Not Exist.sm;
#HASMUSIC:1;
#HASBANNER:1;
#MUSICLENGTH:115.000;
// end cache tags

//---------------dance-single - TheBoxX----------------
#NOTES:
     dance-single:
     TheBoxX:
     Hard:
     21:
     1.000,1.000,0.000,0.148,1.000,1371.000,0.000,17.000,0.000,0.000:













0000
0000
0000
0000
,
0000
0000
0000
0000
,
0001
0000
1000
0010
0000
0010
1000
0001
,
0010
0010
0100
0000
0010
0010
0001
0000
,
1000
0000
0001
0010
0000
0010
0001
1000
,
0010
0010
0100
0000
0010
0010
1000
0000
,
0001
0000
1000
0010
0000
0010
1000
0001
,
0010
0010
0100
0000
0010
0010
0001
0000
,
1000
0100
0010
0001
1000
0010
0100
0001
,
1000
1000
0100
0000
1000
1000
0010
0000
,
0100
0001
0010
0100
1000
0010
0100
0001
,
0010
0010
0001
0000
0100
0100
0001
0000
,
1000
0100
0010
0100
1000
0001
1000
0010
0100
0001
1000
0001
0010
0100
1000
0001
,
1000
0010
0100
0001
1000
0001
0010
0001
1000
0010
0100
0001
1000
0100
1000
0001
,
1000
0010
0100
0010
1000
0001
1000
0100
0010
0001
1000
0001
0100
0010
1000
0001
,
1000
0100
0010
0001
1000
0001
0100
0001
1000
0100
0010
0001
1000
0010
1000
0001
,
1000
0010
0100
0001
1000
0100
0010
0001
,
1000
1000
0010
0000
1000
1000
0100
0000
,
0010
0001
0100
0010
1000
0100
0010
0001
,
0100
0100
0001
0000
0010
0010
0001
0000
,
1000
0010
0100
0010
1000
0001
1000
0100
0010
0001
1000
0001
0100
0010
1000
0001
,
1000
0100
0010
0001
1000
0001
0100
0001
1000
0100
0010
0001
1000
0010
1000
0001
,
1000
0100
0010
0100
1000
0001
1000
0010
0100
0001
1000
0001
0010
0100
1000
0001
,
1000
0010
0100
0001
1000
0001
0010
0001
1000
0010
0100
0001
1000
0100
1000
0001
,
1000
0010
0100
0001
1000
0100
0010
0001
,
1000
1000
0010
0000
0100
0100
0001
0000
,
1000
0100
1000
0010
0100
0010
1000
0100
,
0010
0010
0001
0000
1000
1000
0010
0000
,
0100
0001
0010
0100
0010
0001
0100
0010
,
1000
1000
0001
0000
0010
0010
0100
0000
,
1000
0100
0010
0001
0100
0010
1000
0100
,
0010
0000
0010
0000
0001
0000
0000
0000
1000
0000
0010
0000
0100
0001
1000
0100
,
1000
0010
0100
0001
1000
0100
0010
0001
,
1000
1000
0010
0000
0100
0100
0001
0000
,
1000
0100
1000
0010
0100
0010
1000
0100
,
0010
0010
0001
0000
1000
1000
0010
0000
,
0100
0001
0010
0100
0010
0001
0100
0010
,
1000
1000
0001
0000
0010
0010
0100
0000
,
1000
0100
0010
0001
0100
0010
1000
0100
,
0010
0000
0010
0000
0001
0000
0000
0000
1000
0000
0010
0000
0100
0001
1000
0010
,
1000
0100
0010
0001
1000
0010
0100
0001
,
1000
1000
0100
0000
1000
1000
0010
0000
,
0100
0001
0010
0100
1000
0010
0100
0001
,
0010
0010
0001
0000
0100
0100
0001
0000
,
1000
0100
0010
0100
1000
0001
1000
0010
0100
0001
1000
0001
0010
0100
1000
0001
,
1000
0010
0100
0001
1000
0001
0010
0001
1000
0010
0100
0001
1000
0100
1000
0001
,
1000
0010
0100
0010
1000
0001
1000
0100
0010
0001
1000
0001
0100
0010
1000
0001
,
1000
0100
0010
0001
1000
0001
0100
0001
1000
0100
0010
0001
1000
0010
1000
0001
,
1000
0000
0010
0000
0100
0000
0001
0000
1000
0100
0010
0001
1000
0100
0010
0001
,
1000
1000
0010
0000
1000
1000
0100
0000
,
0010
0000
0001
0000
0100
0000
0010
0000
1000
0010
0100
0001
1000
0010
0100
0001
,
1000
1000
0001
0000
0010
0010
0001
0000
,
1000
0010
0100
0010
1000
0001
1000
0100
0010
0001
1000
0001
0100
0010
1000
0001
,
0100
0010
1000
0001
0010
0100
1000
0001
1000
0010
0100
0001
1000
0100
1000
0001
,
1000
0010
0100
0010
1000
0001
1000
0100
0010
0001
1000
0001
0100
0010
1000
0001
,
0100
0010
1000
0001
1000
0100
0010
0100
1000
0001
0010
0001
1000
0010
1000
0001
,
2000
0000
0002
0003
,
0200
3000
0020
0030
,
2000
0300
0020
0030
,
0002
3000
0200
0300
,
0020
0003
0200
0300
,
0002
0030
0200
0300
,
2000
0003
0200
0300
,
0020
0000
0000
0000
3000
0000
0000
0000
0130
0001
1000
0001
0100
0010
1000
0001
,
1000
0100
0010
0100
1000
0001
1000
0010
0100
0001
1000
0001
0010
0100
1000
0001
,
1000
0010
0100
0001
1000
0001
0010
0001
1000
0010
0100
0001
1000
0100
1000
0001
,
1000
0010
0100
0010
1000
0001
1000
0100
0010
0001
1000
0001
0100
0010
1000
0001
,
1000
0100
0010
0001
1000
0001
0100
0001
1000
0100
0010
0001
1000
0010
1000
0001
,
0100
0010
0100
0001
1000
0001
0010
0100
1000
0001
1000
0010
0100
0001
1000
0001
,
0010
0100
1000
0001
1000
0010
1000
0001
0010
0100
1000
0001
0100
0001
1000
0001
,
0010
0100
0010
0001
1000
0001
0100
0010
1000
0001
1000
0100
0010
0001
1000
0001
,
0100
0010
1000
0001
1000
0100
1000
0001
0100
0010
1000
0001
1000
0100
0010
0001
,
1000
0100
0010
0001
1000
0010
0100
0001
,
1000
1000
0100
0000
1000
1000
0010
0000
,
0100
0001
0010
0100
1000
0010
0100
0001
,
0010
0010
0001
0000
0100
0100
0001
0000
,
1000
0010
0100
0010
1000
0001
1000
0100
0010
0001
1000
0001
0100
0010
1000
0001
,
1000
0100
0010
0001
1000
0001
0100
0001
1000
0100
0010
0001
1000
0010
1000
0001
,
1000
0100
0010
0100
1000
0001
1000
0010
0100
0001
1000
0001
0010
0100
1000
0001
,
1000
0010
0100
0001
1000
0001
0010
0001
1000
0010
0100
0001
1000
0100
1000
0001
,
1000
0010
0100
0001
1000
0100
0010
0001
,
1000
1000
0010
0000
1000
1000
0100
0000
,
0010
0001
0100
0010
1000
0100
0010
0001
,
0100
0100
0001
0000
0010
0010
0001
0000
,
1000
0100
0010
0001
0100
0010
1000
0100
,
1000
0010
0100
0001
1000
0100
0010
0001
,
1000
0010
0100
0001
0010
0100
1000
0010
,
1000
0100
0010
0001
1000
0001
1000
0001
,
1000
0010
1000
0001
1000
0100
0010
0001
1000
0100
0010
0001
1000
0001
0100
0010
,
1000
0001
0100
0010
1000
0001
0100
0001
1000
0100
1000
0001
1000
0010
0100
0010
,
1000
0001
1000
0010
0100
0001
1000
0001
0010
0001
1000
0100
1000
0001
0010
0100
,
1000
0001
0010
0100
0010
0001
1000
0001
0100
0010
1000
0001
0100
0010
1000
0001
,
0010
0001
1000
0001
0100
0010
1000
0001
0100
0010
1000
0001
1000
0100
1000
0001
,
0010
0100
1000
0001
0010
0100
1000
0100
0010
0001
1000
0100
0010
0001
1000
0001
,
0100
0001
1000
0010
0100
0001
1000
0010
1000
0001
1000
0100
1000
0001
0010
0100
,
1000
0001
1000
0100
0010
0001
1000
0001
0100
0001
1000
0010
0100
0001
1000
0010
,
1000
0001
0100
0010
1000
0001
0010
0001
1000
0100
0010
0100
1000
0001
0010
0100
,
0010
0001
1000
0100
1000
0001
0100
0001
1000
0010
0100
0001
1000
0010
0100
0001
,
1000
0001
0010
0001
1000
0100
1000
0001
0010
0100
1000
0001
0010
0100
1000
0001
,
1000
0010
1000
0001
0100
0010
1000
0001
0100
0010
0100
0001
1000
0010
0100
0001
,
1000
0001
0010
0100
1000
0001
0010
0100
1000
0001
1000
0010
1000
0001
0100
0010
,
1000
0001
0100
0010
0100
0001
1000
0001
0010
0100
1000
0001
0010
0100
0010
0001
,
1000
0100
0010
0001
1000
0001
0100
0010
1000
0001
0100
0010
1000
0001
1000
0100
,
0010
0100
1000
0001
1000
0010
0100
0001
1000
0010
0100
0010
1000
0001
1000
0100
,
1000
0001
0010
0001
1000
0100
1000
0001
0100
0001
1000
0010
0100
0001
1000
0100
,
0010
0100
1000
0001
1000
0010
0100
0001
1000
0100
0010
0100
1000
0001
1000
0010
,
0100
0001
1000
0001
0100
0001
1000
0100
0010
0100
1000
0001
0010
0001
1000
0001
,
0100
0010
1000
0001
0100
0010
0100
0001
1000
0001
0010
0100
0010
0001
1000
0100
,
1000
0001
0100
0001
1000
0010
1000
0001
0010
0001
1000
0100
0010
0001
1000
0010
,
0100
0010
1000
0001
1000
0100
0010
0001
1000
0010
0100
0010
1000
0001
1000
0100
,
0010
0001
1000
0001
0010
0001
1000
0010
0100
0010
1000
0001
0100
0001
1000
0001
,
0010
0100
1000
0001
0010
0100
0010
0001
1000
0001
0100
0010
0100
0001
1000
0010
,
1000
0001
0010
0001
1000
0100
1000
0001
0100
0001
1000
0010
0100
0001
1000
0100
,
0010
0100
1000
0001
1000
0010
0100
0001
1000
0100
0010
0100
1000
0001
1000
0010
,
0100
0001
1000
0001
0100
0001
1000
0100
0010
0100
1000
0001
0010
0001
1000
0001
,
0100
0010
1000
0001
0100
0010
0100
0001
1000
0001
0010
0100
0010
0001
1000
0100
,
1000
0001
0100
0001
1000
0010
1000
0001
0010
0001
1000
0100
0010
0001
1000
0010
,
0100
0010
1000
0001
1000
0100
0010
0001
1000
0010
0100
0010
1000
0001
1000
0100
,
0010
0001
1000
0001
0100
0001
1000
0010
0100
0001
1000
0010
1000
0001
1000
0100
,
0010
0001
1000
0001
0100
0010
1000
0001
0100
0001
1000
0100
1000
0001
0010
0001
,
2000
3000
0000
0000
,
0000
0000
0000
0000
0000
0000
0000
0000
0001
0010
0100
1000
0001
0010
0100
1000
,
0001
0010
0001
0100
0001
1000
0010
0100
0001
1000
0010
0100
0001
1000
0100
0010
,
0002
0003
0000
0000
0000
0000
0000
0000
;

//---------------dance-single - Mad Matt----------------
#NOTES:
     dance-single:
     Mad Matt:
     Easy:
     19:
     1.000,1.000,0.000,0.174,1.000,1226.000,0.000,20.000,0.000,0.000:











0000
0000
0000
0000
,
0000
0000
0000
0000
,
0001
0000
1000
0010
0000
0010
1000
0000
,
0001
0001
0100
0000
0010
0010
1000
0000
,
0001
0000
1000
0100
0000
0100
1000
0000
,
0001
0001
0010
0000
0100
0100
1000
0000
,
0001
0000
1000
0010
0000
0010
1000
0000
,
0010
0010
0100
0000
0001
0001
1000
0000
,
0001
0000
1000
1000
0000
0010
0010
0000
,
1000
1000
0010
0000
1000
1000
0100
0000
,
1000
0000
0001
0001
0000
0010
0010
0000
,
0001
0001
0010
0000
0001
0001
0100
0000
,
0001
0010
0001
1000
0100
1000
0001
0100
0001
1000
0010
1000
0001
0100
0010
1000
,
0001
1000
0010
0100
0001
0100
0010
1000
0001
1000
0100
1000
0001
0010
0100
1000
,
0001
0010
0001
1000
0100
1000
0001
0100
0001
1000
0010
1000
0001
0010
0001
1000
,
0010
0100
0001
1000
0010
0100
0010
1000
0001
1000
0100
1000
0001
0010
0100
1000
,
0001
0000
1000
1000
0000
0010
0010
0000
,
1000
1000
0010
0000
1000
1000
0100
0000
,
1000
0000
0001
0001
0000
0010
0010
0000
,
0001
0001
0010
0000
0001
0001
0100
0000
,
0001
0100
0001
1000
0010
1000
0001
0010
0001
1000
0100
1000
0001
0010
0100
1000
,
0001
1000
0100
0010
0001
0010
0100
1000
0001
1000
0010
1000
0001
0100
0010
1000
,
0001
0100
0001
1000
0010
1000
0001
0010
0001
1000
0100
1000
0001
0100
0001
1000
,
0100
0010
0001
1000
0100
0010
0100
1000
0001
1000
0010
1000
0001
0100
0010
1000
,
0001
0000
0100
0100
0000
0010
0010
0000
,
1000
1000
0010
0000
0100
0100
0001
0000
,
1000
0000
0100
0100
0000
0010
0010
0000
,
0001
0001
0010
0000
0100
0100
1000
0000
,
0001
0000
0100
0100
0000
0010
0010
0000
,
1000
1000
0001
0000
0100
0100
0010
0000
,
1000
0000
0010
0010
0000
0100
0100
0000
,
0001
0000
0001
0000
1000
0000
0000
0000
0100
0000
0100
0000
0010
0001
1000
0001
,
1000
0000
0100
0100
0000
0010
0010
0000
,
0001
0001
0010
0000
0100
0100
1000
0000
,
0001
0000
0100
0100
0000
0010
0010
0000
,
1000
1000
0010
0000
0100
0100
0001
0000
,
1000
0000
0100
0100
0000
0010
0010
0000
,
0001
0001
1000
0000
0100
0100
0010
0000
,
0001
0000
0010
0010
0000
0100
0100
0000
,
1000
0000
1000
0000
0001
0000
0000
0000
0100
0000
0100
0000
0010
1000
0001
1000
,
0001
0000
1000
1000
0000
0010
0010
0000
,
1000
1000
0010
0000
1000
1000
0100
0000
,
1000
0000
0001
0001
0000
0010
0010
0000
,
0001
0001
0010
0000
0001
0001
0100
0000
,
0001
0010
0001
1000
0100
1000
0001
0100
0001
1000
0010
1000
0001
0100
0010
1000
,
0001
1000
0010
0100
0001
0100
0010
1000
0001
1000
0100
1000
0001
0010
0100
1000
,
0001
0010
0001
1000
0100
1000
0001
0100
0001
1000
0010
1000
0001
0010
0001
1000
,
0010
0100
0001
1000
0010
0100
0010
1000
0001
1000
0100
1000
0001
0010
0100
1000
,
0001
0000
0000
0000
0000
0000
0000
0000
1000
0010
0100
0001
1000
0010
0100
0001
,
2000
0000
0000
0000
,
0000
0000
0000
0000
3000
0000
0000
0000
0001
0010
0100
1000
0001
0010
0100
1000
,
0002
0000
0000
0000
0000
0000
0000
0000
0000
0000
0000
0000
0000
0000
0000
0003
,
1000
0010
1000
0001
0100
0001
1000
0100
1000
0001
0010
0100
1000
0001
0010
0100
,
1000
0001
0100
0001
1000
0010
0100
0001
1000
0001
0010
0001
1000
0100
0010
0001
,
1000
0100
1000
0001
0010
0001
1000
0010
1000
0001
0100
0010
1000
0001
0100
0010
,
1000
0001
0100
0010
0100
0001
1000
0001
0010
0001
1000
0100
0010
0001
1000
0001
,
2000
0000
0002
0003
,
0200
3000
0020
0030
,
2000
0300
0020
0030
,
0002
3000
0200
0300
,
0020
0003
0200
0300
,
0002
0030
0200
0300
,
2000
0003
0200
0300
,
0020
3000
0230
0000
,
0301
0010
0001
1000
0100
1000
0001
0100
0001
1000
0010
1000
0001
0100
0010
1000
,
0001
1000
0010
0100
0001
0100
0010
1000
0001
1000
0100
1000
0001
0010
0100
1000
,
0001
0010
0001
1000
0100
1000
0001
0100
0001
1000
0010
1000
0001
0010
0001
1000
,
0010
0100
0001
1000
0010
0100
0010
1000
0001
1000
0100
1000
0001
0010
0100
1000
,
0001
0100
0001
1000
0010
1000
0001
0010
0001
1000
0100
1000
0001
0010
0100
1000
,
0001
1000
0100
0010
0001
0010
0100
1000
0001
1000
0010
1000
0001
0100
0010
1000
,
0001
0100
0001
1000
0010
1000
0001
0010
0001
1000
0100
1000
0001
0100
0001
1000
,
0100
0010
0001
1000
0100
0010
0100
1000
0001
1000
0010
1000
0001
0100
0010
1000
,
0001
0000
1000
1000
0000
0010
0010
0000
,
1000
1000
0010
0000
1000
1000
0100
0000
,
1000
0000
0001
0001
0000
0010
0010
0000
,
0001
0001
0010
0000
0001
0001
0100
0000
,
0001
0010
0001
1000
0100
1000
0001
0100
0001
1000
0010
1000
0001
0100
0010
1000
,
0001
1000
0010
0100
0001
0100
0010
1000
0001
1000
0100
1000
0001
0010
0100
1000
,
0001
0010
0001
1000
0100
1000
0001
0100
0001
1000
0010
1000
0001
0010
0001
1000
,
0010
0100
0001
1000
0010
0100
0010
1000
0001
1000
0100
1000
0001
0010
0100
1000
,
0001
0000
1000
1000
0000
0010
0010
0000
,
1000
1000
0010
0000
1000
1000
0100
0000
,
1000
0000
0001
0001
0000
0010
0010
0000
,
0001
0001
0010
0000
0001
0001
0100
0000
,
0001
0010
0100
1000
0010
0100
0001
0010
,
0001
0100
0010
1000
0001
0010
0100
1000
,
0001
0100
0010
1000
0100
0010
0001
0100
,
0001
0010
0100
1000
0001
1000
0001
1000
,
0001
0010
0100
1000
0010
1000
0001
0010
0100
0010
0001
0100
,
0001
1000
0010
0100
0001
0010
0001
1000
0010
1000
0001
0010
,
0001
0100
0010
1000
0100
1000
0001
0100
0010
0100
0001
0010
,
0001
1000
0100
0010
0001
0100
0001
1000
0100
1000
0001
0100
,
0001
0010
0100
1000
0010
1000
0001
0010
0100
0010
0001
0100
,
0001
1000
0010
0100
0001
0010
0001
1000
0010
1000
0001
0010
,
0001
0100
0010
1000
0100
1000
0001
0100
0010
0100
0001
0010
,
0001
1000
0100
0010
0001
0100
0001
1000
0100
1000
0001
1000
,
0100
0010
0001
0100
0001
1000
0100
0010
0100
1000
0010
1000
,
0001
0100
0010
1000
0100
1000
0001
0100
0001
1000
0100
1000
,
0010
0100
0001
0010
0001
1000
0010
0100
0010
1000
0100
1000
,
0001
0010
0100
1000
0010
1000
0001
0010
0001
1000
0010
1000
,
0100
0010
0001
0100
0001
1000
0100
0010
0100
1000
0010
1000
,
0001
0100
0010
1000
0100
1000
0001
0100
0001
1000
0100
1000
,
0010
0100
0001
0010
0001
1000
0010
0100
0010
1000
0100
1000
,
0001
0010
0100
1000
0010
1000
0001
0010
0001
1000
0010
1000
,
0001
0100
0010
0100
0001
1000
0010
0100
0001
1000
0001
0010
0100
1000
0001
0010
,
0100
0010
0001
1000
0100
0010
0100
1000
0001
1000
0010
0100
0001
1000
0010
0100
,
0010
1000
0001
1000
0100
0010
0001
1000
0100
1000
0001
0010
0100
1000
0001
1000
,
0010
0100
0001
1000
0010
0100
0001
1000
0001
0010
0100
1000
0001
0010
0100
1000
,
0001
1000
0010
1000
0001
0100
0010
0100
0001
1000
0010
0100
0001
1000
0001
0010
,
0100
1000
0001
0010
0100
0010
0001
1000
0100
1000
0001
1000
0010
0100
0001
1000
,
0010
0100
0001
1000
0001
0010
0100
1000
0001
0010
0001
1000
0100
1000
0001
0010
,
0100
1000
0001
1000
0010
0100
0010
1000
0001
0100
0010
1000
0001
1000
0010
0100
,
0001
1000
0001
0010
0100
1000
0001
0010
0100
0010
0001
1000
0100
0010
0100
1000
,
0001
1000
0010
0100
0001
1000
0010
0100
0010
1000
0001
0100
0001
1000
0100
1000
,
0001
0010
0100
1000
0001
0010
0100
1000
0001
1000
0010
0100
0001
0100
0010
1000
,
0001
1000
0100
1000
0001
0010
0100
0010
0001
1000
0100
0010
0100
1000
0001
1000
,
0010
0100
0001
1000
0001
0100
0010
0100
0001
1000
0010
1000
0001
0100
0010
0100
,
0001
1000
0001
0010
0001
1000
0100
0010
0001
1000
0100
0010
0100
1000
0001
0010
,
0001
1000
0001
0100
0010
1000
0001
0100
0010
1000
0001
1000
0100
0010
0001
1000
,
0100
0010
0001
1000
0001
0100
0010
1000
0001
0100
0010
1000
0001
1000
0100
0010
,
0002
0003
0000
0000
,
0000
0000
0000
0000
0000
0000
0000
0000
1000
0100
0010
0001
1000
0100
0010
0001
,
1000
0100
1000
0010
1000
0001
0100
0010
1000
0001
0100
0010
1000
0001
0010
0100
,
2000
3000
0000
0000
0000
0000
0000
0000
;

//---------------dance-single - Mad Matt----------------
#NOTES:
     dance-single:
     Mad Matt:
     Medium:
     20:
     1.000,1.000,0.000,0.148,1.000,1307.000,0.000,17.000,0.000,0.000:



0000
0000
0000
0000
,
0000
0000
0000
0000
,
0001
0000
1000
0010
0000
0010
1000
0001
,
0010
0010
0100
0000
0010
0010
0001
0000
,
1000
0000
0001
0010
0000
0010
0001
1000
,
0010
0010
0100
0000
0010
0010
1000
0000
,
0001
0000
1000
0010
0000
0010
1000
0001
,
0010
0010
0100
0000
0010
0010
0001
0000
,
1000
0100
0010
0001
1000
0010
0100
0001
,
1000
1000
0100
0000
1000
1000
0010
0000
,
0100
0001
0010
0100
1000
0010
0100
0001
,
0010
0010
0001
0000
0100
0100
0001
0000
,
1000
0010
1000
0100
1000
0001
0010
0100
1000
0001
0010
0001
1000
0010
1000
0100
,
0010
0001
1000
0010
1000
0100
0010
0001
0100
0001
1000
0100
0010
0001
1000
0100
,
1000
0001
0010
0001
0100
0001
1000
0010
0100
0001
1000
0010
1000
0001
0010
0001
,
0100
0010
1000
0001
0010
0001
0100
0010
1000
0100
1000
0001
0100
0010
1000
0001
,
0100
0010
0100
0001
1000
0100
0010
0001
,
1000
1000
0010
0000
1000
1000
0100
0000
,
0010
0001
0100
0010
1000
0100
0010
0001
,
0100
0100
0001
0000
0010
0010
0001
0000
,
1000
0100
1000
0010
1000
0001
0100
0010
1000
0001
0100
0001
1000
0100
1000
0010
,
0100
0001
1000
0100
1000
0010
0100
0001
0010
0001
1000
0010
0100
0001
1000
0010
,
1000
0001
0100
0001
0010
0001
1000
0100
0010
0001
1000
0100
1000
0001
0100
0001
,
0010
0100
1000
0001
0100
0001
0010
0100
1000
0010
1000
0001
0010
0100
1000
0001
,
1000
0010
0100
0001
1000
0100
0010
0001
,
1000
1000
0010
0000
0100
0100
0001
0000
,
1000
0100
1000
0010
0100
0010
1000
0100
,
0010
0010
0001
0000
1000
1000
0010
0000
,
0100
0001
0010
0100
0010
0001
0100
0010
,
1000
1000
0001
0000
0010
0010
0100
0000
,
1000
0100
0010
0001
0100
0010
1000
0100
,
0010
0000
0010
0000
0001
0000
0000
0000
1000
0000
0010
0000
0100
0001
1000
0100
,
1000
0010
0100
0001
1000
0100
0010
0001
,
1000
1000
0010
0000
0100
0100
0001
0000
,
1000
0100
1000
0010
0100
0010
1000
0100
,
0010
0010
0001
0000
1000
1000
0010
0000
,
0100
0001
0010
0100
0010
0001
0100
0010
,
1000
1000
0001
0000
0010
0010
0100
0000
,
1000
0100
0010
0001
0100
0010
1000
0100
,
0010
0000
0010
0000
0001
0000
0000
0000
1000
0000
0010
0000
0100
0001
1000
0010
,
1000
0100
0010
0001
1000
0010
0100
0001
,
1000
1000
0100
0000
1000
1000
0010
0000
,
0100
0001
0010
0100
1000
0010
0100
0001
,
0010
0010
0001
0000
0100
0100
0001
0000
,
1000
0010
1000
0100
1000
0001
0010
0100
1000
0001
0010
0001
1000
0010
1000
0100
,
0010
0001
1000
0010
1000
0100
0010
0001
0100
0001
1000
0100
0010
0001
1000
0100
,
1000
0001
0010
0001
0100
0001
1000
0010
0100
0001
1000
0010
1000
0001
0010
0001
,
0100
0010
1000
0001
0010
0001
0100
0010
1000
0100
1000
0001
0100
0010
1000
0001
,
1000
0000
0010
0000
0100
0000
0001
0000
1000
0100
0010
0001
1000
0100
0010
0001
,
1000
1000
0010
0000
1000
1000
0100
0000
,
0010
0000
0001
0000
0100
0000
0010
0000
1000
0010
0100
0001
1000
0010
0100
0001
,
1000
1000
0001
0000
0010
0010
0001
0000
,
1000
0100
1000
0010
1000
0001
0100
0010
1000
0001
0100
0001
0010
0100
1000
0001
,
0010
0100
1000
0001
1000
0010
0100
0001
0010
0001
1000
0010
0100
0001
1000
0010
,
1000
0001
0100
0001
0010
0001
1000
0100
0010
0001
1000
0100
1000
0010
0100
0001
,
1000
0010
0100
0001
1000
0001
0010
0100
1000
0010
1000
0001
0010
0100
1000
0001
,
2000
0000
0002
0003
,
0200
3000
0020
0030
,
2000
0300
0020
0030
,
0002
3000
0200
0300
,
0020
0003
0200
0300
,
0002
0030
0200
0300
,
2000
0003
0200
0300
,
0020
0000
0000
0000
3000
0000
0000
0000
1030
0001
0100
0001
1000
0010
0100
0001
,
1000
0010
1000
0100
1000
0001
0010
0100
1000
0001
0010
0001
1000
0010
1000
0100
,
0010
0001
1000
0010
1000
0100
0010
0001
0100
0001
1000
0100
0010
0001
1000
0100
,
1000
0001
0010
0001
0100
0001
1000
0010
0100
0001
1000
0010
1000
0001
0010
0001
,
0100
0010
1000
0001
0010
0001
0100
0010
1000
0100
1000
0001
0100
0010
1000
0001
,
0100
0001
0010
0001
1000
0100
0010
0001
1000
0100
1000
0001
0100
0001
0010
0100
,
1000
0001
0100
0001
0010
0100
1000
0010
1000
0001
0010
0100
1000
0001
0010
0001
,
1000
0100
1000
0010
1000
0001
0100
0010
1000
0001
0100
0001
1000
0100
1000
0010
,
0100
0001
1000
0100
1000
0010
0100
0001
0010
0001
1000
0010
0100
0001
1000
0010
,
1000
0100
0010
0001
1000
0010
0100
0001
,
1000
1000
0100
0000
1000
1000
0010
0000
,
0100
0001
0010
0100
1000
0010
0100
0001
,
0010
0010
0001
0000
0100
0100
0001
0000
,
1000
0010
1000
0100
1000
0001
0010
0100
1000
0001
0010
0001
1000
0010
1000
0100
,
0010
0001
1000
0010
1000
0100
0010
0001
0100
0001
1000
0100
0010
0001
1000
0100
,
1000
0001
0010
0001
0100
0001
1000
0010
0100
0001
1000
0010
1000
0001
0010
0001
,
0100
0010
1000
0001
0010
0001
0100
0010
1000
0100
1000
0001
0100
0010
1000
0001
,
1000
0010
0100
0001
1000
0100
0010
0001
,
1000
1000
0010
0000
1000
1000
0100
0000
,
0010
0001
0100
0010
1000
0100
0010
0001
,
0100
0100
0001
0000
0010
0010
0001
0000
,
1000
0100
0010
0001
0100
0010
1000
0100
,
1000
0010
0100
0001
1000
0100
0010
0001
,
1000
0010
0100
0001
0010
0100
1000
0010
,
1000
0100
0010
0001
1000
0001
1000
0001
,
1000
0100
0010
0001
0100
0001
1000
0100
0010
0100
1000
0010
,
1000
0001
0100
0010
1000
0100
1000
0001
0010
0100
1000
0010
,
1000
0001
0010
0001
0100
0010
1000
0001
1000
0100
1000
0001
,
0010
0100
0010
0001
0100
0001
1000
0100
0010
0001
0100
0001
,
1000
0100
1000
0001
0100
0010
1000
0001
1000
0100
1000
0001
,
0010
0100
0010
0001
0100
0001
1000
0010
0100
0001
0010
0001
,
1000
0100
0010
0001
0100
0001
1000
0010
1000
0100
1000
0001
,
0100
0010
1000
0001
0010
0001
1000
0100
0010
0001
0100
0010
,
1000
0001
1000
0100
1000
0010
0100
0001
1000
0001
0010
0100
,
0010
0001
1000
0010
0100
0001
1000
0100
1000
0010
0100
0001
,
1000
0010
1000
0100
0010
0100
1000
0001
0100
0001
0010
0100
,
0010
0001
1000
0010
0100
0001
1000
0100
1000
0010
0100
0001
,
1000
0001
0010
0100
0010
0001
0100
0010
1000
0001
1000
0100
,
1000
0010
0100
0001
1000
0001
0010
0001
1000
0010
0100
0010
,
1000
0100
1000
0001
0100
0010
1000
0001
0010
0001
0100
0001
,
1000
0100
0010
0100
1000
0010
0100
0001
1000
0100
0010
0100
,
1000
0100
0010
0001
0100
0001
1000
0010
0100
0001
0010
0001
1000
0100
1000
0010
,
0100
0001
1000
0010
0100
0001
1000
0100
0010
0001
0100
0001
1000
0100
0010
0001
,
1000
0010
0100
0001
0010
0001
1000
0100
0010
0001
0100
0001
1000
0010
1000
0100
,
0010
0001
1000
0100
0010
0001
1000
0010
0100
0001
0010
0001
1000
0010
0100
0001
,
1000
0001
0010
0100
1000
0010
1000
0001
0100
0010
1000
0100
1000
0001
0010
0001
,
0100
0010
1000
0001
0100
0010
1000
0001
0010
0100
1000
0010
1000
0001
0010
0100
,
1000
0001
0100
0010
1000
0100
1000
0001
0010
0100
1000
0010
1000
0001
0100
0001
,
0010
0100
1000
0001
0010
0100
1000
0001
0100
0010
1000
0100
1000
0001
0100
0010
,
1000
0001
0010
0100
1000
0001
1000
0010
0100
0001
0010
0001
1000
0100
1000
0010
,
0100
0001
1000
0010
0100
0001
1000
0100
0010
0001
0100
0001
1000
0100
0010
0001
,
1000
0010
0100
0001
0010
0001
1000
0100
0010
0001
0100
0001
1000
0010
1000
0100
,
0010
0001
1000
0100
0010
0001
1000
0010
0100
0001
0010
0001
1000
0010
0100
0001
,
1000
0001
0010
0100
1000
0010
1000
0001
0100
0010
1000
0100
1000
0001
0010
0001
,
0100
0010
1000
0001
0100
0010
1000
0001
0010
0100
1000
0010
1000
0001
0010
0100
,
1000
0001
0010
0001
0100
0001
1000
0010
0100
0001
1000
0010
1000
0100
1000
0001
,
0010
0100
1000
0001
0010
0001
1000
0010
0100
0001
1000
0100
0010
0001
0100
0010
,
2000
3000
0000
0000
,
0000
0000
0000
0000
0000
0000
0000
0000
0001
0010
0100
1000
0001
0010
0100
1000
,
0001
0010
0001
0100
0001
1000
0010
0100
0001
1000
0010
0100
0001
1000
0100
0010
,
0002
0003
0000
0000
0000
0000
0000
0000
;

//---------------dance-single - Mad Matt----------------
#NOTES:
     dance-single:
     Mad Matt:
     Challenge:
     22:
     1.000,1.000,0.000,0.148,1.000,1371.000,0.000,17.000,0.000,0.000:

0000
0000
0000
0000
,
0000
0000
0000
0000
,
0001
0000
1000
0010
0000
0010
1000
0001
,
0010
0010
0100
0000
0010
0010
0001
0000
,
1000
0000
0001
0010
0000
0010
0001
1000
,
0010
0010
0100
0000
0010
0010
1000
0000
,
0001
0000
1000
0010
0000
0010
1000
0001
,
0010
0010
0100
0000
0010
0010
0001
0000
,
1000
0100
0010
0001
1000
0010
0100
0001
,
1000
1000
0100
0000
1000
1000
0010
0000
,
0100
0001
0010
0100
1000
0010
0100
0001
,
0010
0010
0001
0000
0100
0100
0001
0000
,
1000
0010
1000
0100
1000
0001
0010
0100
1000
0001
0010
0001
1000
0010
1000
0100
,
0010
0001
1000
0010
1000
0100
0010
0001
0100
0001
1000
0100
0010
0001
1000
0100
,
1000
0001
0010
0001
0100
0001
1000
0010
0100
0001
1000
0010
1000
0001
0010
0001
,
0100
0010
1000
0001
0010
0001
0100
0010
1000
0100
1000
0001
0100
0010
1000
0001
,
0100
0010
0100
0001
1000
0100
0010
0001
,
1000
1000
0010
0000
1000
1000
0100
0000
,
0010
0001
0100
0010
1000
0100
0010
0001
,
0100
0100
0001
0000
0010
0010
0001
0000
,
1000
0100
1000
0010
1000
0001
0100
0010
1000
0001
0100
0001
1000
0100
1000
0010
,
0100
0001
1000
0100
1000
0010
0100
0001
0010
0001
1000
0010
0100
0001
1000
0010
,
1000
0001
0100
0001
0010
0001
1000
0100
0010
0001
1000
0100
1000
0001
0100
0001
,
0010
0100
1000
0001
0100
0001
0010
0100
1000
0010
1000
0001
0010
0100
1000
0001
,
1000
0010
0100
0001
1000
0100
0010
0001
,
1000
1000
0010
0000
0100
0100
0001
0000
,
1000
0100
1000
0010
0100
0010
1000
0100
,
0010
0010
0001
0000
1000
1000
0010
0000
,
0100
0001
0010
0100
0010
0001
0100
0010
,
1000
1000
0001
0000
0010
0010
0100
0000
,
1000
0100
0010
0001
0100
0010
1000
0100
,
0010
0000
0010
0000
0001
0000
0000
0000
1000
0000
0010
0000
0100
0001
1000
0100
,
1000
0010
0100
0001
1000
0100
0010
0001
,
1000
1000
0010
0000
0100
0100
0001
0000
,
1000
0100
1000
0010
0100
0010
1000
0100
,
0010
0010
0001
0000
1000
1000
0010
0000
,
0100
0001
0010
0100
0010
0001
0100
0010
,
1000
1000
0001
0000
0010
0010
0100
0000
,
1000
0100
0010
0001
0100
0010
1000
0100
,
0010
0000
0010
0000
0001
0000
0000
0000
1000
0000
0010
0000
0100
0001
1000
0010
,
1000
0100
0010
0001
1000
0010
0100
0001
,
1000
1000
0100
0000
1000
1000
0010
0000
,
0100
0001
0010
0100
1000
0010
0100
0001
,
0010
0010
0001
0000
0100
0100
0001
0000
,
1000
0010
1000
0100
1000
0001
0010
0100
1000
0001
0010
0001
1000
0010
1000
0100
,
0010
0001
1000
0010
1000
0100
0010
0001
0100
0001
1000
0100
0010
0001
1000
0100
,
1000
0001
0010
0001
0100
0001
1000
0010
0100
0001
1000
0010
1000
0001
0010
0001
,
0100
0010
1000
0001
0010
0001
0100
0010
1000
0100
1000
0001
0100
0010
1000
0001
,
1000
0000
0010
0000
0100
0000
0001
0000
1000
0100
0010
0001
1000
0100
0010
0001
,
1000
1000
0010
0000
1000
1000
0100
0000
,
0010
0000
0001
0000
0100
0000
0010
0000
1000
0010
0100
0001
1000
0010
0100
0001
,
1000
1000
0001
0000
0010
0010
0001
0000
,
1000
0100
1000
0010
1000
0001
0100
0010
1000
0001
0100
0001
0010
0100
1000
0001
,
0010
0100
1000
0001
1000
0010
0100
0001
0010
0001
1000
0010
0100
0001
1000
0010
,
1000
0001
0100
0001
0010
0001
1000
0100
0010
0001
1000
0100
1000
0010
0100
0001
,
1000
0010
0100
0001
1000
0001
0010
0100
1000
0010
1000
0001
0010
0100
1000
0001
,
2000
0000
0002
0003
,
0200
3000
0020
0030
,
2000
0300
0020
0030
,
0002
3000
0200
0300
,
0020
0003
0200
0300
,
0002
0030
0200
0300
,
2000
0003
0200
0300
,
0020
0000
0000
0000
3000
0000
0000
0000
1030
0001
0100
0001
1000
0010
0100
0001
,
1000
0010
1000
0100
1000
0001
0010
0100
1000
0001
0010
0001
1000
0010
1000
0100
,
0010
0001
1000
0010
1000
0100
0010
0001
0100
0001
1000
0100
0010
0001
1000
0100
,
1000
0001
0010
0001
0100
0001
1000
0010
0100
0001
1000
0010
1000
0001
0010
0001
,
0100
0010
1000
0001
0010
0001
0100
0010
1000
0100
1000
0001
0100
0010
1000
0001
,
0100
0001
0010
0001
1000
0100
0010
0001
1000
0100
1000
0001
0100
0001
0010
0100
,
1000
0001
0100
0001
0010
0100
1000
0010
1000
0001
0010
0100
1000
0001
0010
0001
,
1000
0100
1000
0010
1000
0001
0100
0010
1000
0001
0100
0001
1000
0100
1000
0010
,
0100
0001
1000
0100
1000
0010
0100
0001
0010
0001
1000
0010
0100
0001
1000
0010
,
1000
0100
0010
0001
1000
0010
0100
0001
,
1000
1000
0100
0000
1000
1000
0010
0000
,
0100
0001
0010
0100
1000
0010
0100
0001
,
0010
0010
0001
0000
0100
0100
0001
0000
,
1000
0010
1000
0100
1000
0001
0010
0100
1000
0001
0010
0001
1000
0010
1000
0100
,
0010
0001
1000
0010
1000
0100
0010
0001
0100
0001
1000
0100
0010
0001
1000
0100
,
1000
0001
0010
0001
0100
0001
1000
0010
0100
0001
1000
0010
1000
0001
0010
0001
,
0100
0010
1000
0001
0010
0001
0100
0010
1000
0100
1000
0001
0100
0010
1000
0001
,
1000
0010
0100
0001
1000
0100
0010
0001
,
1000
1000
0010
0000
1000
1000
0100
0000
,
0010
0001
0100
0010
1000
0100
0010
0001
,
0100
0100
0001
0000
0010
0010
0001
0000
,
1000
0100
0010
0001
0100
0010
1000
0100
,
1000
0010
0100
0001
1000
0100
0010
0001
,
1000
0010
0100
0001
0010
0100
1000
0010
,
1000
0100
0010
0001
1000
0001
1000
0001
,
1000
0100
0010
0001
0100
0001
1000
0010
0100
0001
0010
0001
1000
0100
1000
0010
,
0100
0001
1000
0010
0100
0001
1000
0100
0010
0001
0100
0001
1000
0100
0010
0001
,
1000
0010
0100
0001
0010
0001
1000
0100
0010
0001
0100
0001
1000
0010
1000
0100
,
0010
0001
1000
0100
0010
0001
1000
0010
0100
0001
0010
0001
1000
0010
0100
0001
,
1000
0001
0010
0100
1000
0010
1000
0001
0100
0010
1000
0100
1000
0001
0010
0001
,
0100
0010
1000
0001
0100
0010
1000
0001
0010
0100
1000
0010
1000
0001
0010
0100
,
1000
0001
0100
0010
1000
0100
1000
0001
0010
0100
1000
0010
1000
0001
0100
0001
,
0010
0100
1000
0001
0010
0100
1000
0001
0100
0010
1000
0100
1000
0001
0100
0010
,
1000
0001
0010
0100
1000
0001
1000
0010
0100
0001
0010
0001
1000
0100
1000
0010
,
0100
0001
1000
0010
0100
0001
1000
0100
0010
0001
0100
0001
1000
0100
0010
0001
,
1000
0010
0100
0001
0010
0001
1000
0100
0010
0001
0100
0001
1000
0010
1000
0100
,
0010
0001
1000
0100
0010
0001
1000
0010
0100
0001
0010
0001
1000
0010
0100
0001
,
1000
0001
0010
0100
1000
0010
1000
0001
0100
0010
1000
0100
1000
0001
0010
0001
,
0100
0010
1000
0001
0100
0010
1000
0001
0010
0100
1000
0010
1000
0001
0010
0100
,
1000
0001
0100
0010
1000
0100
1000
0001
0010
0100
1000
0010
1000
0001
0100
0001
,
0010
0100
1000
0001
0010
0100
1000
0001
0100
0010
1000
0100
1000
0001
0100
0010
,
1000
0001
0010
0100
0010
0001
0100
0001
1000
0100
0010
0100
1000
0010
1000
0001
,
0100
0001
1000
0010
1000
0100
1000
0001
0100
0001
1000
0100
0010
0100
1000
0001
,
1000
0010
0100
0010
1000
0100
1000
0001
0100
0010
0100
0001
0010
0001
1000
0100
,
1000
0001
0010
0001
0100
0001
1000
0100
1000
0001
0100
0010
0100
0001
1000
0100
,
0010
0001
0010
0100
1000
0010
1000
0001
0010
0100
0010
0001
0100
0001
1000
0010
,
1000
0001
0100
0001
0010
0001
1000
0010
1000
0001
0010
0100
0010
0001
1000
0001
,
0100
0010
0100
0001
0010
0001
1000
0010
0100
0010
1000
0100
1000
0001
0010
0001
,
1000
0100
1000
0010
1000
0001
0010
0001
1000
0010
0100
0010
1000
0001
1000
0100
,
1000
0001
0100
0010
0100
0001
0010
0001
1000
0010
0100
0010
1000
0100
1000
0001
,
0010
0001
1000
0100
1000
0010
1000
0001
0010
0001
1000
0010
0100
0010
1000
0001
,
1000
0100
0010
0100
1000
0010
1000
0001
0010
0100
0010
0001
0100
0001
1000
0010
,
1000
0001
0100
0001
0010
0001
1000
0010
1000
0001
0010
0100
0010
0001
1000
0010
,
0100
0001
0100
0010
1000
0100
1000
0001
0100
0010
0100
0001
0010
0001
1000
0100
,
1000
0001
0010
0001
0100
0001
1000
0100
1000
0001
0100
0010
0100
0001
1000
0001
,
0010
0001
0100
0010
0100
0001
1000
0100
1000
0010
0100
0010
1000
0001
0010
0001
,
1000
0100
0010
0100
1000
0010
0100
0001
1000
0001
0010
0100
0010
0001
0100
0010
,
2000
3000
0000
0000
,
0000
0000
0000
0000
0000
0000
0000
0000
0001
0010
0100
1000
0001
0010
0100
1000
,
0001
0010
0001
0100
0001
1000
0010
0100
0001
1000
0010
0100
0001
1000
0100
0010
,
0002
0003
0000
0000
0000
0000
0000
0000
;

//---------------dance-single - Mad Matt----------------
#NOTES:
     dance-single:
     Mad Matt:
     Beginner:
     18:
     1.000,1.000,0.000,0.148,1.000,1245.000,0.000,17.000,0.000,0.000:










0000
0000
0000
0000
,
0000
0000
0000
0000
,
0001
0000
1000
0010
0000
0010
1000
0001
,
0010
0010
0100
0000
0010
0010
0001
0000
,
1000
0000
0001
0010
0000
0010
0001
1000
,
0010
0010
0100
0000
0010
0010
1000
0000
,
0001
0000
1000
0010
0000
0010
1000
0001
,
0010
0010
0100
0000
0010
0010
0001
0000
,
1000
0100
0010
0001
1000
0010
0100
0001
,
1000
1000
0100
0000
1000
1000
0010
0000
,
0100
0001
0010
0100
1000
0010
0100
0001
,
0010
0010
0001
0000
0100
0100
0001
0000
,
1000
0100
0010
0100
1000
0001
1000
0010
0100
0001
1000
0001
0010
0100
1000
0001
,
1000
0010
0100
0001
1000
0001
0010
0001
1000
0010
0100
0001
1000
0100
1000
0001
,
1000
0010
0100
0010
1000
0001
1000
0100
0010
0001
1000
0001
0100
0010
1000
0001
,
1000
0100
0010
0001
1000
0001
0100
0001
1000
0100
0010
0001
1000
0010
1000
0001
,
1000
0010
0100
0001
1000
0100
0010
0001
,
1000
1000
0010
0000
1000
1000
0100
0000
,
0010
0001
0100
0010
1000
0100
0010
0001
,
0100
0100
0001
0000
0010
0010
0001
0000
,
1000
0010
0100
0010
1000
0001
1000
0100
0010
0001
1000
0001
0100
0010
1000
0001
,
1000
0100
0010
0001
1000
0001
0100
0001
1000
0100
0010
0001
1000
0010
1000
0001
,
1000
0100
0010
0100
1000
0001
1000
0010
0100
0001
1000
0001
0010
0100
1000
0001
,
1000
0010
0100
0001
1000
0001
0010
0001
1000
0010
0100
0001
1000
0100
1000
0001
,
1000
0010
0100
0001
1000
0100
0010
0001
,
1000
1000
0010
0000
0100
0100
0001
0000
,
1000
0100
1000
0010
0100
0010
1000
0100
,
0010
0010
0001
0000
1000
1000
0010
0000
,
0100
0001
0010
0100
0010
0001
0100
0010
,
1000
1000
0001
0000
0010
0010
0100
0000
,
1000
0100
0010
0001
0100
0010
1000
0100
,
0010
0000
0010
0000
0001
0000
0000
0000
1000
0000
0010
0000
0100
0001
1000
0100
,
1000
0010
0100
0001
1000
0100
0010
0001
,
1000
1000
0010
0000
0100
0100
0001
0000
,
1000
0100
1000
0010
0100
0010
1000
0100
,
0010
0010
0001
0000
1000
1000
0010
0000
,
0100
0001
0010
0100
0010
0001
0100
0010
,
1000
1000
0001
0000
0010
0010
0100
0000
,
1000
0100
0010
0001
0100
0010
1000
0100
,
0010
0000
0010
0000
0001
0000
0000
0000
1000
0000
0010
0000
0100
0001
1000
0010
,
1000
0100
0010
0001
1000
0010
0100
0001
,
1000
1000
0100
0000
1000
1000
0010
0000
,
0100
0001
0010
0100
1000
0010
0100
0001
,
0010
0010
0001
0000
0100
0100
0001
0000
,
1000
0100
0010
0100
1000
0001
1000
0010
0100
0001
1000
0001
0010
0100
1000
0001
,
1000
0010
0100
0001
1000
0001
0010
0001
1000
0010
0100
0001
1000
0100
1000
0001
,
1000
0010
0100
0010
1000
0001
1000
0100
0010
0001
1000
0001
0100
0010
1000
0001
,
1000
0100
0010
0001
1000
0001
0100
0001
1000
0100
0010
0001
1000
0010
1000
0001
,
1000
0000
0010
0000
0100
0000
0001
0000
1000
0100
0010
0001
1000
0100
0010
0001
,
1000
1000
0010
0000
1000
1000
0100
0000
,
0010
0000
0001
0000
0100
0000
0010
0000
1000
0010
0100
0001
1000
0010
0100
0001
,
1000
1000
0001
0000
0010
0010
0001
0000
,
1000
0010
0100
0010
1000
0001
1000
0100
0010
0001
1000
0001
0100
0010
1000
0001
,
0100
0010
1000
0001
0010
0100
1000
0001
1000
0010
0100
0001
1000
0100
1000
0001
,
1000
0010
0100
0010
1000
0001
1000
0100
0010
0001
1000
0001
0100
0010
1000
0001
,
0100
0010
1000
0001
1000
0100
0010
0100
1000
0001
0010
0001
1000
0010
1000
0001
,
2000
0000
0002
0003
,
0200
3000
0020
0030
,
2000
0300
0020
0030
,
0002
3000
0200
0300
,
0020
0003
0200
0300
,
0002
0030
0200
0300
,
2000
0003
0200
0300
,
0020
0000
0000
0000
3000
0000
0000
0000
0130
0001
1000
0001
0100
0010
1000
0001
,
1000
0100
0010
0100
1000
0001
1000
0010
0100
0001
1000
0001
0010
0100
1000
0001
,
1000
0010
0100
0001
1000
0001
0010
0001
1000
0010
0100
0001
1000
0100
1000
0001
,
1000
0010
0100
0010
1000
0001
1000
0100
0010
0001
1000
0001
0100
0010
1000
0001
,
1000
0100
0010
0001
1000
0001
0100
0001
1000
0100
0010
0001
1000
0010
1000
0001
,
0100
0010
0100
0001
1000
0001
0010
0100
1000
0001
1000
0010
0100
0001
1000
0001
,
0010
0100
1000
0001
1000
0010
1000
0001
0010
0100
1000
0001
0100
0001
1000
0001
,
0010
0100
0010
0001
1000
0001
0100
0010
1000
0001
1000
0100
0010
0001
1000
0001
,
0100
0010
1000
0001
1000
0100
1000
0001
0100
0010
1000
0001
1000
0100
0010
0001
,
1000
0100
0010
0001
1000
0010
0100
0001
,
1000
1000
0100
0000
1000
1000
0010
0000
,
0100
0001
0010
0100
1000
0010
0100
0001
,
0010
0010
0001
0000
0100
0100
0001
0000
,
1000
0010
0100
0010
1000
0001
1000
0100
0010
0001
1000
0001
0100
0010
1000
0001
,
1000
0100
0010
0001
1000
0001
0100
0001
1000
0100
0010
0001
1000
0010
1000
0001
,
1000
0100
0010
0100
1000
0001
1000
0010
0100
0001
1000
0001
0010
0100
1000
0001
,
1000
0010
0100
0001
1000
0001
0010
0001
1000
0010
0100
0001
1000
0100
1000
0001
,
1000
0000
0001
0001
0000
0100
0100
0000
,
0001
0001
0100
0000
0001
0001
0010
0000
,
0001
0000
1000
1000
0000
0100
0100
0000
,
1000
1000
0100
0000
1000
1000
0010
0000
,
1000
0100
0010
0001
0100
0010
1000
0100
,
1000
0010
0100
0001
1000
0100
0010
0001
,
1000
0010
0100
0001
0010
0100
1000
0010
,
1000
0100
0010
0001
1000
0001
1000
0001
,
1000
0100
0010
0001
0100
0001
1000
0100
0010
0100
1000
0010
,
1000
0001
0100
0010
1000
0100
1000
0001
0010
0100
1000
0010
,
1000
0001
0010
0001
0100
0010
1000
0001
1000
0100
1000
0001
,
0010
0100
0010
0001
0100
0001
1000
0100
0010
0001
0100
0001
,
1000
0100
1000
0001
0100
0010
1000
0001
1000
0100
1000
0001
,
0010
0100
0010
0001
0100
0001
1000
0010
0100
0001
0010
0001
,
1000
0100
0010
0001
0100
0001
1000
0010
1000
0100
1000
0001
,
0100
0010
1000
0001
0010
0001
1000
0100
0010
0001
0100
0010
,
1000
0001
1000
0100
1000
0010
0100
0001
1000
0001
0010
0100
,
0010
0001
1000
0010
0100
0001
1000
0100
1000
0010
0100
0001
,
1000
0010
1000
0100
0010
0100
1000
0001
0100
0001
0010
0100
,
0010
0001
1000
0010
0100
0001
1000
0100
1000
0010
0100
0001
,
1000
0001
0010
0100
0010
0001
0100
0010
1000
0001
1000
0100
,
1000
0010
0100
0001
1000
0001
0010
0001
1000
0010
0100
0010
,
1000
0100
1000
0001
0100
0010
1000
0001
0010
0001
0100
0001
,
1000
0100
0010
0100
1000
0010
0100
0001
1000
0100
0010
0100
,
1000
0010
0100
0001
0010
0001
1000
0010
0100
0010
1000
0100
,
1000
0001
0010
0100
1000
0010
1000
0001
0100
0010
1000
0100
,
1000
0001
0100
0001
0010
0100
1000
0001
1000
0010
1000
0001
,
0100
0010
0100
0001
0010
0001
1000
0010
0100
0001
0010
0001
,
1000
0010
1000
0001
0010
0100
1000
0001
1000
0010
1000
0001
,
0100
0010
0100
0001
0010
0001
1000
0100
0010
0001
0100
0001
,
1000
0010
0100
0001
0010
0001
1000
0100
1000
0010
1000
0001
,
0010
0100
1000
0001
0100
0001
1000
0010
0100
0001
0010
0100
,
1000
0001
1000
0010
1000
0100
0010
0001
1000
0001
0100
0010
,
0100
0001
1000
0100
0010
0001
1000
0010
1000
0100
0010
0001
,
1000
0100
1000
0010
0100
0010
1000
0001
0010
0001
0100
0010
,
0100
0001
1000
0100
0010
0001
1000
0010
1000
0100
0010
0001
,
1000
0001
0100
0010
0100
0001
0010
0100
1000
0001
1000
0010
,
1000
0100
0010
0001
1000
0001
0100
0001
1000
0100
0010
0100
,
1000
0001
1000
0100
0010
0100
1000
0001
0010
0100
0010
0001
1000
0001
0100
0010
,
0100
0001
1000
0010
0100
0010
1000
0001
0100
0001
1000
0100
1000
0001
0010
0001
,
2000
3000
0000
0000
,
0000
0000
0000
0000
0000
0000
0000
0000
0001
0010
0100
1000
0001
0010
0100
1000
,
0001
0010
0001
0100
0001
1000
0010
0100
0001
1000
0010
0100
0001
1000
0100
0010
,
0002
0003
0000
0000
0000
0000
0000
0000
;
