#TITLE:Negimaniax;
#SUBTITLE:;
#ARTIST:DJ Doll's Renaissance;
#TITLETRANSLIT:;
#SUBTITLETRANSLIT:;
#ARTISTTRANSLIT:;
#CREDIT:;
#BANNER:negimaniax bn.png;
#BACKGROUND:negimaniax bg.png;
#LYRICSPATH:;
#CDTITLE:;
#MUSIC:negimaniax.ogg;
#OFFSET:-0.169;
#SAMPLESTART:247.815;
#SAMPLELENGTH:19.810;
#SELECTABLE:YES;
#BPMS:0.000=193.832;
#STOPS:;
#BGCHANGES:;
// cache tags:
#FIRSTBEAT:28.000;
#LASTBEAT:936.000;
#SONGFILENAME:Songs/SHARPNELSTREAMZ v2/Negimaniax/negimaniax.sm;
#HASMUSIC:1;
#HASBANNER:1;
#MUSICLENGTH:295.444;
// end cache tags

//---------------dance-single - 16+ (TYLR)----------------
#NOTES:
     dance-single:
     16+ (TYLR):
     Challenge:
     16:
     1.000,1.000,0.037,0.413,1.000,2941.000,11.000,122.000,4.000,0.000:

0000
0000
0000
0000
,
0000
0000
0000
0000
,
0000
0000
0000
0000
,
0000
0000
0000
0000
,
0000
0000
0000
0000
,
0000
0000
0000
0000
,
0000
0000
0000
0000
,
1001
0000
0000
0000
0000
0000
0000
0000
0000
0000
0000
0000
0000
0000
0000
0000
0004
0003
0040
0030
0400
0300
4000
3000
0020
0000
0000
0000
0030
0000
0000
0000
,
1000
0001
0100
0000
0010
1000
0001
0000
1000
0001
1000
0100
0000
0010
0001
0000
,
1000
0001
0010
0000
0100
1000
0001
0000
1000
0100
0010
0001
0000
1000
0001
0000
,
1000
0010
0100
0000
0010
1000
0001
0000
1000
0001
1000
0100
0000
0010
0001
0000
,
1000
0001
0100
0000
0010
1000
0001
0000
1000
0100
0010
0001
0100
0000
0100
0000
,
0001
1000
0010
0000
0100
0001
1000
0000
0001
1000
0001
0010
0000
0100
1000
0000
,
0001
1000
0010
0000
0100
0001
1000
0000
0001
1000
0001
0010
0000
0100
1000
0000
,
0001
1000
0010
0000
0100
0001
1000
0000
0001
1000
0001
0010
0000
0100
1000
0001
,
0200
0000
0300
0000
0000
0101
0001
1000
,
0001
0010
0100
0000
1000
0001
0100
0000
0010
1000
0001
0010
0000
0100
1000
0000
,
0001
1000
0010
0000
0100
0001
1000
0000
0001
0010
0100
1000
0000
0001
1000
0000
,
0001
0100
0010
0000
1000
0001
0010
0000
0100
1000
0010
0100
0000
0001
1000
0000
,
0001
0010
0100
0000
1000
0001
0100
0000
0010
1000
0100
0010
0001
0000
0001
0000
,
1000
0010
0100
0000
0001
1000
0100
0000
0010
0001
1000
0010
0000
0100
0001
0000
,
0010
0100
1000
0000
0001
0100
0010
0000
1000
0100
0010
0001
0000
1000
0001
0000
,
1000
0010
0100
0000
0001
1000
0100
0000
0010
0001
0100
0010
0000
1000
0001
0010
,
0200
0000
0000
0000
0000
0000
0000
0000
1300
0000
0000
0000
0000
0000
0000
0000
0004
0003
0400
0300
0004
0003
0400
0300
0020
0000
0000
0000
0030
0000
0000
0000
,
1000
0100
0010
0000
0001
1000
0010
0000
0100
0001
1000
0100
0000
0010
0001
0000
,
1000
0001
0100
0000
0010
1000
0001
0000
1000
0100
0010
0001
0000
1000
0001
0000
,
1000
0010
0100
0000
0001
1000
0100
0000
0010
0001
0100
0010
0000
1000
0001
0000
,
1000
0100
0010
0000
0001
1000
0010
0000
0100
0001
0010
0100
1000
0000
1000
0000
,
0001
0100
0010
0000
1000
0001
0010
0000
0100
1000
0001
0100
0000
0010
1000
0000
,
0100
0010
0001
0000
1000
0010
0100
0000
0001
0010
0100
1000
0000
0001
1000
0000
,
0001
0100
0010
0000
1000
0001
0010
0000
0100
1000
0010
0100
0000
0001
1000
0100
,
1000
0000
0000
0000
0000
0100
0010
0010
,
0001
1000
0100
0010
0100
1000
0001
1000
0001
0100
0010
1000
0010
0100
0001
0010
,
0100
1000
0001
0100
0001
1000
0100
0010
0001
1000
0010
0100
0010
1000
0100
0010
,
0001
0100
0010
1000
0010
0100
0001
1000
0001
0010
0100
1000
0100
0010
0001
0100
,
0010
1000
0001
0010
0001
1000
0010
0100
0001
1000
0100
0010
0100
1000
0010
0100
,
0001
0010
0100
1000
0100
0010
0001
1000
0001
0100
0010
1000
0010
0100
0001
0010
,
0100
1000
0001
0100
0001
1000
0100
0010
0001
1000
0010
0100
0010
1000
0100
0010
,
0001
0100
0010
1000
0010
0100
0001
1000
0001
0010
0100
1000
0100
0010
0001
1000
,
0001
0000
0000
0000
0000
0000
0000
0000
1000
0000
0000
0000
0000
0000
0000
0000
0004
0003
0040
0030
0004
0003
0040
0030
0200
0000
0000
0000
0300
0000
0000
0000
,
1000
0100
0010
0001
0010
0100
1000
0001
1000
0010
0100
0001
0100
0010
1000
0100
,
0010
0001
1000
0010
1000
0001
0010
0100
1000
0001
0100
0010
0100
0001
0010
0100
,
1000
0010
0100
0001
0100
0010
1000
0001
1000
0100
0010
0001
0010
0100
1000
0010
,
0100
0001
1000
0100
1000
0001
0100
0010
1000
0001
0010
0100
0010
0001
0100
0010
,
1000
0100
0010
0001
0010
0100
1000
0001
1000
0010
0100
0001
0100
0010
1000
0100
,
0010
0001
1000
0010
1000
0001
0010
0100
1000
0001
0100
0010
0100
0001
0010
0100
,
1000
0010
0100
0001
0100
0010
1000
0001
1000
0100
0010
0001
0010
0100
1000
0001
,
2000
0000
3001
0200
0000
0301
0020
0230
,
1300
0001
0100
0010
0100
0001
1000
0100
0010
0100
1000
0001
0100
0010
1000
0100
,
0010
0001
1000
0010
1000
0001
0010
0100
1000
0001
0100
0010
0100
0001
0010
0100
,
1000
0010
0100
0001
0100
0010
1000
0001
1000
0100
0010
0001
0010
0100
1000
0010
,
0100
0001
1000
0100
1000
0001
0100
0010
1000
0001
0010
0100
0010
0001
0100
0010
,
1000
0100
0010
0001
0010
0100
1000
0001
1000
0010
0100
0001
0100
0010
1000
0100
,
0010
0001
1000
0010
1000
0001
0010
0100
1000
0001
0100
0010
0100
0001
0010
0100
,
1000
0010
0100
0001
0100
0010
1000
0001
0010
0100
1000
0100
0010
0001
0100
0010
,
1000
0000
0001
0000
1000
0000
0100
0000
0010
0000
0100
0000
1000
0000
0001
0000
4000
3000
0040
0030
4000
3000
0040
0030
0200
0000
0000
0000
0000
0000
0000
0000
,
0301
1000
0100
0010
0100
1000
0001
1000
0001
0100
0010
1000
0010
0100
0001
0010
,
0100
1000
0001
0100
0001
1000
0100
0010
0001
1000
0010
0100
0010
1000
0100
0010
,
0001
0100
0010
1000
0010
0100
0001
1000
0001
0010
0100
1000
0100
0010
0001
0100
,
0010
1000
0001
0010
0001
1000
0010
0100
0001
1000
0100
0010
0100
1000
0010
0100
,
0001
1000
0001
0010
0100
1000
0100
0010
0001
1000
0001
1000
0010
1000
0010
0100
,
0001
1000
0001
0100
0010
1000
0001
1000
0100
0010
0001
1000
0010
0100
0001
0010
,
0100
1000
0100
0010
0001
0100
0001
1000
0100
0010
0001
0100
0010
1000
0100
0010
,
0001
0000
0000
0000
0000
0000
0000
0000
0000
0000
0000
0000
0000
0000
0000
0000
4000
3000
0040
0030
0400
0300
0004
0003
2000
0000
0000
0000
3000
0000
0000
0000
,
0001
0010
0100
1000
0010
1000
0001
0100
0010
1000
0001
1000
0100
0010
0001
1000
,
0001
0010
0100
1000
0010
1000
0001
1000
0010
0100
0001
1000
0100
0010
0001
1000
,
0001
0010
0100
1000
0010
1000
0001
0100
0010
1000
0001
1000
0100
0010
0001
1000
,
0001
0010
0100
1000
0010
1000
0001
1000
0010
0100
0001
1000
0100
0010
0001
1000
,
0001
0100
0010
1000
0100
1000
0001
0010
0100
1000
0001
1000
0010
0100
0001
1000
,
0001
0100
0010
1000
0100
1000
0001
1000
0100
0010
0001
1000
0010
0100
0001
1000
,
0001
0100
0010
1000
0100
1000
0001
0010
0100
1000
0001
1000
0010
0100
0001
1000
,
0001
0100
0010
1000
0100
1000
0001
1000
0100
0010
0001
1000
0010
0100
0001
1000
,
0001
0010
0100
1000
0010
1000
0001
0100
0010
1000
0001
1000
0100
0010
0001
1000
,
0001
0010
0100
1000
0010
1000
0001
1000
0010
0100
0001
1000
0100
0010
0001
1000
,
0001
0010
0100
1000
0010
1000
0001
0100
0010
1000
0001
1000
0100
0010
0001
1000
,
0001
0010
0100
1000
0010
1000
0001
1000
0010
0100
0001
1000
0100
0010
0001
1000
,
0001
0100
0010
1000
0100
1000
0001
0010
0100
1000
0001
1000
0010
0100
0001
1000
,
0001
0100
0010
1000
0100
1000
0001
1000
0100
0010
0001
1000
0010
0100
0001
1000
,
0001
0100
0010
1000
0100
1000
0001
0010
0100
1000
0001
1000
0010
0100
0001
1000
,
0001
0000
0000
0000
0022
0033
2002
3003
,
1000
0100
0010
0001
0100
0001
1000
0010
0100
0001
1000
0001
0010
0100
1000
0001
,
1000
0100
0010
0001
0100
0001
1000
0001
0100
0010
1000
0001
0010
0100
1000
0001
,
1000
0100
0010
0001
0100
0001
1000
0010
0100
0001
1000
0001
0010
0100
1000
0001
,
1000
0100
0010
0001
0100
0001
1000
0001
0100
0010
1000
0001
0010
0100
1000
0001
,
1000
0010
0100
0001
0010
0001
1000
0100
0010
0001
1000
0001
0100
0010
1000
0001
,
1000
0010
0100
0001
0010
0001
1000
0001
0010
0100
1000
0001
0100
0010
1000
0001
,
1000
0010
0100
0001
0010
0001
1000
0100
0010
0001
1000
0001
0100
0010
1000
0001
,
1000
0010
0100
0001
0010
0001
1000
0001
0010
0100
1000
0001
0100
0010
1000
0001
,
1000
0100
0010
0001
0100
0001
1000
0010
0100
0001
1000
0001
0010
0100
1000
0001
,
1000
0100
0010
0001
0100
0001
1000
0001
0100
0010
1000
0001
0010
0100
1000
0001
,
1000
0100
0010
0001
0100
0001
1000
0010
0100
0001
1000
0001
0010
0100
1000
0001
,
1000
0100
0010
0001
0100
0001
1000
0001
0100
0010
1000
0001
0010
0100
1000
0001
,
1000
0010
0100
0001
0010
0001
1000
0100
0010
0001
1000
0001
0100
0010
1000
0001
,
1000
0010
0100
0001
0010
0001
1000
0001
0010
0100
1000
0001
0100
0010
1000
0001
,
0010
0100
0010
0100
1000
0001
1000
0001
1000
0010
0100
0001
0010
0100
1000
0010
,
010M
0000
0000
0000
0000
0000
0000
0000
0000
0000
0002
0000
0023
0000
0230
0300
,
2100
0000
3020
0000
0230
0000
0302
2003
,
0000
0000
0000
0000
0000
0000
0000
0000
0000
0000
0000
0000
0000
0000
0000
0000
0000
0000
0000
0000
0000
0000
0000
0000
3200
0000
0000
0000
0000
0000
0000
0000
0000
0000
0000
0000
0000
0000
0000
0000
0000
0000
0000
0000
0000
0000
0000
0000
2300
0000
0000
0000
0000
0000
0000
0000
0000
0000
0000
0000
0000
0000
0000
0000
0000
0000
0000
0000
0000
0000
0000
0000
3020
0000
0000
0000
0000
0000
0000
0000
0000
0000
0000
0000
0000
0000
0000
0000
0000
0000
0000
0000
0000
0000
0000
0000
0230
0000
0000
0000
0000
0000
0000
0000
0000
0000
0000
0000
0000
0000
0000
0000
0000
0000
0000
0000
0000
0000
0000
0000
0000
0000
0000
0000
0000
0000
0000
0000
0000
0000
0000
0000
0000
0000
0000
0000
0000
0000
0300
0000
0000
0000
0000
0000
0200
0000
0000
0000
0000
0000
0000
0000
0000
0000
0000
0000
0000
0000
0000
0000
0000
0000
0000
0000
0000
0000
0000
0000
0000
0000
0000
0000
0000
0000
0000
0000
0000
0000
0000
0000
0000
0000
0000
0000
0300
0000
0000
0000
0000
0000
0000
0000
,
0200
0000
0000
0000
0000
0000
0000
0000
0000
0000
0000
0000
0000
0000
0000
0000
0000
0000
0000
0000
0000
0000
0000
0000
0000
0000
0000
0000
0000
0000
0000
0000
0000
0000
0000
0000
0300
0000
0000
0000
0000
0000
0000
0000
0000
0000
0000
0000
0200
0000
0000
0000
0000
0000
0000
0000
0000
0000
0000
0000
0000
0000
0000
0000
0000
0000
0000
0000
0000
0000
0000
0000
0000
0000
0000
0000
0000
0000
0000
0000
0300
0000
0000
0000
0000
0000
0000
0000
0000
0000
0000
0000
0000
0000
0000
0000
0200
0000
0000
0000
0000
0000
0000
0000
0000
0000
0000
0000
0000
0000
0000
0000
0000
0000
0000
0000
0000
0000
0000
0000
0000
0000
0000
0000
0000
0000
0300
0000
0000
0000
0000
0000
0000
0000
0000
0000
0000
0000
0000
0000
0000
0000
0000
0000
0200
0000
0000
0000
0000
0000
0000
0000
0000
0000
0000
0000
0000
0000
0000
0000
0000
0000
0000
0000
0000
0000
0000
0000
0000
0000
0000
0000
0300
0000
0000
0000
0000
0000
0000
0000
0000
0000
0000
0000
0000
0000
0000
0000
0000
0000
0000
0000
,
0200
0000
0000
0000
0300
0000
0000
0000
0200
0000
0000
0300
0000
0000
0000
0000
0200
0000
0300
0000
0000
0000
0000
0000
0200
0300
0000
0000
0000
0000
0000
0000
,
0001
0100
0010
1000
,
0100
0010
0001
1000
,
0010
0100
0001
1000
,
0100
0000
0000
0000
0010
0000
0000
0000
0M00
0000
0002
0000
2003
0000
3020
0030
,
0210
0000
0302
0000
0023
0000
0230
2300
,
0000
0000
0000
0000
0000
0000
0000
0000
0000
0000
0000
0000
0000
0000
0000
0000
0000
0000
0000
0000
0000
0000
0000
0000
3020
0000
0000
0000
0000
0000
0000
0000
0000
0000
0000
0000
0000
0000
0000
0000
0000
0000
0000
0000
0000
0000
0000
0000
2030
0000
0000
0000
0000
0000
0000
0000
0000
0000
0000
0000
0000
0000
0000
0000
0000
0000
0000
0000
0000
0000
0000
0000
3002
0000
0000
0000
0000
0000
0000
0000
0000
0000
0000
0000
0000
0000
0000
0000
0000
0000
0000
0000
0000
0000
0000
0000
0023
0000
0000
0000
0000
0000
0000
0000
0000
0000
0000
0000
0000
0000
0000
0000
0000
0000
0000
0000
0000
0000
0000
0000
0000
0000
0000
0000
0000
0000
0000
0000
0000
0000
0000
0000
0000
0000
0000
0000
0000
0000
0030
0000
0000
0000
0000
0000
0020
0000
0000
0000
0000
0000
0000
0000
0000
0000
0000
0000
0000
0000
0000
0000
0000
0000
0000
0000
0000
0000
0000
0000
0000
0000
0000
0000
0000
0000
0000
0000
0000
0000
0000
0000
0000
0000
0000
0000
0030
0000
0000
0000
0000
0000
0000
0000
,
0020
0000
0000
0000
0000
0000
0000
0000
0000
0000
0000
0000
0000
0000
0000
0000
0000
0000
0000
0000
0000
0000
0000
0000
0000
0000
0000
0000
0000
0000
0000
0000
0000
0000
0000
0000
0030
0000
0000
0000
0000
0000
0000
0000
0000
0000
0000
0000
0020
0000
0000
0000
0000
0000
0000
0000
0000
0000
0000
0000
0000
0000
0000
0000
0000
0000
0000
0000
0000
0000
0000
0000
0000
0000
0000
0000
0000
0000
0000
0000
0000
0000
0000
0000
0030
0000
0000
0000
0000
0000
0000
0000
0000
0000
0000
0000
0020
0000
0000
0000
0000
0000
0000
0000
0000
0000
0000
0000
0000
0000
0000
0000
0000
0000
0000
0000
0000
0000
0000
0000
0000
0000
0000
0000
0000
0000
0000
0000
0030
0000
0000
0000
0000
0000
0000
0000
0000
0000
0000
0000
0000
0000
0000
0000
0020
0000
0000
0000
0000
0000
0000
0000
0000
0000
0000
0000
0000
0000
0000
0000
0000
0000
0000
0000
0000
0000
0000
0000
0000
0000
0000
0000
0000
0000
0030
0000
0000
0000
0000
0000
0000
0000
0000
0000
0000
0000
0000
0000
0000
0000
0000
0000
,
0020
0000
0000
0000
0000
0000
0000
0000
0000
0000
0000
0000
0000
0000
0000
0000
0000
0000
0000
0000
0000
0000
0000
0000
0000
0000
0000
0000
0030
0000
0000
0000
0000
0000
0000
0000
0000
0000
0000
0000
0000
0000
0000
0000
0000
0000
0000
0000
0020
0000
0000
0000
0000
0000
0000
0000
0000
0000
0000
0000
0000
0000
0000
0000
0000
0000
0000
0000
0000
0000
0000
0000
0030
0000
0000
0000
0000
0000
0000
0000
0000
0000
0000
0000
0000
0000
0000
0000
0000
0000
0000
0000
0000
0000
0000
0000
0020
0000
0000
0000
0000
0000
0000
0000
0000
0000
0000
0000
0000
0000
0000
0000
0000
0000
0030
0000
0000
0000
0000
0000
0000
0000
0000
0000
0000
0000
0000
0000
0000
0000
0000
0000
0000
0000
0000
0000
0000
0000
0000
0000
0000
0000
0000
0000
0020
0000
0000
0000
0000
0000
0000
0000
0000
0000
0000
0000
0030
0000
0000
0000
0000
0000
0000
0000
0000
0000
0000
0000
0000
0000
0000
0000
0000
0000
0000
0000
0000
0000
0000
0000
0000
0000
0000
0000
0000
0000
0000
0000
0000
0000
0000
0000
,
0100
1000
0001
1000
,
0010
0100
0001
1000
,
0100
0010
0001
0100
,
0010
0000
0000
0000
1000
0000
0000
0000
00M0
0000
0002
0000
0023
0000
0230
0300
,
2100
0000
3020
0000
0230
0000
0302
2003
,
0000
0000
0000
0000
0000
0000
0000
0000
0000
0000
0000
0000
0000
0000
0000
0000
0000
0000
0000
0000
0000
0000
0000
0000
3200
0000
0000
0000
0000
0000
0000
0000
0000
0000
0000
0000
0000
0000
0000
0000
0000
0000
0000
0000
0000
0000
0000
0000
2300
0000
0000
0000
0000
0000
0000
0000
0000
0000
0000
0000
0000
0000
0000
0000
0000
0000
0000
0000
0000
0000
0000
0000
3020
0000
0000
0000
0000
0000
0000
0000
0000
0000
0000
0000
0000
0000
0000
0000
0000
0000
0000
0000
0000
0000
0000
0000
0230
0000
0000
0000
0000
0000
0000
0000
0000
0000
0000
0000
0000
0000
0000
0000
0000
0000
0000
0000
0000
0000
0000
0000
0001
0000
0000
0000
0000
0000
0000
0000
0000
0000
0000
0000
0000
0000
0000
0000
0000
0000
0300
0000
0000
0000
0000
0000
0200
0000
0000
0000
0000
0000
0000
0000
0000
0000
0000
0000
0000
0000
0000
0000
0000
0000
0000
0000
0000
0000
0000
0000
0010
0000
0000
0000
0000
0000
0000
0000
0000
0000
0000
0000
0000
0000
0000
0000
0300
0000
0000
0000
0000
0000
0000
0000
,
0200
0000
0000
0000
0000
0000
0000
0000
0000
0000
0000
0000
0000
0000
0000
0000
0000
0000
0000
0000
0000
0000
0000
0000
0001
0000
0000
0000
0000
0000
0000
0000
0000
0000
0000
0000
0300
0000
0000
0000
0000
0000
0000
0000
0000
0000
0000
0000
0200
0000
0000
0000
0000
0000
0000
0000
0000
0000
0000
0000
0000
0000
0000
0000
0000
0000
0000
0000
0000
0000
0000
0000
0010
0000
0000
0000
0000
0000
0000
0000
0300
0000
0000
0000
0000
0000
0000
0000
0000
0000
0000
0000
0000
0000
0000
0000
0200
0000
0000
0000
0000
0000
0000
0000
0000
0000
0000
0000
0000
0000
0000
0000
0000
0000
0000
0000
0000
0000
0000
0000
0001
0000
0000
0000
0000
0000
0300
0000
0000
0000
0000
0000
0000
0000
0000
0000
0000
0000
0000
0000
0000
0000
0000
0000
0200
0000
0000
0000
0000
0000
0000
0000
0000
0000
0000
0000
0000
0000
0000
0000
0000
0000
0000
0000
0000
0000
0000
0000
0010
0000
0000
0000
0300
0000
0000
0000
0000
0000
0000
0000
0000
0000
0000
0000
0000
0000
0000
0000
0000
0000
0000
0000
,
0200
0000
0000
0000
0301
0000
0000
0000
0200
0000
0000
0300
0010
0000
0000
0000
0200
0000
0300
0000
0001
0000
0000
0000
0200
0300
0000
0000
0010
0000
0000
0000
,
1000
0001
1000
0010
0100
0001
0100
0010
1000
0001
1000
0100
0010
0001
0010
0100
,
1000
0001
0100
0010
1000
0100
0010
0001
1000
0010
0100
0001
0010
0100
1000
0001
,
1000
0010
1000
0010
0100
0001
0100
0001
0010
0100
0010
0100
1000
0010
0100
0001
,
1000
0000
0000
0000
1000
0000
0000
0000
100M
0000
0200
0000
0320
0000
0032
0003
,
2001
0000
3020
0000
0230
0000
0301
0020
,
0000
0130
1000
0001
0102
0003
0100
0010
,
2000
0000
3002
0000
0023
0000
0130
2000
,
0000
3010
0100
0002
0000
1003
0100
1000
,
0010
0000
0100
0002
0000
2003
0000
3100
,
0010
0002
0000
0003
1000
0000
0010
0000
,
0020
0000
0000
0230
0000
0300
0010
0200
,
0000
0000
0000
0000
0000
0000
0300
0000
0001
0100
0010
1000
0100
0010
0001
1000
,
0001
0100
0010
1000
0001
1000
0100
0010
0001
0100
0010
0100
0001
1000
0100
0010
,
0100
1000
0010
0100
0001
0100
0010
1000
0100
0010
0001
1000
0001
0010
0001
1000
,
0001
0100
0010
1000
0001
1000
0100
0010
0001
0100
0010
0100
0001
1000
0100
0010
,
0100
1000
0010
0100
0001
0100
0010
1000
0100
0010
0001
1000
0010
0100
0001
1000
,
0001
0100
0010
1000
0001
1000
0100
0010
0001
0100
0010
0100
0001
0010
0100
0010
,
0001
1000
0010
0100
0001
0100
0010
1000
0010
1000
0100
0010
0001
0010
0100
1000
,
0010
0100
0001
1000
0010
1000
0001
0010
0001
1000
0010
0100
0001
1000
0010
0100
,
0001
1000
0001
0010
0100
1000
0001
1000
0100
0010
0001
1000
0001
0100
0010
1000
,
0001
0010
0100
1000
0001
1000
0010
0100
0001
0010
0100
0010
0001
1000
0010
0100
,
0010
1000
0100
0010
0001
0010
0100
1000
0010
0100
0001
1000
0001
0100
0001
1000
,
0001
0010
0100
1000
0001
1000
0010
0100
0001
0010
0100
0010
0001
1000
0010
0100
,
0010
1000
0100
0010
0001
0010
0100
1000
0010
0100
0001
1000
0100
0010
0100
1000
,
0010
0100
0001
0100
0010
1000
0001
0010
0001
1000
0100
1000
0001
1000
0010
0100
,
0001
0100
0010
1000
0001
1000
0010
0100
0001
1000
0001
1000
0100
0010
0001
0010
,
0100
1000
0001
1000
0001
1000
0010
0100
0001
0100
0010
1000
0001
1000
0010
0100
,
0001
1000
0001
0010
0100
1000
0001
0010
0100
1000
0010
1000
0100
0010
0001
1000
,
0001
0100
0010
1000
0001
1000
0100
0010
0001
0100
0010
0100
0001
1000
0100
0010
,
0100
1000
0010
0100
0001
0100
0010
1000
0100
0010
0001
1000
0001
0010
0001
1000
,
0001
0100
0010
1000
0001
1000
0100
0010
0001
0100
0010
0100
0001
1000
0100
0010
,
0100
1000
0010
0100
0001
0100
0010
1000
0100
0010
0001
1000
0010
0100
0001
1000
,
0001
0100
0010
1000
0001
1000
0100
0010
0001
0100
0010
0100
0001
0010
0100
0010
,
0001
1000
0010
0100
0001
0100
0010
1000
0010
1000
0100
0010
0001
0010
0100
1000
,
0010
0100
0001
1000
0010
1000
0001
0010
0001
1000
0010
0100
0001
1000
0010
0100
,
0001
1000
0001
0010
0100
1000
0001
1000
0100
0010
0001
1000
0001
0100
0010
1000
,
0001
0010
0100
1000
0001
1000
0010
0100
0001
0010
0100
0010
0001
1000
0010
0100
,
0010
1000
0100
0010
0001
0010
0100
1000
0010
0100
0001
1000
0001
0100
0001
1000
,
0001
0010
0100
1000
0001
1000
0010
0100
0001
0010
0100
0010
0001
1000
0010
0100
,
0010
1000
0100
0010
0001
0010
0100
1000
0010
0100
0001
1000
0100
0010
0100
1000
,
0010
0100
0001
0100
0010
1000
0001
0010
0001
1000
0100
1000
0001
1000
0010
0100
,
0001
0100
0010
1000
0001
1000
0010
0100
0001
1000
0001
1000
0100
0010
0001
0010
,
0100
1000
0100
0010
0001
1000
0001
1000
0010
0100
0010
1000
0001
1000
0001
0010
,
0200
0000
0000
0000
0000
0000
0000
0000
1300
0100
1000
0001
1000
0010
0100
0001
,
1000
0100
0010
0001
0010
0100
1000
0001
1000
0010
0100
0001
0100
0010
1000
0100
,
0010
0001
1000
0010
1000
0001
0010
0100
1000
0001
0100
0010
0100
0001
0010
0100
,
1000
0010
0100
0001
0100
0010
1000
0001
1000
0100
0010
0001
0010
0100
1000
0010
,
0100
0001
1000
0100
1000
0001
0100
0010
1000
0001
0010
0100
0010
0001
0100
0010
,
1000
0100
0010
0001
0010
0100
1000
0001
1000
0010
0100
0001
0100
0010
1000
0100
,
0010
0001
1000
0010
1000
0001
0010
0100
1000
0001
0100
0010
0100
0001
0010
0100
,
1000
0010
0100
0001
0100
0010
1000
0001
1000
0100
0010
0001
0010
0100
1000
0001
,
1000
0000
0000
0000
0000
0000
0000
0000
0001
0000
0000
0000
0000
0000
0000
0000
4000
3000
0400
0300
4000
3000
0400
0300
0020
0000
0000
0000
0030
0000
0000
0000
,
0001
0010
0100
1000
0100
0010
0001
1000
0001
0100
0010
1000
0010
0100
0001
0010
,
0100
1000
0001
0100
0001
1000
0100
0010
0001
1000
0010
0100
0010
1000
0100
0010
,
0001
0100
0010
1000
0010
0100
0001
1000
0001
0010
0100
1000
0100
0010
0001
0100
,
0010
1000
0001
0010
0001
1000
0010
0100
0001
1000
0100
0010
0100
1000
0010
0100
,
0001
0010
0100
1000
0100
0010
0001
1000
0001
0100
0010
1000
0010
0100
0001
0010
,
0100
1000
0001
0100
0001
1000
0100
0010
0001
1000
0010
0100
0010
1000
0100
0010
,
0001
0100
0010
1000
0010
0100
0001
1000
0001
0010
0100
1000
0100
0010
0001
1000
,
0001
0000
0000
0000
0000
0000
0000
0000
1000
0000
0000
0000
0000
0000
0000
0000
0004
0003
0400
0300
0004
0003
0400
0300
0020
0000
0000
0000
0000
0000
0000
0000
,
0030
0000
0000
0000
1001
0000
1000
0000
0100
0010
0001
1000
0010
0100
0001
0010
,
0100
1000
0001
0100
0001
1000
0100
0010
0001
1000
0010
0100
0010
1000
0100
0010
,
0001
0100
0010
1000
0010
0100
0001
1000
0001
0010
0100
1000
0100
0010
0001
0100
,
0010
1000
0001
0010
0001
1000
0010
0100
0001
1000
0100
0010
0100
1000
0010
0100
,
0001
0010
0100
1000
0100
0010
0001
1000
0001
0100
0010
1000
0010
0100
0001
0010
,
0100
1000
0001
0100
0001
1000
0100
0010
0001
1000
0010
0100
0010
1000
0100
0010
,
0001
0100
0010
1000
0010
0100
0001
1000
0100
0010
0001
0010
0100
1000
0010
0100
,
0001
1000
0001
0010
0100
0010
0001
1000
0001
0100
0001
0100
0010
1000
0010
1000
,
0001
0010
0100
1000
0100
0010
0001
1000
0001
0100
0010
1000
0010
0100
0001
0010
,
0100
1000
0001
0100
0001
1000
0100
0010
0001
1000
0010
0100
0010
1000
0100
0010
,
0001
0100
0010
1000
0010
0100
0001
1000
0001
0010
0100
1000
0100
0010
0001
0100
,
0010
1000
0001
0010
0001
1000
0010
0100
0001
1000
0100
0010
0100
1000
0010
0100
,
0001
1000
0001
0010
0100
1000
0100
0010
0001
1000
0001
1000
0010
1000
0010
0100
,
0001
1000
0001
0100
0010
1000
0001
1000
0100
0010
0001
1000
0010
0100
0001
0010
,
0100
1000
0100
0010
0001
0100
0001
1000
0100
0010
0001
0100
0010
1000
0100
0010
,
0002
0000
0000
0000
1000
0000
0000
0000
1003
0000
0002
0000
0203
0000
0320
0030
,
2010
0000
3002
0000
0023
0000
0130
2000
,
0000
3010
1000
0001
0020
0030
0100
0010
,
0002
0000
2003
0000
3200
0000
0310
0002
,
0000
0103
0010
2000
0000
3001
0010
0001
,
0100
0000
0010
2000
0000
3002
0000
0013
,
0100
2000
0000
3000
0001
0000
0100
0000
,
0200
0000
0000
0320
0000
0030
0100
0020
,
0000
0000
0000
0000
0000
0000
0130
0000
0001
0000
0100
0000
0001
0000
0000
0000
0000
0000
0100
0000
0010
0000
0100
0000
0010
0000
0000
0000
0000
0000
1000
0000
0010
0000
1000
0000
0010
0000
0000
1000
0000
0000
0001
0000
0000
1000
0000
0000
,
0001
0010
0100
1000
0001
1000
0010
0100
0001
0100
0010
0100
0001
1000
0100
0010
,
0100
1000
0010
0100
0001
0100
0010
1000
0100
0010
0001
1000
0001
0010
0001
1000
,
0001
0100
0010
1000
0001
1000
0100
0010
0001
0100
0010
0100
0001
1000
0100
0010
,
0100
1000
0010
0100
0001
0100
0010
1000
0100
0010
0001
1000
0010
0100
0001
1000
,
0001
0100
0010
1000
0001
1000
0100
0010
0001
0100
0010
0100
0001
0010
0100
0010
,
0001
1000
0010
0100
0001
0100
0010
1000
0010
1000
0100
0010
0001
0010
0100
1000
,
0010
0100
0001
1000
0010
1000
0001
0010
0001
1000
0010
0100
0001
1000
0010
0100
,
0001
1000
0001
0010
0100
1000
0001
1000
0100
0010
0001
1000
0001
0100
0010
1000
,
0001
0010
0100
1000
0001
1000
0010
0100
0001
0010
0100
0010
0001
1000
0010
0100
,
0010
1000
0100
0010
0001
0010
0100
1000
0010
0100
0001
1000
0001
0100
0001
1000
,
0001
0010
0100
1000
0001
1000
0010
0100
0001
0010
0100
0010
0001
1000
0010
0100
,
0010
1000
0100
0010
0001
0010
0100
1000
0010
0100
0001
1000
0100
0010
0100
1000
,
0010
0100
0001
0100
0010
1000
0001
0010
0001
1000
0100
1000
0001
1000
0010
0100
,
0001
0100
0010
1000
0001
1000
0010
0100
0001
1000
0001
1000
0100
0010
0001
0010
,
0100
1000
0001
1000
0001
1000
0010
0100
0001
0100
0010
1000
0001
1000
0010
0100
,
0001
1000
0001
0010
0100
1000
0001
1000
0010
0100
0010
0100
0010
0100
0001
1000
,
0001
0010
0100
1000
0001
1000
0100
0010
0001
0100
0010
0100
0001
1000
0100
0010
,
0100
1000
0010
0100
0001
0100
0010
1000
0100
0010
0001
1000
0001
0010
0001
1000
,
0001
0100
0010
1000
0001
1000
0100
0010
0001
0100
0010
0100
0001
1000
0100
0010
,
0100
1000
0010
0100
0001
0100
0010
1000
0100
0010
0001
1000
0010
0100
0001
1000
,
0001
0100
0010
1000
0001
1000
0100
0010
0001
0100
0010
0100
0001
0010
0100
0010
,
0001
1000
0010
0100
0001
0100
0010
1000
0010
1000
0100
0010
0001
0010
0100
1000
,
0010
0100
0001
1000
0010
1000
0001
0010
0001
1000
0010
0100
0001
1000
0010
0100
,
0001
1000
0001
0010
0100
1000
0001
1000
0100
0010
0001
1000
0001
0100
0010
1000
,
0001
0010
0100
1000
0001
1000
0010
0100
0001
0010
0100
0010
0001
1000
0010
0100
,
0010
1000
0100
0010
0001
0010
0100
1000
0010
0100
0001
1000
0001
0100
0001
1000
,
0001
0010
0100
1000
0001
1000
0010
0100
0001
0010
0100
0010
0001
1000
0010
0100
,
0010
1000
0100
0010
0001
0010
0100
1000
0010
0100
0001
1000
0100
0010
0100
1000
,
0010
0100
0001
0100
0010
1000
0001
0010
0001
1000
0100
1000
0001
1000
0010
0100
,
0001
0100
0010
1000
0001
1000
0010
0100
0001
1000
0001
1000
0100
0010
0001
0010
,
0100
1000
0100
1000
0001
0100
0010
1000
0010
1000
0001
1000
0010
0100
0001
0010
,
0200
0000
0000
0000
0000
0000
0000
0000
0000
0000
0000
0000
0000
0000
0000
0000
4300
3000
0400
0300
0040
0030
0004
0003
4000
3000
0040
0030
0400
0300
0004
0003
,
2000
0000
0000
0000
,
0000
0000
0000
0000
,
3000
0000
0000
0000
;

//---------------dance-single - 15 (TYLR)----------------
#NOTES:
     dance-single:
     15 (TYLR):
     Hard:
     15:
     1.000,1.000,0.047,0.426,1.000,2455.000,14.000,126.000,3.000,0.000:
0000
0000
0000
0000
,
0000
0000
0000
0000
,
0000
0000
0000
0000
,
0000
0000
0000
0000
,
0000
0000
0000
0000
,
0000
0000
0000
0000
,
0000
0000
0000
0000
,
1001
0000
0000
0000
0000
0000
0000
0000
0000
0000
0000
0000
0000
0000
0000
0000
4000
3000
0400
0300
0040
0030
0004
0003
0200
0000
0000
0000
0300
0000
0000
0000
,
0001
1000
0010
0000
0100
0001
1000
0000
0001
1000
0001
0010
0000
0100
1000
0000
,
0001
1000
0100
0000
0010
0001
1000
0000
0001
0010
0100
1000
0000
0001
1000
0000
,
0001
0100
0010
0000
0100
0001
1000
0000
0001
1000
0001
0010
0000
0100
1000
0000
,
0001
1000
0010
0000
0100
0001
1000
0000
0001
0010
0100
1000
0001
0000
0001
0000
,
1000
0001
0100
0000
0010
1000
0001
0000
1000
0001
1000
0100
0000
0010
0001
0000
,
1000
0001
0100
0000
0010
1000
0001
0000
1000
0001
1000
0100
0000
0010
0001
0000
,
1000
0001
0100
0000
0010
1000
0001
0000
1000
0001
1000
0100
0000
0010
0001
1000
,
0020
0000
0030
0000
0000
1010
1000
0001
,
1000
0100
0010
0000
0001
1000
0010
0000
0100
0001
1000
0100
0000
0010
0001
0000
,
1000
0001
0100
0000
0010
1000
0001
0000
1000
0100
0010
0001
0000
1000
0001
0000
,
1000
0010
0100
0000
0001
1000
0100
0000
0010
0001
0010
0100
0000
1000
0001
0000
,
1000
0010
0100
0000
0001
1000
0100
0000
0010
0001
1000
0010
0100
0000
0100
0000
,
0001
1000
0100
0000
1000
0001
0010
0000
0100
1000
0001
0100
0000
0010
1000
0000
,
0100
0010
0001
0000
1000
0010
0100
0000
0001
0010
0100
1000
0000
0001
1000
0000
,
0001
0100
0010
0000
1000
0001
0010
0000
0100
1000
0010
0100
0000
0001
1000
0100
,
0020
0000
0000
0000
0000
0000
0000
0000
0031
0000
0000
0000
0000
0000
0000
0000
4000
3000
0040
0030
4000
3000
0040
0030
0200
0000
0000
0000
0300
0000
0000
0000
,
0001
0010
0100
0000
1000
0001
0100
0000
0010
1000
0001
0010
0000
0100
1000
0000
,
0001
1000
0010
0000
0100
0001
1000
0000
0001
0010
0100
1000
0000
0001
1000
0000
,
0001
0100
0010
0000
1000
0001
0010
0000
0100
1000
0010
0100
0000
0001
1000
0000
,
0001
0010
0100
0000
1000
0001
0100
0000
0010
1000
0100
0010
0001
0000
0001
0000
,
1000
0010
0100
0000
0001
1000
0100
0000
0010
0001
1000
0010
0000
0100
0001
0000
,
0010
0100
1000
0000
0001
0100
0010
0000
1000
0100
0010
0001
0000
1000
0001
0000
,
1000
0010
0100
0000
0001
1000
0100
0000
0010
0001
1000
0010
0000
0100
0001
1000
,
0100
0000
0000
0000
0000
0010
0100
0100
,
1000
0000
0001
0100
0000
0010
1000
0000
0100
0000
0010
0001
0000
1000
0010
0100
,
0001
0000
1000
0100
0000
0010
0001
0000
0100
0000
0010
1000
0000
0001
0010
0100
,
1000
0000
0001
0100
0000
0010
1000
0000
0100
0000
0010
0001
0000
1000
0010
0100
,
0001
0000
1000
0100
0000
0010
0001
0000
0100
0000
0010
1000
0000
0100
0010
0001
,
1000
0000
0001
0010
0000
0100
1000
0000
0010
0000
0100
0001
0000
1000
0100
0010
,
0001
0000
1000
0010
0000
0100
0001
0000
0010
0000
0100
1000
0000
0001
0100
0010
,
1000
0000
0001
0010
0000
0100
1000
0000
0010
0000
0100
0001
0000
1000
0100
0010
,
0001
0000
0000
0000
0000
0000
0000
0000
0000
0000
0000
0000
0000
0000
0000
0000
4000
3000
0040
0030
4000
3000
0040
0030
0200
0000
0000
0000
0300
0000
0000
0000
,
0001
0000
1000
0010
0000
0100
0001
0000
0010
0000
0100
1000
0000
0001
0100
0010
,
1000
0000
0001
0010
0000
0100
1000
0000
0010
0000
0100
0001
0000
1000
0100
0010
,
0001
0000
1000
0010
0000
0100
0001
0000
0010
0000
0100
1000
0000
0001
0100
0010
,
1000
0000
0001
0010
0000
0100
1000
0000
0010
0000
0100
0001
0000
0010
0100
1000
,
0001
0000
1000
0100
0000
0010
0001
0000
0100
0000
0010
1000
0000
0001
0010
0100
,
1000
0000
0001
0100
0000
0010
1000
0000
0100
0000
0010
0001
0000
1000
0010
0100
,
0001
0010
0001
0010
0100
1000
0100
1000
0001
0100
0010
1000
0100
0010
0001
0100
,
0010
0000
0000
0000
2020
3030
2002
3003
,
0001
0000
1000
0010
0000
0100
0001
0000
0010
0000
0100
1000
0000
0001
0100
0010
,
1000
0000
0001
0010
0000
0100
1000
0000
0010
0000
0100
0001
0000
1000
0100
0010
,
0001
0000
1000
0010
0000
0100
0001
0000
0010
0000
0100
1000
0000
0001
0100
0010
,
1000
0000
0001
0010
0000
0100
1000
0000
0010
0000
0100
0001
0000
0010
0100
1000
,
0001
0000
1000
0100
0000
0010
0001
0000
0100
0000
0010
1000
0000
0001
0010
0100
,
1000
0000
0001
0100
0000
0010
1000
0000
0100
0000
0010
0001
0000
1000
0010
0100
,
0001
0000
1000
0100
0000
0010
0001
0000
0100
0000
0010
1000
0000
0001
0010
0100
,
1000
0000
0000
0000
0000
0000
0000
0000
0000
0000
0000
0000
0000
0000
0000
0000
0004
0003
0400
0300
0004
0003
0400
0300
0020
0000
0000
0000
0030
0000
0000
0000
,
1000
0000
0001
0100
0000
0010
1000
0000
0100
0000
0010
0001
0000
1000
0010
0100
,
0001
0000
1000
0100
0000
0010
0001
0000
0100
0000
0010
1000
0000
0001
0010
0100
,
1000
0000
0001
0100
0000
0010
1000
0000
0100
0000
0010
0001
0000
1000
0010
0100
,
0001
0000
1000
0100
0000
0010
0001
0000
0100
0000
0010
1000
0000
0100
0010
0001
,
1000
0000
0001
0010
0000
0100
1000
0000
0010
0000
0100
0001
0000
1000
0100
0010
,
0001
0000
1000
0010
0000
0100
0001
0000
0010
0000
0100
1000
0000
0001
0100
0010
,
1000
0100
1000
0100
0010
0001
0010
0001
1000
0010
0100
0001
0010
0100
1000
0010
,
0100
0000
0000
0000
0000
0000
0000
0000
0000
0000
0000
0000
0000
0000
0000
0000
0004
0003
0400
0300
0040
0030
4000
3000
0002
0000
0000
0000
0003
0000
0000
0000
,
1000
0100
0010
0100
1000
0010
1000
0001
,
1000
0100
0010
0001
0100
0010
1000
0001
,
1000
0100
0010
0100
1000
0010
1000
0001
,
1000
0000
0100
0000
0010
0000
0001
0000
0100
0000
0010
1000
0001
0000
0001
0000
,
1000
0010
0100
0010
1000
0100
1000
0001
,
1000
0010
0100
0001
0010
0100
1000
0001
,
1000
0010
0100
0010
1000
0100
1000
0001
,
1000
0000
0010
0000
0100
0000
0001
0000
0010
0000
0100
1000
0001
0000
0001
0000
,
1000
0100
0010
0100
1000
0010
1000
0001
,
1000
0100
0010
0001
0100
0010
1000
0001
,
1000
0100
0010
0100
1000
0010
1000
0001
,
1000
0000
0100
0000
0010
0000
0001
0000
0100
0000
0010
1000
0001
0000
0001
0000
,
1000
0010
0100
0010
1000
0100
1000
0001
,
1000
0010
0100
0001
0010
0100
1000
0001
,
1000
0010
0100
0010
1000
0100
1000
0001
,
1000
0000
0000
0000
2200
3300
2002
3003
,
0001
0000
0010
0000
0100
0000
0010
0001
1000
0000
0010
0000
1000
0000
0001
0010
,
0100
0000
1000
0000
0010
0000
1000
0001
0010
0000
0100
0000
1000
0000
0010
1000
,
0001
0000
0100
0000
0010
0000
0100
0001
1000
0000
0100
0000
1000
0000
0001
0100
,
0010
0000
1000
0000
0100
0000
1000
0001
0100
0000
0010
1000
0001
0000
0001
0000
,
1000
0000
0100
0000
0010
0000
0100
1000
0001
0000
0100
0000
0001
0000
1000
0100
,
0010
0000
0001
0000
0100
0000
0001
1000
0100
0000
0010
0000
0001
0000
0100
0001
,
1000
0000
0010
0000
0100
0000
0010
1000
0001
0000
0010
0000
0001
0000
1000
0010
,
0100
0000
0000
0000
0001
0000
0000
0000
0100
0000
0000
0000
0001
0000
0000
0000
4000
3000
0004
0003
4000
3000
0400
0300
0040
0030
0004
0003
0400
0300
0040
0030
,
1000
0000
0100
0000
0010
0000
0100
1000
0001
0000
0100
0000
0001
0000
1000
0100
,
0010
0000
0001
0000
0100
0000
0001
1000
0100
0000
0010
0000
0001
0000
0100
0001
,
1000
0000
0010
0000
0100
0000
0010
1000
0001
0000
0010
0000
0001
0000
1000
0010
,
0100
0000
0001
0000
0010
0000
0001
1000
0010
0000
0100
0001
1000
0000
1000
0000
,
0001
0000
0010
0000
0100
0000
0010
0001
1000
0000
0010
0000
1000
0000
0001
0010
,
0100
0000
1000
0000
0010
0000
1000
0001
0010
0000
0100
0000
1000
0000
0001
0100
,
0010
1000
0010
1000
0001
0010
0001
0010
0100
1000
0001
1000
0010
0100
0001
0010
,
0100
0000
0000
0000
0000
0000
0000
0000
0000
0000
2000
0000
3200
0000
0320
0030
,
0012
0000
0203
0000
0320
0000
2030
3002
,
0000
0000
0000
0000
0000
0000
0000
0000
0000
0000
0000
0000
0000
0000
0000
0000
0000
0000
0000
0000
0000
0000
0000
0000
0023
0000
0000
0000
0000
0000
0000
0000
0000
0000
0000
0000
0000
0000
0000
0000
0000
0000
0000
0000
0000
0000
0000
0000
0032
0000
0000
0000
0000
0000
0000
0000
0000
0000
0000
0000
0000
0000
0000
0000
0000
0000
0000
0000
0000
0000
0000
0000
0203
0000
0000
0000
0000
0000
0000
0000
0000
0000
0000
0000
0000
0000
0000
0000
0000
0000
0000
0000
0000
0000
0000
0000
0320
0000
0000
0000
0000
0000
0000
0000
0000
0000
0000
0000
0000
0000
0000
0000
0000
0000
0000
0000
0000
0000
0000
0000
0000
0000
0000
0000
0000
0000
0000
0000
0000
0000
0000
0000
0000
0000
0000
0000
0000
0000
0030
0000
0000
0000
0000
0000
0020
0000
0000
0000
0000
0000
0000
0000
0000
0000
0000
0000
0000
0000
0000
0000
0000
0000
0000
0000
0000
0000
0000
0000
0000
0000
0000
0000
0000
0000
0000
0000
0000
0000
0000
0000
0000
0000
0000
0000
0030
0000
0000
0000
0000
0000
0000
0000
,
0020
0000
0000
0000
0000
0000
0000
0000
0000
0000
0000
0000
0000
0000
0000
0000
0000
0000
0000
0000
0000
0000
0000
0000
0000
0000
0000
0000
0000
0000
0000
0000
0000
0000
0000
0000
0030
0000
0000
0000
0000
0000
0000
0000
0000
0000
0000
0000
0020
0000
0000
0000
0000
0000
0000
0000
0000
0000
0000
0000
0000
0000
0000
0000
0000
0000
0000
0000
0000
0000
0000
0000
0000
0000
0000
0000
0000
0000
0000
0000
0030
0000
0000
0000
0000
0000
0000
0000
0000
0000
0000
0000
0000
0000
0000
0000
0020
0000
0000
0000
0000
0000
0000
0000
0000
0000
0000
0000
0000
0000
0000
0000
0000
0000
0000
0000
0000
0000
0000
0000
0000
0000
0000
0000
0000
0000
0030
0000
0000
0000
0000
0000
0000
0000
0000
0000
0000
0000
0000
0000
0000
0000
0000
0000
0020
0000
0000
0000
0000
0000
0000
0000
0000
0000
0000
0000
0000
0000
0000
0000
0000
0000
0000
0000
0000
0000
0000
0000
0000
0000
0000
0000
0030
0000
0000
0000
0000
0000
0000
0000
0000
0000
0000
0000
0000
0000
0000
0000
0000
0000
0000
0000
,
0020
0000
0000
0000
0030
0000
0000
0000
0020
0000
0000
0030
0000
0000
0000
0000
0020
0000
0030
0000
0000
0000
0000
0000
0020
0030
0000
0000
0000
0000
0000
0000
,
1000
0010
0100
0001
,
0010
0100
1000
0001
,
0100
0010
1000
0001
,
0010
0000
0000
0000
0100
0000
0000
0000
00M0
0000
2000
0000
3002
0000
0203
0300
,
0120
0000
2030
0000
3200
0000
0320
0032
,
0000
0000
0000
0000
0000
0000
0000
0000
0000
0000
0000
0000
0000
0000
0000
0000
0000
0000
0000
0000
0000
0000
0000
0000
0203
0000
0000
0000
0000
0000
0000
0000
0000
0000
0000
0000
0000
0000
0000
0000
0000
0000
0000
0000
0000
0000
0000
0000
0302
0000
0000
0000
0000
0000
0000
0000
0000
0000
0000
0000
0000
0000
0000
0000
0000
0000
0000
0000
0000
0000
0000
0000
2003
0000
0000
0000
0000
0000
0000
0000
0000
0000
0000
0000
0000
0000
0000
0000
0000
0000
0000
0000
0000
0000
0000
0000
3200
0000
0000
0000
0000
0000
0000
0000
0000
0000
0000
0000
0000
0000
0000
0000
0000
0000
0000
0000
0000
0000
0000
0000
0000
0000
0000
0000
0000
0000
0000
0000
0000
0000
0000
0000
0000
0000
0000
0000
0000
0000
0300
0000
0000
0000
0000
0000
0200
0000
0000
0000
0000
0000
0000
0000
0000
0000
0000
0000
0000
0000
0000
0000
0000
0000
0000
0000
0000
0000
0000
0000
0000
0000
0000
0000
0000
0000
0000
0000
0000
0000
0000
0000
0000
0000
0000
0000
0300
0000
0000
0000
0000
0000
0000
0000
,
0200
0000
0000
0000
0000
0000
0000
0000
0000
0000
0000
0000
0000
0000
0000
0000
0000
0000
0000
0000
0000
0000
0000
0000
0000
0000
0000
0000
0000
0000
0000
0000
0000
0000
0000
0000
0300
0000
0000
0000
0000
0000
0000
0000
0000
0000
0000
0000
0200
0000
0000
0000
0000
0000
0000
0000
0000
0000
0000
0000
0000
0000
0000
0000
0000
0000
0000
0000
0000
0000
0000
0000
0000
0000
0000
0000
0000
0000
0000
0000
0000
0000
0000
0000
0300
0000
0000
0000
0000
0000
0000
0000
0000
0000
0000
0000
0200
0000
0000
0000
0000
0000
0000
0000
0000
0000
0000
0000
0000
0000
0000
0000
0000
0000
0000
0000
0000
0000
0000
0000
0000
0000
0000
0000
0000
0000
0000
0000
0300
0000
0000
0000
0000
0000
0000
0000
0000
0000
0000
0000
0000
0000
0000
0000
0200
0000
0000
0000
0000
0000
0000
0000
0000
0000
0000
0000
0000
0000
0000
0000
0000
0000
0000
0000
0000
0000
0000
0000
0000
0000
0000
0000
0000
0000
0300
0000
0000
0000
0000
0000
0000
0000
0000
0000
0000
0000
0000
0000
0000
0000
0000
0000
,
0200
0000
0000
0000
0000
0000
0000
0000
0000
0000
0000
0000
0000
0000
0000
0000
0000
0000
0000
0000
0000
0000
0000
0000
0000
0000
0000
0000
0300
0000
0000
0000
0000
0000
0000
0000
0000
0000
0000
0000
0000
0000
0000
0000
0000
0000
0000
0000
0200
0000
0000
0000
0000
0000
0000
0000
0000
0000
0000
0000
0000
0000
0000
0000
0000
0000
0000
0000
0000
0000
0000
0000
0300
0000
0000
0000
0000
0000
0000
0000
0000
0000
0000
0000
0000
0000
0000
0000
0000
0000
0000
0000
0000
0000
0000
0000
0200
0000
0000
0000
0000
0000
0000
0000
0000
0000
0000
0000
0000
0000
0000
0000
0000
0000
0300
0000
0000
0000
0000
0000
0000
0000
0000
0000
0000
0000
0000
0000
0000
0000
0000
0000
0000
0000
0000
0000
0000
0000
0000
0000
0000
0000
0000
0000
0200
0000
0000
0000
0000
0000
0000
0000
0000
0000
0000
0000
0300
0000
0000
0000
0000
0000
0000
0000
0000
0000
0000
0000
0000
0000
0000
0000
0000
0000
0000
0000
0000
0000
0000
0000
0000
0000
0000
0000
0000
0000
0000
0000
0000
0000
0000
0000
,
0010
0001
1000
0001
,
0100
0010
1000
0001
,
0010
0100
1000
0010
,
0100
0000
0000
0000
0001
0000
0000
0000
0M00
0000
2000
0000
3200
0000
0320
0030
,
0012
0000
0203
0000
0320
0000
2030
3002
,
0000
0000
0000
0000
0000
0000
0000
0000
0000
0000
0000
0000
0000
0000
0000
0000
0000
0000
0000
0000
0000
0000
0000
0000
0023
0000
0000
0000
0000
0000
0000
0000
0000
0000
0000
0000
0000
0000
0000
0000
0000
0000
0000
0000
0000
0000
0000
0000
0032
0000
0000
0000
0000
0000
0000
0000
0000
0000
0000
0000
0000
0000
0000
0000
0000
0000
0000
0000
0000
0000
0000
0000
0203
0000
0000
0000
0000
0000
0000
0000
0000
0000
0000
0000
0000
0000
0000
0000
0000
0000
0000
0000
0000
0000
0000
0000
0320
0000
0000
0000
0000
0000
0000
0000
0000
0000
0000
0000
0000
0000
0000
0000
0000
0000
0000
0000
0000
0000
0000
0000
1000
0000
0000
0000
0000
0000
0000
0000
0000
0000
0000
0000
0000
0000
0000
0000
0000
0000
0030
0000
0000
0000
0000
0000
0020
0000
0000
0000
0000
0000
0000
0000
0000
0000
0000
0000
0000
0000
0000
0000
0000
0000
0000
0000
0000
0000
0000
0000
0100
0000
0000
0000
0000
0000
0000
0000
0000
0000
0000
0000
0000
0000
0000
0000
0030
0000
0000
0000
0000
0000
0000
0000
,
0020
0000
0000
0000
0000
0000
0000
0000
0000
0000
0000
0000
0000
0000
0000
0000
0000
0000
0000
0000
0000
0000
0000
0000
1000
0000
0000
0000
0000
0000
0000
0000
0000
0000
0000
0000
0030
0000
0000
0000
0000
0000
0000
0000
0000
0000
0000
0000
0020
0000
0000
0000
0000
0000
0000
0000
0000
0000
0000
0000
0000
0000
0000
0000
0000
0000
0000
0000
0000
0000
0000
0000
0100
0000
0000
0000
0000
0000
0000
0000
0030
0000
0000
0000
0000
0000
0000
0000
0000
0000
0000
0000
0000
0000
0000
0000
0020
0000
0000
0000
0000
0000
0000
0000
0000
0000
0000
0000
0000
0000
0000
0000
0000
0000
0000
0000
0000
0000
0000
0000
1000
0000
0000
0000
0000
0000
0030
0000
0000
0000
0000
0000
0000
0000
0000
0000
0000
0000
0000
0000
0000
0000
0000
0000
0020
0000
0000
0000
0000
0000
0000
0000
0000
0000
0000
0000
0000
0000
0000
0000
0000
0000
0000
0000
0000
0000
0000
0000
0100
0000
0000
0000
0030
0000
0000
0000
0000
0000
0000
0000
0000
0000
0000
0000
0000
0000
0000
0000
0000
0000
0000
0000
,
0020
0000
0000
0000
1030
0000
0000
0000
0020
0000
0000
0030
0100
0000
0000
0000
0020
0000
0030
0000
1000
0000
0000
0000
0020
0030
0000
0000
0100
0000
0000
0000
,
0001
1000
0001
0100
0010
1000
0010
0100
0001
1000
0001
0010
0100
1000
0100
0010
,
0001
1000
0010
0100
0001
0010
0100
1000
0001
0100
0010
1000
0100
0010
0001
1000
,
0001
0100
0001
0100
0010
1000
0010
1000
0100
0010
0100
0010
0001
0100
0010
1000
,
0001
0000
0000
0000
0001
0000
0000
0000
M001
0000
0020
0000
0230
0000
2300
3000
,
1002
0000
0203
0000
0320
0000
1030
0200
,
0000
0310
0001
1000
2010
3000
0010
0100
,
0002
0000
2003
0000
3200
0000
0310
0002
,
0000
0103
0010
2000
0000
3001
0010
0001
,
0100
0000
0010
2000
0000
3002
0000
0013
,
0100
2000
0000
3000
0001
0000
0100
0000
,
0200
0000
0000
0320
0000
0030
0100
0020
,
0000
0000
0000
0000
0000
0000
0030
0000
1000
0010
0100
0001
0010
0100
1000
0001
,
1000
0010
0100
0001
1000
0001
0010
0100
1000
0010
0100
0010
1000
0001
0010
0100
,
0010
0001
0100
0010
1000
0010
0100
0001
0010
0100
1000
0001
1000
0100
1000
0001
,
1000
0010
0100
0001
1000
0001
0010
0100
1000
0010
0100
0010
1000
0001
0010
0100
,
0010
0001
0100
0010
1000
0010
0100
0001
0010
0100
1000
0001
0100
0010
1000
0001
,
1000
0010
0100
0001
1000
0001
0010
0100
1000
0010
0100
0010
1000
0100
0010
0100
,
1000
0001
0100
0010
1000
0010
0100
0001
0100
0001
0010
0100
1000
0100
0010
0001
,
0100
0010
1000
0001
0100
0001
1000
0100
1000
0001
0100
0010
1000
0001
0100
0010
,
1000
0001
1000
0100
0010
0001
1000
0001
0010
0100
1000
0001
1000
0010
0100
0001
,
1000
0100
0010
0001
1000
0001
0100
0010
1000
0100
0010
0100
1000
0001
0100
0010
,
0100
0001
0010
0100
1000
0100
0010
0001
0100
0010
1000
0001
1000
0010
1000
0001
,
1000
0100
0010
0001
1000
0001
0100
0010
1000
0100
0010
0100
1000
0001
0100
0010
,
0100
0001
0010
0100
1000
0100
0010
0001
0100
0010
1000
0001
0010
0100
0010
0001
,
0100
0010
1000
0010
0100
0001
1000
0100
1000
0001
0010
0001
1000
0001
0100
0010
,
1000
0010
0100
0001
1000
0001
0100
0010
1000
0001
1000
0001
0010
0100
1000
0100
,
0010
0001
1000
0001
1000
0001
0100
0010
1000
0010
0100
0001
1000
0001
0100
0010
,
1000
0001
1000
0100
0010
0001
1000
0100
0010
0001
0100
0001
0010
0100
1000
0001
,
1000
0010
0100
0001
1000
0001
0010
0100
1000
0010
0100
0010
1000
0001
0010
0100
,
0010
0001
0100
0010
1000
0010
0100
0001
0010
0100
1000
0001
1000
0100
1000
0001
,
1000
0010
0100
0001
1000
0001
0010
0100
1000
0010
0100
0010
1000
0001
0010
0100
,
0010
0001
0100
0010
1000
0010
0100
0001
0010
0100
1000
0001
0100
0010
1000
0001
,
1000
0010
0100
0001
1000
0001
0010
0100
1000
0010
0100
0010
1000
0100
0010
0100
,
1000
0001
0100
0010
1000
0010
0100
0001
0100
0001
0010
0100
1000
0100
0010
0001
,
0100
0010
1000
0001
0100
0001
1000
0100
1000
0001
0100
0010
1000
0001
0100
0010
,
1000
0001
1000
0100
0010
0001
1000
0001
0010
0100
1000
0001
1000
0010
0100
0001
,
1000
0100
0010
0001
1000
0001
0100
0010
1000
0100
0010
0100
1000
0001
0100
0010
,
0100
0001
0010
0100
1000
0100
0010
0001
0100
0010
1000
0001
1000
0010
1000
0001
,
1000
0100
0010
0001
1000
0001
0100
0010
1000
0100
0010
0100
1000
0001
0100
0010
,
0100
0001
0010
0100
1000
0100
0010
0001
0100
0010
1000
0001
0010
0100
0010
0001
,
0100
0010
1000
0010
0100
0001
1000
0100
1000
0001
0010
0001
1000
0001
0100
0010
,
1000
0010
0100
0001
1000
0001
0100
0010
1000
0001
1000
0001
0010
0100
1000
0100
,
0010
0001
0010
0100
1000
0001
1000
0001
0100
0010
0100
0001
1000
0001
1000
0100
,
0020
0000
0000
0000
,
0031
0000
1000
0010
0000
0100
0001
0000
0010
0000
0100
1000
0000
0001
0100
0010
,
1000
0000
0001
0010
0000
0100
1000
0000
0010
0000
0100
0001
0000
1000
0100
0010
,
0001
0000
1000
0010
0000
0100
0001
0000
0010
0000
0100
1000
0000
0001
0100
0010
,
1000
0000
0001
0010
0000
0100
1000
0000
0010
0000
0100
0001
0000
0010
0100
1000
,
0001
0000
1000
0100
0000
0010
0001
0000
0100
0000
0010
1000
0000
0001
0010
0100
,
1000
0000
0001
0100
0000
0010
1000
0000
0100
0000
0010
0001
0000
1000
0010
0100
,
0001
0000
1000
0100
0000
0010
0001
0000
0100
0000
0010
1000
0000
0001
0010
0100
,
1000
0000
0000
0000
0000
0000
0000
0000
0000
0000
0000
0000
0000
0000
0000
0000
0004
0003
0400
0300
0004
0003
0400
0300
0020
0000
0000
0000
0030
0000
0000
0000
,
1000
0000
0001
0100
0000
0010
1000
0000
0100
0000
0010
0001
0000
1000
0010
0100
,
0001
0000
1000
0100
0000
0010
0001
0000
0100
0000
0010
1000
0000
0001
0010
0100
,
1000
0000
0001
0100
0000
0010
1000
0000
0100
0000
0010
0001
0000
1000
0010
0100
,
0001
0000
1000
0100
0000
0010
0001
0000
0100
0000
0010
1000
0000
0100
0010
0001
,
1000
0000
0001
0010
0000
0100
1000
0000
0010
0000
0100
0001
0000
1000
0100
0010
,
0001
0000
1000
0010
0000
0100
0001
0000
0010
0000
0100
1000
0000
0001
0100
0010
,
1000
0000
0001
0010
0000
0100
1000
0000
0010
0000
0100
0001
0000
0010
0100
1000
,
0001
0001
0102
0023
,
0030
0000
0000
0000
1001
0000
1000
0000
0100
0000
0010
0001
0000
1000
0010
0100
,
0001
0000
1000
0100
0000
0010
0001
0000
0100
0000
0010
1000
0000
0001
0010
0100
,
1000
0000
0001
0100
0000
0010
1000
0000
0100
0000
0010
0001
0000
1000
0010
0100
,
0001
0000
1000
0100
0000
0010
0001
0000
0100
0000
0010
1000
0000
0100
0010
0001
,
1000
0000
0001
0010
0000
0100
1000
0000
0010
0000
0100
0001
0000
1000
0100
0010
,
0001
0000
1000
0010
0000
0100
0001
0000
0010
0000
0100
1000
0000
0001
0100
0010
,
1000
0000
0001
0010
0000
0100
1000
0000
0010
0000
0100
0001
0000
1000
0100
0010
,
0001
0000
1000
0010
0000
0100
0001
1000
0100
0000
0010
0001
0000
0100
0010
1000
,
0001
0000
1000
0100
0000
0010
0001
0000
0100
0000
0010
1000
0000
0001
0010
0100
,
1000
0000
0001
0100
0000
0010
1000
0000
0100
0000
0010
0001
0000
1000
0010
0100
,
0001
0000
1000
0100
0000
0010
0001
0000
0100
0000
0010
1000
0000
0001
0010
0100
,
1000
0000
0001
0100
0000
0010
1000
0000
0100
0000
0010
0001
0000
0100
0010
1000
,
0001
0010
0001
0010
0100
1000
0100
1000
0001
1000
0001
0100
0010
1000
0010
1000
,
0001
1000
0100
0010
0001
0010
0100
1000
0001
0100
0010
1000
0001
1000
0100
0010
,
0001
0100
0010
1000
0100
1000
0010
0100
0001
0010
0100
1000
0010
0100
0001
1000
,
0200
0000
0000
0000
0010
0000
0000
0000
0310
0000
0002
0000
0203
0000
0320
0030
,
2010
0000
3002
0000
0023
0000
0130
2000
,
0000
3010
1000
0001
0020
0030
0100
0010
,
0002
0000
2003
0000
3200
0000
0310
0002
,
0000
0103
0010
2000
0000
3001
0010
0001
,
0100
0000
0010
2000
0000
3002
0000
0013
,
0100
2000
0000
3000
0001
0000
0100
0000
,
0200
0000
0000
0320
0000
0030
0100
0020
,
0000
0000
0000
0130
0001
0100
0001
0000
0000
1000
0001
1000
0001
0000
0000
2000
0000
0000
3200
0000
0000
0320
0000
0000
,
0031
0010
0100
1000
0001
1000
0010
0100
0001
0100
0010
0100
0001
1000
0100
0010
,
0100
1000
0010
0100
0001
0100
0010
1000
0100
0010
0001
1000
0001
0010
0001
1000
,
0001
0100
0010
1000
0001
1000
0100
0010
0001
0100
0010
0100
0001
1000
0100
0010
,
0100
1000
0010
0100
0001
0100
0010
1000
0100
0010
0001
1000
0010
0100
0001
1000
,
0001
0100
0010
1000
0001
1000
0100
0010
0001
0100
0010
0100
0001
0010
0100
0010
,
0001
1000
0010
0100
0001
0100
0010
1000
0010
1000
0100
0010
0001
0010
0100
1000
,
0010
0100
0001
1000
0010
1000
0001
0010
0001
1000
0010
0100
0001
1000
0010
0100
,
0001
1000
0001
0010
0100
1000
0001
1000
0100
0010
0001
1000
0001
0100
0010
1000
,
0001
0010
0100
1000
0001
1000
0010
0100
0001
0010
0100
0010
0001
1000
0010
0100
,
0010
1000
0100
0010
0001
0010
0100
1000
0010
0100
0001
1000
0001
0100
0001
1000
,
0001
0010
0100
1000
0001
1000
0010
0100
0001
0010
0100
0010
0001
1000
0010
0100
,
0010
1000
0100
0010
0001
0010
0100
1000
0010
0100
0001
1000
0100
0010
0100
1000
,
0010
0100
0001
0100
0010
1000
0001
0010
0001
1000
0100
1000
0001
1000
0010
0100
,
0001
0100
0010
1000
0001
1000
0010
0100
0001
1000
0001
1000
0100
0010
0001
0010
,
0100
1000
0001
1000
0001
1000
0010
0100
0001
0100
0010
1000
0001
1000
0010
0100
,
0001
1000
0001
0010
0100
1000
0001
1000
0010
0100
0010
0100
0010
0100
0001
1000
,
0001
0010
0100
1000
0001
1000
0100
0010
0001
0100
0010
0100
0001
1000
0100
0010
,
0100
1000
0010
0100
0001
0100
0010
1000
0100
0010
0001
1000
0001
0010
0001
1000
,
0001
0100
0010
1000
0001
1000
0100
0010
0001
0100
0010
0100
0001
1000
0100
0010
,
0100
1000
0010
0100
0001
0100
0010
1000
0100
0010
0001
1000
0010
0100
0001
1000
,
0001
0100
0010
1000
0001
1000
0100
0010
0001
0100
0010
0100
0001
0010
0100
0010
,
0001
1000
0010
0100
0001
0100
0010
1000
0010
1000
0100
0010
0001
0010
0100
1000
,
0010
0100
0001
1000
0010
1000
0001
0010
0001
1000
0010
0100
0001
1000
0010
0100
,
0001
1000
0001
0010
0100
1000
0001
1000
0100
0010
0001
1000
0001
0100
0010
1000
,
0001
0010
0100
1000
0001
1000
0010
0100
0001
0010
0100
0010
0001
1000
0010
0100
,
0010
1000
0100
0010
0001
0010
0100
1000
0010
0100
0001
1000
0001
0100
0001
1000
,
0001
0010
0100
1000
0001
1000
0010
0100
0001
0010
0100
0010
0001
1000
0010
0100
,
0010
1000
0100
0010
0001
0010
0100
1000
0010
0100
0001
1000
0100
0010
0100
1000
,
0010
0100
0001
0100
0010
1000
0001
0010
0001
1000
0100
1000
0001
1000
0010
0100
,
0001
0100
0010
1000
0001
1000
0010
0100
0001
1000
0001
1000
0100
0010
0001
0010
,
0100
1000
0100
1000
0001
0100
0010
1000
0010
1000
0001
1000
0010
0100
0001
0010
,
0200
0000
0000
0000
0000
0000
0000
0000
0000
0000
0000
0000
0000
0000
0000
0000
4300
3000
0400
0300
0040
0030
0004
0003
4000
3000
0040
0030
0400
0300
0004
0003
,
2000
0000
0000
0000
,
0000
0000
0000
0000
,
3000
0000
0000
0000
;
