#TITLE:12 Little Fragments of Silence;
#SUBTITLE:;
#ARTIST:Betwixt & Between;
#TITLETRANSLIT:;
#SUBTITLETRANSLIT:;
#ARTISTTRANSLIT:;
#CREDIT:;
#BANNER:12 little bns.png;
#BACKGROUND:12 little bgs.png;
#LYRICSPATH:;
#CDTITLE:;
#MUSIC:12 Little Fragments of Silence.ogg;
#OFFSET:0.006;
#SAMPLESTART:28.060;
#SAMPLELENGTH:15.000;
#SELECTABLE:YES;
#BPMS:0.000=220.000;
#STOPS:;
#BGCHANGES:;
// cache tags:
#FIRSTBEAT:8.000;
#LASTBEAT:592.000;
#SONGFILENAME:Songs/SPEEEDCOOOORE 2/12 Fragments of Silence - [Aoreo]/12 Little Fragments.sm;
#HASMUSIC:1;
#HASBANNER:1;
#MUSICLENGTH:164.727;
// end cache tags

//---------------dance-single - J. Nero----------------
#NOTES:
     dance-single:
     J. Nero:
     Challenge:
     17:
     1.000,1.000,0.389,0.115,1.000,1546.000,64.000,19.000,3.000,0.000:

0000
0000
0000
0000
,
0000
0000
0000
0000
,
1001
0000
0000
1001
0000
0000
1001
0000
0000
1001
0000
0000
1001
0000
0000
0000
,
0000
0000
0000
0000
,
0101
0000
0000
0101
0000
0000
0101
0000
0000
0101
0000
0000
0101
0000
0000
0000
,
0000
0000
0000
0000
,
1001
0000
0000
0000
,
1010
0000
0000
0000
,
0110
0000
0101
0000
,
1001
1100
0110
0020
,
0031
1000
0100
1000
0001
0010
0100
0010
,
0001
0000
0000
1000
0000
0000
0001
0100
0001
0100
0000
0000
0001
1000
0001
1000
0000
0000
0010
0000
0000
0100
0000
0000
,
0010
0000
1000
0000
0001
0000
0100
0000
0001
1000
0001
1000
0001
0000
0100
0000
,
0001
1000
0100
0100
0010
0100
0100
1000
,
0010
0100
0001
1000
0100
0010
0100
1000
,
0001
0000
0100
0000
0010
0000
0100
0000
0000
0000
0040
0030
1000
0000
0001
0000
,
0100
0000
0010
0000
0100
0000
0001
0000
1000
0100
1000
0100
0010
0000
0001
0000
,
1000
0000
0001
0100
0001
0000
0100
0000
0001
0000
1000
0000
0010
0000
0100
0000
,
0001
0000
1000
0100
1000
0000
0001
0000
0100
0000
0010
0100
0010
0000
1000
0000
,
0001
0000
1000
0100
1000
0100
0010
0000
0001
0000
0000
0000
1000
0000
0010
0000
,
0100
0000
0001
1000
0001
0000
1000
0000
0001
0100
0001
0100
0010
0000
1000
0000
,
0100
0000
0010
0000
0001
0000
1000
0000
0100
1000
0001
1000
0001
0000
0100
0000
,
0010
0000
0100
0001
0100
0000
0010
0000
1000
0000
0001
1000
0001
0000
1000
0000
,
0100
0000
1000
0001
1000
0001
0100
0000
0010
0000
0100
0001
0100
0000
0001
1000
,
0001
0000
1000
0100
0010
0100
1000
0001
1000
0000
0001
0000
1000
0100
1000
0001
,
0010
0001
1000
0010
1000
0001
0010
0001
1000
0100
1000
0001
1000
0010
0100
0010
,
1000
0000
0001
0000
0100
0000
0010
0000
0100
0000
0001
0000
1000
0000
0001
0000
2000
3000
0000
0000
0000
0000
0000
0000
0001
0000
0100
0000
0010
0000
0100
0000
,
0001
0000
1000
0000
0100
0000
1000
0000
0001
0000
0100
0000
0010
0000
1000
0000
0002
0003
0000
0000
0000
0000
0000
0000
1000
0000
0100
0000
1000
0000
0001
0000
,
0010
0000
0100
0000
1000
0000
0100
0000
0010
0000
0001
0000
1000
0000
0001
0000
2000
3000
0000
0000
0000
0000
0000
0000
0001
0000
1000
0000
0100
0000
1000
0000
,
0001
0000
0100
0000
0010
0000
0100
0000
0001
0000
1000
0000
0100
0000
1000
0000
0002
0003
0000
0000
0000
0000
0000
0000
1000
0000
0001
0000
1000
0000
0001
0000
,
0100
0000
0010
0000
0100
0000
0001
0000
1000
0000
0100
0000
0010
0000
0100
0000
0020
0030
0001
0000
1000
0000
0001
0000
1000
0000
0100
0000
1000
0000
0001
0000
,
0100
0000
0010
0000
0100
0000
0001
0000
0010
0000
0100
0000
1000
0000
0001
0000
2000
3000
0100
0000
0010
0000
0100
0000
1000
0000
0001
0000
0100
0000
0010
0000
,
0100
0000
0001
0000
1000
0000
0001
0000
0010
0000
0100
0000
1000
0000
0001
0000
2000
3000
0010
0000
0100
0000
0001
0000
1000
0000
0000
0000
0000
0000
0001
0000
,
0100
0000
0000
0000
0000
0000
0100
0000
0000
0000
0000
0000
0001
0000
0000
0000
2000
3000
0000
0000
0010
0000
0000
0000
0100
0000
0001
0000
0100
0000
0010
0000
,
1000
0000
0001
0000
1000
0000
0001
0000
0100
0000
0010
0000
1000
0000
0001
0000
2000
3000
0000
0000
0000
0000
0000
0000
0001
0000
0100
0000
0001
0000
1000
0000
,
0100
0000
1000
0000
0010
0000
0100
0000
0001
0000
0100
0000
0010
0000
1000
0000
0002
0003
0000
0000
0000
0000
0000
0000
1000
0000
0100
0000
0010
0000
0100
0000
,
1000
0000
0100
0000
0010
0000
0001
0000
1000
0000
0001
0000
0010
0000
0100
0000
2000
3000
0000
0000
0000
0000
0000
0000
0001
0000
0100
0000
0001
0000
1000
0000
,
0100
0000
1000
0000
0001
0000
0010
0000
0100
0000
1000
0000
0001
0000
1000
0000
0002
0003
0100
0000
0001
0000
0100
0000
0010
0000
1000
0000
0001
0000
1000
0000
,
0001
0100
0010
0100
0001
1000
0100
1000
0001
0100
0001
1000
0100
0010
0001
1000
,
0001
0000
1000
0000
0010
0000
0100
0000
0001
0000
0100
0000
0001
0000
1000
0000
0200
0300
1000
0000
0001
0000
0100
0000
0001
0000
0100
0000
0010
0000
1000
0000
,
0001
0000
1000
0000
0100
0000
0010
0000
0100
0000
0010
0000
0001
0000
1000
0000
0020
0030
0100
0000
0001
0000
1000
0000
0001
0000
0100
0000
0010
0000
0100
0000
,
0001
1000
0100
1000
0004
4000
0000
0000
0000
0000
0000
3000
0MM3
0000
1000
0100
,
1000
0000
0001
0100
0001
1000
0010
0100
0010
1000
0001
0100
0010
0000
1000
0001
,
1000
0000
0001
0010
0100
0010
0001
1000
0100
0010
0001
1000
0001
0000
1000
0010
,
1000
0000
0001
0100
0010
1000
0010
0100
0001
1000
0001
1000
0010
0000
1000
0001
,
1000
0000
0001
1000
0100
1000
0001
0010
0001
1000
0001
1000
0100
0000
1000
0001
,
1000
0000
0100
1000
0001
0100
0001
1000
0010
0100
0001
1000
0001
0000
1000
0100
,
1000
0000
0001
0010
0100
0010
0100
1000
0001
0100
0010
0100
0001
0000
1000
0100
,
1000
0000
0001
1000
0100
0010
0100
1000
0010
0100
0001
1000
0001
0000
0000
1000
,
0001
0000
0000
0001
0000
0000
1000
0000
0010
0000
0100
0000
0001
0000
1000
0100
,
1000
0001
0100
0010
0100
0001
1000
0010
1000
0001
0100
0001
0100
0000
0001
0010
,
0100
1000
0001
0010
0100
0010
0100
1000
0001
1000
0001
1000
0010
0000
0100
0001
,
0100
0010
1000
0010
1000
0001
0100
0001
1000
0010
0100
0001
1000
0000
0001
0100
,
0010
0100
0001
1000
0001
1000
0010
0100
0010
1000
0001
0100
0001
0000
1000
0100
,
1000
0001
0010
0100
1000
0001
0010
0100
0010
0001
1000
0001
1000
0000
0010
0100
,
0001
1000
0001
0100
0010
0100
0001
1000
0001
0100
0010
0100
0001
0000
1000
0100
,
1000
0001
1000
0001
0010
0100
1000
0001
1000
0010
0100
0001
1000
0100
0010
0001
,
1000
0100
0010
0001
1000
0100
0010
0001
1000
0100
0010
0001
1000
0000
0000
0000
,
1001
1001
0000
0101
,
0101
0101
0000
1100
,
1100
1100
0000
1001
,
1001
0000
0000
0000
1001
0000
0000
0000
0000
0000
0000
0001
0100
0000
0000
0000
,
0110
1010
0000
1100
,
0110
0011
0000
01M1
,
1001
0000
1100
0000
0000
0000
1000
0100
,
1000
0001
0100
0010
1000
0000
0101
0000
,
0101
0101
0001
1100
,
1100
0000
1100
0000
1000
0001
0101
0000
,
0110
1010
1000
1100
,
1100
0000
0000
0000
0000
0000
1001
0000
0000
0001
0000
0000
0100
0000
0000
0001
1000
0001
1000
0000
0000
0000
0000
0000
,
1010
0110
0100
0101
,
0011
0000
0110
0000
0100
1000
1001
0000
,
0101
0000
0000
0000
0110
0000
0000
0000
0020
0030
0000
0000
1000
0000
0000
0100
,
1000
0000
0000
0001
0000
0000
0100
0000
0001
0000
0001
0000
1000
0001
0100
0001
,
1000
0010
0100
0010
0100
0001
1000
0001
0100
0001
1000
0010
1000
0010
0100
0001
,
1000
0001
1000
0010
0100
0001
0100
0010
1000
0001
1000
0100
0010
0001
1000
0001
,
0010
0100
1000
0001
1000
0100
1000
0001
0010
0001
0010
0100
0010
0001
1000
0100
,
1000
0001
1000
0010
0100
0001
0100
0010
1000
0001
0100
0001
1000
0010
1000
0010
,
0100
0001
1000
0001
1000
0100
1000
0001
0100
0001
1000
0010
0100
0010
0100
0001
,
1000
0010
0100
0001
1000
0001
0010
0100
1000
0001
0010
0001
0010
0100
1000
0100
,
0010
0001
1000
0100
0010
0100
1000
0001
1000
0001
0010
0100
1000
0001
1000
0100
,
0010
0001
1000
0001
1000
0010
0100
0001
0100
0001
1000
0010
1000
0001
0100
0010
,
0100
0001
1000
0100
0010
0001
0010
0100
1000
0001
0010
0001
1000
0001
1000
0100
,
0010
0001
1000
0100
1000
0001
0100
0010
0100
0001
1000
0001
0010
0100
1000
0001
,
1000
0100
1000
0001
0100
0010
0100
0001
0100
0010
1000
0001
1000
0100
0010
0001
,
1000
0001
0010
0100
1000
0001
1000
0010
0100
0001
0100
0001
1000
0100
1000
0001
,
0100
0010
0100
0001
0100
0010
1000
0010
1000
0001
0100
0010
0100
0001
1000
0100
,
0010
0001
1000
0001
0010
0100
1000
0001
0100
0010
0100
0001
1000
0000
0001
0000
,
0100
0000
0010
0000
0100
0000
0001
0000
1000
0000
0010
0000
0100
0001
0100
0010
,
1000
0001
0010
0100
1000
0001
1000
0010
0100
0001
1000
0000
1001
0000
0000
0000
,
0001
0000
1001
0000
1000
0100
0000
1000
,
0100
0000
1000
0001
0000
0000
0000
0000
,
0000
0000
0000
0000
,
0000
0000
0000
1010
,
1000
0000
1001
0000
0001
0100
0000
0001
,
0100
0000
0001
1000
0000
0000
0002
0000
,
0003
0000
0000
0000
0000
0000
0000
0000
0000
1000
0100
0010
,
0100
0000
0000
0000
1000
0000
0000
0000
0001
0000
0000
0000
0100
0000
0000
0000
0010
0000
0000
0000
1000
0000
0000
0000
0001
0000
0000
0000
0000
0000
0100
0000
0000
0000
0000
0000
0001
0000
0000
0000
0000
0000
1000
0000
0000
0001
0000
0000
,
0100
0000
0001
0100
0010
0000
1000
0001
0100
0000
0001
1000
0001
0000
1000
0010
,
0100
0000
0001
0100
0010
0000
1000
0001
1000
0000
0001
0100
0010
0000
0000
1000
,
0000
0000
0000
0000
0000
0000
0001
0000
0000
0000
0000
0000
0000
0000
0000
0100
0000
0000
0000
0000
0000
0000
0000
0000
0010
0000
0000
0000
0000
0000
1000
0000
0000
0100
0000
0000
1000
0000
0000
0000
0001
0000
0000
0000
0100
0000
0000
0000
,
0001
1000
0100
4000
0000
0000
0000
0000
0000
3002
0000
0000
,
0000
0000
0000
0003
,
0000
0000
0000
0000
0000
0000
0000
0000
1000
0000
0000
0000
0001
0100
0001
0100
,
0010
1000
0001
1000
0010
1000
0010
0100
0001
0100
0001
1000
0010
1000
0001
0100
,
0010
0100
0010
1000
0001
0100
0010
0100
0001
1000
0010
0100
0010
1000
0001
1000
,
0100
0010
0001
1000
0001
0010
0100
1000
0001
1000
0100
1000
0001
0010
0001
1000
,
0100
0010
0001
1000
0001
1000
0001
0010
0100
1000
0001
1000
0100
0010
0001
1000
,
0001
1000
0100
1000
0001
0100
0001
0100
0010
1000
0010
0100
0001
1000
0001
1000
,
0010
0100
0010
0100
0001
1000
0010
0100
0010
1000
0001
1000
0001
1000
0100
0010
,
0001
1000
0100
0010
0100
1000
0001
0100
0001
1000
0001
0100
0010
0100
0001
0100
,
0010
1000
0001
0100
0001
1000
0100
0010
0001
1000
0100
1000
0001
0010
0100
1000
,
0001
1000
0001
0010
0100
1000
0001
1000
0100
0010
0001
1000
0100
1000
0001
0100
,
0001
1000
0001
1000
0100
0010
0001
1000
0001
0010
0100
1000
0001
1000
0010
0100
,
0010
1000
0001
1000
0001
0010
0100
1000
0001
1000
0100
0010
0100
1000
0001
1000
,
0010
0100
0010
1000
0001
1000
0001
1000
0010
0100
0010
1000
0001
1000
0001
0010
,
0100
1000
0100
0010
0001
1000
0001
0010
0100
1000
0001
1000
0001
0010
0100
0010
,
0100
1000
0001
0010
0001
1000
0100
0010
0001
1000
0010
0100
0010
0100
0001
1000
,
0001
0100
0001
0100
0010
1000
0001
0100
0001
1000
0001
1000
0010
0100
0001
0100
,
0001
1000
0010
1000
0001
0100
0010
1000
0010
1000
0001
0100
0001
1000
0010
1000
,
0001
0010
0100
1000
0100
0010
0001
1000
0100
1000
0001
0010
0001
0010
0100
0010
,
0001
1000
0001
1000
0100
0010
0001
1000
0001
0010
0100
1000
0001
1000
0001
1000
,
0100
1000
0001
0010
0001
1000
0010
1000
0001
0100
0010
0100
0001
1000
0001
0100
,
0010
1000
0001
0100
0001
1000
0100
1000
0100
1000
0001
0010
0100
1000
0001
1000
,
0001
0010
0100
1000
0001
1000
0001
0010
0100
1000
0001
0100
0010
0100
0010
1000
,
0001
0100
0010
1000
0010
1000
0001
0100
0001
0100
0010
1000
0010
1000
0001
0100
,
0001
1000
0100
0010
0001
1000
0001
1000
0100
0010
0100
0010
0001
1000
0100
1000
,
0001
0010
0001
0010
0100
1000
0001
1000
0100
0010
0001
1000
0001
0010
0100
1000
,
0001
1000
0001
0010
0100
1000
0001
0100
0001
1000
0010
0100
0010
1000
0001
0100
,
0001
0100
0010
1000
0010
1000
0001
0100
0001
0100
0010
1000
0010
1000
0001
1000
,
0010
1000
0010
1000
0001
0100
0001
1000
0001
1000
0010
1000
0010
0100
0001
1000
,
0001
0100
0001
0100
0010
1000
0001
1000
0001
1000
0100
1000
0100
0010
0001
1000
,
0100
1000
0001
0010
0001
1000
0100
0010
0100
0010
0001
1000
0001
0010
0100
1000
,
0001
1000
0100
0010
0001
1000
0001
1000
0001
0100
0001
0100
0010
1000
0010
1000
,
0001
1000
0100
0010
0001
1000
0100
0010
0100
1000
0001
0010
0100
0010
0100
1000
,
0001
0010
0001
1000
0100
1000
0100
0010
0001
1000
0100
0010
0001
0000
0000
0000
,
0100
0000
1010
0000
0001
0100
0000
0001
,
0100
0000
0001
0100
0000
0001
1000
0000
,
0000
0000
0000
0000
,
0000
0000
0000
0001
,
1001
0000
1100
0000
0100
1000
0000
0100
,
1000
0000
0100
1000
0000
0100
1000
0000
,
0000
0000
0000
0000
0000
0000
0100
1000
,
0000
0100
1000
0000
0100
1000
0002
0000
,
0000
0000
0000
0000
,
0000
0000
0000
0000
,
0000
0000
0000
0000
,
0000
0000
0000
0000
,
0003
0000
0000
0000
;
