#TITLE:Disobey and Die;
#SUBTITLE:Dj Huggies Asskicking Remix;
#ARTIST:DJ Triex;
#TITLETRANSLIT:;
#SUBTITLETRANSLIT:;
#ARTISTTRANSLIT:;
#CREDIT:Rynker;
#BANNER:Bn-Disobey.png;
#BACKGROUND:Bg-Disobey.png;
#LYRICSPATH:;
#CDTITLE:;
#MUSIC:10. DJ Triex - Disobey And Die (DJ Huggies Asskicking Remix).ogg;
#OFFSET:-0.096;
#SAMPLESTART:44.958;
#SAMPLELENGTH:12.000;
#SELECTABLE:YES;
#BPMS:0.000=210.000;
#STOPS:;
#BGCHANGES:;
// cache tags:
#FIRSTBEAT:27.000;
#LASTBEAT:637.000;
#SONGFILENAME:Songs/SPEEEDCOOOORE/Disobey and Die DJ Huggies Asskicking Remix - [Rynker]/Disobey and Die.sm;
#HASMUSIC:1;
#HASBANNER:1;
#MUSICLENGTH:182.435;
// end cache tags

//---------------dance-single - J. Nero vs R. Konkul----------------
#NOTES:
     dance-single:
     J. Nero vs R. Konkul:
     Challenge:
     14:
     1.000,1.000,0.186,0.164,0.967,1311.000,34.000,30.000,14.000,0.000:

0000
0000
0000
0000
,
0000
0000
0000
0000
,
0000
0000
0000
0000
,
0000
0000
0000
0000
,
0000
0000
0000
0000
,
0000
0000
0000
0000
,
0000
0000
0000
1001
,
0101
1010
1100
0110
,
0011
0000
0000
0000
1001
0000
0000
0000
1010
0000
0000
0000
0010
0100
0010
1000
,
0001
1000
0001
0010
0100
0000
0000
0000
1100
0000
0000
0000
1010
0000
0000
0000
,
0110
0000
0000
0000
0101
0000
0000
0000
1001
0000
0000
0000
1000
0100
1000
0001
,
0100
0010
1000
0001
1000
0000
0000
0000
0001
0000
0000
0000
0100
0000
0000
0000
,
0010
0000
0000
0000
1000
0001
1000
0001
0100
0001
0100
0001
1000
0100
1000
0100
,
0010
0001
0010
0001
1000
0000
0001
0010
0001
0000
0000
0000
0010
0000
0100
0000
,
0000
1000
1100
0000
0000
0000
0100
0000
,
1000
0000
0010
0100
0001
0000
0100
0000
,
0010
1000
1020
0000
0030
0000
1000
0000
,
0001
0000
0000
0000
0010
0000
0100
0000
1000
0000
0000
0000
0010
0000
0100
0001
,
0100
0201
0300
0001
,
1000
0000
0010
0100
0001
0000
1000
0000
,
0100
0000
0000
0000
0010
0001
0010
0001
1000
0001
1000
0001
1000
0010
1000
0010
,
0100
0010
0100
0010
1000
0000
0010
0000
0100
0000
0000
0000
0001
0000
0000
0000
,
0010
0000
0201
0001
0301
0000
0001
0000
,
0010
0000
0100
1000
0010
0000
1000
0001
,
0010
0100
1000
0001
1000
0001
1000
0001
1000
0100
1000
0100
0010
0100
0010
0001
,
1000
0001
1000
0001
0100
0001
0100
0010
1000
0010
1000
0001
0010
0001
0010
0001
,
0010
0001
1000
0001
1000
0000
0001
0000
0100
0000
0000
0000
0010
0000
0000
0000
,
0110
0000
0100
0001
1000
0100
0010
0001
,
1000
0000
0001
0100
0010
0000
0100
0000
0001
0000
0001
0000
0020
0000
0000
0000
,
0130
1000
0010
0100
0001
0010
0100
1000
,
0100
0000
1000
0010
0100
0000
0010
0000
1000
0000
0001
0000
0010
0100
1000
0100
,
0010
0001
0010
0100
1000
0000
0010
0000
0100
0000
0001
0000
1000
0000
0100
0000
,
0010
0000
0001
1000
0010
0000
0100
0000
0001
0000
0001
0000
2000
0000
0000
0000
,
3010
1000
0001
1000
0010
0100
0001
0010
,
0001
0000
1000
0001
0100
0010
0100
0010
1000
0001
1000
0001
1000
0100
0010
0001
,
0100
0010
0100
0010
0100
0000
0000
0000
1001
0000
0001
0000
0100
0000
0001
0000
,
1000
0000
0100
0010
0001
0000
1000
0000
0001
0000
0001
0000
0200
0000
0000
0000
,
0301
1000
0001
0100
0010
1000
0001
0010
,
0100
0000
1000
0001
0010
0000
0001
0000
0100
0000
0010
0000
1000
0001
1000
0010
,
0100
0010
1000
0001
0010
0000
0001
0000
0100
0000
0010
0000
1000
0000
0001
0000
,
0010
0000
0100
1000
0001
0000
0100
0000
0001
0000
0001
0000
0020
0000
0000
0000
,
0130
1000
0001
0100
0010
1000
0100
0010
,
0001
0000
1000
0100
0010
0001
1000
0001
1000
0001
0100
0001
1000
0010
1000
0001
,
0100
0010
0100
0010
0100
0000
0001
0000
1000
0000
0100
0000
0010
0000
0001
0000
,
1000
0000
0010
0100
0001
0000
1000
0000
0001
0000
0001
0000
0200
0000
0000
0000
,
0301
0100
0010
1000
0100
0010
0100
1000
,
0001
0000
0100
0001
1000
0000
0100
0000
0010
0000
0001
0000
2000
0100
3010
0001
,
0010
0001
1000
0010
1000
0000
0010
0000
1000
0000
0001
0000
1000
0000
0100
0000
,
1000
0000
0100
0010
0001
0000
1000
0000
0010
0000
0010
0000
0200
0000
0000
0000
,
0301
0100
0001
0010
0001
0100
0001
0010
,
0001
0000
1000
0001
1000
0001
0100
0010
0100
0001
1000
0100
1000
0001
0100
0001
,
1000
0100
0010
0100
0010
0000
0100
0000
1000
0000
0001
0000
1000
0000
0010
0000
,
0100
0001
0010
0110
0100
1000
1002
0000
,
0103
0001
0100
0010
1000
1001
1001
0001
,
0010
0000
0001
1000
0100
0010
0001
0010
0001
1000
0010
0100
0020
0000
0100
0030
,
0001
0010
0100
1000
0010
1010
1000
0001
,
0011
0000
1000
0010
1010
0000
1002
0000
,
1003
0000
0001
0000
1001
0000
0100
0000
0001
1000
0100
0010
0001
0010
0001
0100
,
0010
0000
0100
0000
0110
0000
0000
0000
1010
0000
0000
0000
1000
0001
1000
0001
,
0100
0010
0100
0010
0100
0000
0001
0000
0010
0000
0100
0000
1000
0000
0001
0000
,
1000
0000
0010
0100
0001
0000
1000
0000
0010
0000
0010
0000
0200
0000
0000
0000
,
0301
0100
0010
1000
0001
0010
0100
1000
,
0001
0000
0100
0001
1000
0100
0010
0001
1000
0001
1000
0001
0010
0100
1000
0100
,
1000
0001
0100
0001
0010
0000
0001
0000
0010
0000
0100
0000
1000
0000
0001
0000
,
0100
0000
0010
0100
0001
0000
1000
0000
0001
0000
0001
0000
0200
0000
0000
0000
,
0310
0100
0001
1000
0100
0010
0001
1000
,
0001
0000
1000
0010
0100
0000
0010
1000
0001
0000
0010
0000
0001
1000
0100
1000
,
0010
0100
0010
0100
0010
0000
1000
0000
0001
0000
0010
0000
0100
0000
1000
0000
,
0001
0000
1000
0010
0100
0000
0001
0000
1000
0000
1000
0000
0200
0000
0000
0000
,
0310
0001
0100
0010
1000
0001
0010
0100
,
1000
0000
0001
1000
0100
0010
0001
0010
0100
1000
0010
0100
0001
0100
0001
1000
,
0100
1000
0100
0010
0001
0000
1000
0000
0001
0000
0100
0000
0010
0000
1000
0000
,
0100
0000
0010
0001
1000
0000
0001
0000
0100
0000
0100
0000
0020
0000
0000
0000
,
1030
0001
0010
0100
0010
0001
0010
0100
,
1000
0000
0010
0100
0001
1000
0100
1000
0100
0010
0001
0010
0001
1000
0010
1000
,
0010
0100
0001
0010
0100
0000
0000
0000
0000
1000
0001
1000
0001
0000
0000
0000
,
0000
0000
0100
0001
0100
0000
0000
0000
0000
0010
0100
0010
0100
0000
0000
0000
,
0001
1000
0000
0001
1000
0000
0000
0000
0000
0100
1000
0100
1000
0000
0000
0000
,
0100
0000
1000
0100
2000
0000
3000
0000
0000
0000
0001
0100
0001
0000
0000
0000
,
0100
0010
0000
1000
0010
0000
0000
0000
1000
0000
0100
1000
0100
0000
0000
0000
,
0000
0000
0010
0100
0010
0000
0000
0000
0001
1000
0001
1000
0001
0000
0000
0000
,
0100
0010
0000
1000
0001
0000
0000
0000
0000
0010
0001
0010
0001
0000
0000
0000
,
0000
0000
1000
0001
1000
0001
0100
0001
0100
0010
1000
0010
0100
0001
0100
0010
,
1000
0010
0100
0001
0100
0000
0000
0000
0000
0001
1000
0001
1000
0000
0000
0000
,
0000
0000
0100
1000
0100
0000
0000
0000
0000
1000
0100
1000
0100
0000
0000
0000
,
0010
0100
0000
0010
0001
0000
0000
0000
0000
1000
0001
1000
0001
0000
0000
0000
,
1000
0000
0010
0100
0020
0000
0030
0000
0100
0000
0001
1000
0001
0000
0000
0000
,
1000
0100
0000
1000
0001
0000
0000
0000
0010
0000
0001
0100
0001
0000
0000
0000
,
0000
0000
1000
0100
1000
0000
0000
0000
0100
1000
0100
1000
0100
0000
0000
0000
,
0010
0001
0000
1000
0001
0000
0000
0000
0000
0100
0001
0100
0001
0000
0000
0000
,
1000
0000
0001
1000
0001
0000
0000
0000
0010
0001
0010
0001
1000
0100
1000
0001
,
0010
0001
1000
0100
1000
0000
0000
0000
0000
0001
0100
0001
0100
0000
0000
0000
,
0000
0000
0010
1000
0010
0000
0000
0000
0000
1000
0001
1000
0001
0000
0000
0000
,
1000
0100
0000
0010
0100
0000
0000
0000
0000
0010
0001
0010
0001
0000
0000
0000
,
1000
0000
0001
0100
0002
0000
0003
0000
0100
0000
0010
1000
0010
0000
0000
0000
,
1000
0100
0000
0010
0001
0000
0000
0000
0100
0000
0001
0100
0001
0000
0000
0000
,
1000
0000
0010
1000
0010
0000
0000
0000
0000
1000
0100
1000
0100
0000
0000
0000
,
0010
0001
0000
1000
0001
0000
0000
0000
0000
1000
0010
1000
0010
0000
0000
0000
,
0100
0000
0001
1000
0002
0000
0003
0000
0010
0000
0100
1000
0100
0000
0000
0000
,
1000
0010
0000
0010
0000
0000
0000
0000
1000
0000
0000
0000
1000
0000
0000
0000
,
0001
0001
0010
0010
,
0100
0100
1000
1000
,
0001
0001
1000
1000
,
0010
0000
0000
0000
0010
0000
0000
0000
0100
0000
0000
0000
0100
0001
1000
0001
,
1000
0100
0010
0100
1000
0000
0000
0000
0001
0000
0000
0000
0001
0000
0000
0000
,
1000
1000
0010
0010
,
0100
0000
0000
0000
0100
0001
1000
0001
1000
0100
0010
0100
0010
0001
1000
0010
,
1000
0001
0010
0001
2000
0000
0000
0000
3000
0000
0000
0000
0001
0000
0000
0000
,
0001
0000
1000
0010
0100
0000
0001
0000
,
1000
0000
0000
0000
0100
0010
0001
0010
0001
1000
0010
1000
0010
0100
0001
1000
,
0001
1000
0001
1000
0001
0000
1000
0000
0010
0000
0000
0000
0100
0000
0000
0000
,
0010
M1MM
0000
0001
,
0010
0000
0000
0000
0100
0000
1000
0000
0001
0000
1000
0010
1000
0000
0010
0100
,
0001
1000
0100
0010
0100
1000
0001
1000
0010
1000
0001
1000
0100
0010
0100
1000
,
0010
0100
0010
1000
0001
1000
0010
0100
0010
1000
0001
0010
0001
0010
0100
1000
,
0001
1000
0010
0100
0010
1000
0001
1000
0100
1000
0001
0100
0001
1000
0010
1000
,
0001
0100
0001
1000
0100
0010
0100
1000
0001
0010
0100
1000
0001
1000
0010
1000
,
0001
0010
0001
0010
0100
0010
0100
1000
0010
1000
0001
0100
0010
0100
0001
0100
,
0001
1000
0001
0010
0100
0010
0001
1000
0010
0100
0010
1000
0001
0010
0100
0010
,
0001
1000
0001
1000
0001
0000
0000
0000
0000
0000
0000
0000
0000
0000
0000
0000
,
000M
000M
00MM
0MMM
,
MMMM
1001
1000
0100
,
1000
0010
0100
0001
,
0010
0100
1000
0001
,
1000
0000
0000
0000
0010
1000
0010
1000
0001
0010
0001
1000
0010
1000
0010
0100
,
0001
0100
0001
1000
0100
0000
1000
0000
1000
0000
0000
0000
1001
0000
0000
0000
,
0000
0000
0000
0000
,
0001
0001
1001
1000
0010
0100
0001
1000
,
0100
0000
0010
0001
1000
0000
0010
0000
1000
0000
1000
0000
0200
0000
0000
0000
,
0310
0001
1000
0001
0100
0010
1000
0001
,
0010
0000
0100
1000
0010
0000
0100
0000
0001
0000
1000
0000
0200
0010
0301
1000
,
0001
0100
0010
0100
0001
0000
1000
0000
0100
0000
0010
0000
0001
0000
1000
0000
,
0001
0000
0100
0010
1000
0000
0001
0000
0100
0000
0100
0000
0020
0000
0000
0000
,
1030
0010
1000
0001
0010
0100
1000
0001
,
1000
0000
0010
0100
0010
1000
0001
1000
0001
0010
0100
0010
0001
1000
0001
1000
,
0010
0100
0010
0100
0010
0000
1000
0000
0001
0000
0010
0000
0100
0000
1000
0000
,
0001
0000
1000
0010
0100
0000
0001
0000
1000
0000
1000
0000
0200
0000
0000
0000
,
0310
0001
0100
0010
0100
0001
1000
0100
,
0010
0000
0001
1000
0010
0000
0100
0000
0001
0000
1000
0000
0100
0010
0100
1000
,
0001
0100
0010
1000
0010
0000
1000
0000
0001
0000
0100
0000
0010
0000
1000
0000
,
0001
0000
0010
0100
1000
0000
0001
0000
0100
0000
0100
0000
0020
0000
0000
0000
,
0130
0001
1000
0010
0100
0010
1000
0001
,
0010
0000
0100
1000
0001
1000
0010
1000
0010
0100
0001
1000
0100
0010
0001
1000
,
0010
0100
0010
0100
0010
0000
1000
0000
0001
0000
0010
0000
0100
0000
0010
0000
,
0001
0000
0100
0001
0010
0000
0100
0000
1000
0000
1000
0000
0002
0000
0000
0000
,
0013
0100
1000
0001
0100
0010
0100
0001
,
1000
0000
0000
0000
0100
0000
1000
0000
0010
0000
0000
0000
0100
0000
0000
0000
0001
0000
0000
0000
0010
0000
0000
0000
0200
0000
1000
0300
0001
0000
1000
0000
,
0001
0010
0100
1000
0001
0000
0100
0000
0010
0000
1000
0000
0001
0000
0100
0000
,
0010
0000
1000
0100
0010
0000
0001
0000
0100
0000
0100
0000
0002
0000
0000
0000
,
1003
0100
1000
0001
0010
0100
1000
0001
,
1000
0000
0010
0100
0001
1000
0010
1000
0010
0100
0001
0100
0001
1000
0100
0010
,
0100
1000
0001
1000
0001
0000
0000
0000
0000
0000
1000
0000
0000
0000
0010
0000
,
0000
0100
0000
0001
0000
0010
0000
0100
,
0000
0010
0000
0001
0000
1000
0000
0010
,
0000
0100
0000
0001
0000
1000
0000
0100
,
0000
0010
0000
0100
0000
1000
0000
0001
,
0000
1000
0000
0010
0000
0100
0000
0001
,
0000
1000
0000
0100
0000
0010
0000
0001
,
0000
1000
0000
0010
0000
0100
0000
0001
,
0000
1001
0000
0000
;
