#TITLE:Binedump (Cut);
#SUBTITLE:Kirlian Selections (2005);
#ARTIST:The Flashbulb;
#TITLETRANSLIT:;
#SUBTITLETRANSLIT:;
#ARTISTTRANSLIT:;
#CREDIT:;
#BANNER:Binedump-bn.png;
#BACKGROUND:Binedump-bg.png;
#LYRICSPATH:;
#CDTITLE:!CDTitle.png;
#MUSIC:Binedump (Cut).mp3;
#OFFSET:-1.150;
#SAMPLESTART:97.120;
#SAMPLELENGTH:19.240;
#SELECTABLE:YES;
#BPMS:0.000=200.000,304.000=202.500,310.000=200.000;
#STOPS:;
#BGCHANGES:;
// cache tags:
#FIRSTBEAT:0.000;
#LASTBEAT:461.500;
#SONGFILENAME:Songs/Hard Songs Megapack Volume 9/Binedump (Cut)/Binedump.sm;
#HASMUSIC:1;
#HASBANNER:1;
#MUSICLENGTH:140.173;
// end cache tags

//---------------dance-single - ----------------
#NOTES:
     dance-single:
     :
     Challenge:
     15:
     1.000,1.000,1.000,0.728,1.000,1472.000,699.000,102.000,0.000,98.000:
0110
0000
0000
0000
0000
0000
0000
0000
0110
0000
0000
0000
0000
0000
0000
0000
0110
0000
0000
0000
0000
0000
0000
0000
0110
0000
0000
0000
0000
0000
0000
0000
1001
0000
0000
0000
0000
0000
0000
0000
0100
0000
0000
0000
1000
0000
0000
0000
0010
0000
0000
0000
0000
0000
0000
0000
0001
0010
0100
1000
0001
0010
0100
1000
,
0002
0000
0003
0000
0010
0000
0010
0000
1100
0000
0000
0000
1100
0000
0000
0000
0011
0000
0100
0000
0011
0000
0100
0000
1010
0000
0000
0000
1000
0001
1000
0001
,
0110
0000
0000
1100
0000
0000
0011
0000
0101
1000
0011
1000
0011
1000
0101
0000
,
1010
0000
0000
0000
1000
0000
0000
0000
0110
0000
0001
0000
0110
0000
0001
0000
1100
0000
0010
0000
1100
0000
0001
0000
1022
0000
0000
0000
1000
0000
0000
0033
,
1001
0000
1001
0000
1001
0000
1001
0000
0110
0000
0001
0000
1010
0001
1010
0011
,
2100
0000
0000
0000
0100
0000
0000
3000
0101
0000
0000
0000
1010
0000
0010
0000
1100
0000
0100
0000
0011
0000
0001
0000
0120
0000
0000
0000
1000
0000
0000
0030
,
1001
0000
0000
1010
0000
0000
0101
0000
1001
0000
0011
0100
1010
0010
1000
0000
,
0110
0000
1000
0000
0100
0000
0010
0000
0101
0000
1010
0000
0101
0000
1010
0000
1001
0000
0001
0010
1001
0000
0001
0010
2200
0000
0000
0000
0000
0000
0000
3300
,
0110
0000
0000
0000
0000
0000
0000
0000
0110
0000
0000
0000
0000
0000
0000
0000
0110
0000
0000
0000
0000
0000
0000
0000
0110
0000
0000
0000
0000
0000
0000
0000
1001
0000
0000
0000
0000
0000
0000
0000
1001
0000
0000
0000
0000
0000
0000
0000
1000
0100
0010
0001
1000
0100
0010
0001
1000
0100
0010
0001
1000
0100
0010
0001
,
2100
0000
0000
0000
3010
0000
0000
0000
1001
0000
0000
0000
1010
0000
0000
0000
0011
0000
1100
0000
0011
0000
1100
0000
1001
0000
0000
0000
1010
0001
1010
0001
,
0110
0000
0000
0000
0000
0000
1100
0000
0000
1000
0000
0000
0011
0000
0000
0000
0101
0000
1010
0000
0101
0000
1010
0000
0101
0000
1010
0000
2100
0000
3000
0000
,
0110
0000
0000
0000
1100
0000
0000
0000
0101
0000
1000
0000
0011
0000
0100
0000
1000
0000
0010
0000
1100
0000
0001
0000
0120
0000
0000
0000
2031
0000
0000
3000
,
0110
0000
0110
0000
0110
0000
1001
0000
1010
0000
0101
0000
0110
1000
0110
1010
,
0101
0000
0010
0000
1001
0000
1001
0001
1100
1000
1010
0001
0110
0110
0110
0110
,
1010
0000
0010
0101
1002
0000
1013
0000
0110
0000
0011
1000
0110
0100
1001
0000
,
1000
0000
0001
0000
1000
0000
0001
0000
1010
0000
1000
0000
1010
0000
1000
0000
0011
0000
0100
1000
0011
0000
0100
1000
0122
0000
0000
0000
1000
0000
0000
0033
,
1001
0000
0000
1001
0000
0000
1001
0000
0110
0000
0001
1000
0010
1000
0100
0010
,
1001
1001
1001
1001
0110
0000
1001
0110
0000
1001
0110
0000
0001
0000
1000
0001
,
0110
0000
0000
0000
0110
0000
0000
0000
0011
0000
0000
0000
0001
0000
1000
0000
0022
0000
0133
0000
0022
0000
0133
0000
1010
0000
0001
0000
1010
0001
0010
0001
,
1100
0000
0000
0000
0010
0000
0000
0000
1100
0000
0000
0000
0010
0000
0000
0000
1102
0000
0000
0000
0000
0000
0000
0000
0100
0000
0000
0000
1000
0000
0003
0000
0010
0000
0000
0000
0100
0000
0000
0000
1001
0000
0000
0000
0010
0000
0000
0000
1001
0000
0000
0000
0000
0000
0000
0000
1000
0100
0010
0001
1000
0100
0010
0001
,
0110
0000
0000
0110
0000
0000
0110
0000
1001
0000
0010
1000
0001
0100
0010
1000
,
0110
0110
0110
0110
0001
0000
1010
0000
1010
0000
1010
0000
1000
0000
0010
0001
,
0110
0000
0000
0000
0110
0000
0000
0000
1001
0000
0000
0000
0010
0000
0100
0000
1010
0000
0100
0000
1010
0000
0100
0000
1002
0000
0000
0000
1000
0000
0000
0003
,
0101
0000
0101
0000
0101
0000
0101
0000
1010
0000
0000
0000
0100
0000
0010
0000
0101
0000
0010
0000
1100
0000
0010
0000
1002
0000
0000
0000
1000
0000
0000
0003
,
0110
0110
0110
1100
1001
1100
0101
0101
,
1010
0000
0000
0000
0010
0000
0000
0000
1001
0000
0000
0000
1010
0000
0000
0000
0101
0000
0000
0000
1100
0000
0000
0000
0002
0000
0000
0000
0000
0000
0000
0003
,
1010
0000
0100
0001
0012
0000
1103
0000
0110
0000
0011
1000
0101
0000
1100
0000
,
0011
0000
0000
0000
0100
0000
0000
0000
0011
0000
0000
0000
0100
0000
0000
0000
0001
0010
0100
1000
0001
0010
0100
1000
0002
0000
0000
0000
0000
0000
0000
0003
0011
0000
0000
0000
0000
0000
0000
0000
1010
0000
0000
0000
0000
0000
0000
0000
1100
0000
0000
0000
0000
0000
0000
0000
1010
0000
0000
0000
0000
0000
0000
0000
,
0110
0110
0110
1100
1001
1010
0101
0101
,
1100
0000
0000
0000
0100
0000
0000
0000
0011
0000
0000
0000
1100
0000
0000
0000
1001
0000
0000
0000
0110
0000
0000
0000
2000
0000
0000
0000
0000
0000
0000
3000
,
0110
0000
0100
0001
1002
0000
1103
0000
0011
0000
0110
0001
1010
0000
1100
0000
,
0101
0000
0000
0000
1000
0000
0000
0000
0101
0000
0000
0000
1000
0000
0000
0000
0001
0010
0100
1000
0001
0010
0100
1000
0002
0000
0000
0000
0000
0000
0000
0003
0011
0000
0000
0000
0000
0000
0000
0000
0110
0000
0000
0000
0000
0000
0000
0000
2200
0000
0000
0000
3300
0000
0000
0000
0000
0000
0000
0000
0000
0000
0000
0000
,
1001
1001
1001
1001
0110
0100
0011
0011
,
1100
0000
1000
0000
0101
0000
1100
0000
0110
0000
1001
0000
0021
0000
0001
0030
,
1100
0000
0102
0000
0100
0003
0010
0000
1100
0000
1001
0100
0011
0000
1100
0000
,
0110
0000
0000
0000
0001
0000
0000
0000
0110
0000
0000
0000
0001
0000
0000
0000
1000
0100
0010
0001
1000
0100
0010
0001
2000
0000
0000
0000
0000
0000
0000
3000
0110
0000
0000
0000
0000
0000
0000
0000
1100
0000
0000
0000
0000
0000
0000
0000
0012
0000
0000
0000
0000
0000
0000
0000
0000
0000
0000
0000
0000
0000
0003
0000
,
1001
1001
1001
1100
0110
1010
0011
0011
,
0110
0000
0000
0000
1000
0000
0000
0000
0101
0000
0000
0000
1100
0000
0000
0000
0110
0000
0000
0000
1001
0000
0000
0000
0012
0000
0000
0000
1000
0000
0000
0003
,
0110
0000
1000
0001
0012
0000
0113
0000
1001
0000
1100
0010
0101
0000
1010
0000
,
0011
0000
0000
0000
1000
0000
0000
0000
0011
0000
0000
0000
1000
0000
0000
0000
0001
0010
0100
1000
0001
0010
0100
1000
0002
0000
0000
0000
0000
0000
0000
0003
0011
0000
0000
0000
0000
0000
0000
0000
0110
0000
0000
0000
0000
0000
0000
0000
1100
0000
0000
0000
0000
0000
0000
0000
0100
0010
1000
0001
0100
0010
1000
0001
,
0110
0000
0110
0000
1001
0000
1100
0010
0101
0100
0011
0001
0110
0000
1001
0000
,
1001
0000
0000
0000
0101
0000
0000
0000
1010
0000
0000
0000
0011
0100
1000
0100
1010
0001
0010
0001
0110
1000
0100
1000
0101
0000
0000
0000
1002
0100
1000
0100
,
1013
0000
0000
0000
1010
0000
0000
0000
0011
1000
0100
0000
0011
0000
0100
0000
1001
0000
0000
0000
1001
0000
0000
0000
0011
0000
1000
0000
0110
0000
0001
0000
,
1100
0000
0001
0010
1100
0000
0001
0010
1100
0000
0001
0000
0110
0000
0000
0000
1001
0000
1000
0000
0110
0000
0000
0000
1001
0000
1000
0000
0110
0000
0000
0000
,
0012
0000
0000
0000
0000
0000
0003
0000
0010
0100
2000
0000
3000
0000
0000
0000
1210
0000
0000
0000
0000
0000
0300
0000
0012
0000
0000
0000
0000
0000
0003
0000
,
0010
0000
0100
0000
2000
0000
0000
0000
3000
0000
0000
0000
0000
0000
0000
0000
2110
0000
0000
0000
0000
0000
0000
0000
0000
0000
0000
0000
3000
0000
0000
0000
0102
0000
0000
0000
0003
0000
0000
0000
0010
0000
0100
0000
1000
0000
0001
0020
0000
0000
0000
0000
0000
0000
0000
0000
0030
0000
0000
0000
0000
0000
0000
0000
,
1120
0000
0000
0000
0000
0000
0000
0030
0102
0000
0000
0000
0000
0000
0003
0000
0010
0100
2000
0000
3000
0000
0000
0000
1210
0000
0000
0000
0000
0000
0300
0000
,
0012
0000
0000
0000
0000
0000
0003
0000
0010
0100
2000
0000
3000
0000
0000
0000
1011
0000
0000
0000
1110
0000
0000
0000
0011
0100
1000
0001
0110
0000
0000
0000
,
1001
0110
0011
1100
0110
1010
0011
0011
,
0110
0000
0000
0000
1000
0000
0000
0000
0011
0000
0000
0000
0110
0000
0000
0000
1010
0000
0000
0000
0110
0000
0000
0000
0002
0000
0000
0000
0000
0000
0000
0003
,
0110
0000
1000
0001
0102
0000
0113
0000
1001
0000
0110
1000
0011
0000
1100
0000
,
0101
0000
0000
0000
1000
0000
0000
0000
0101
0000
0000
0000
1000
0000
0000
0000
0001
0010
0100
1000
0001
0010
0100
1000
0002
0000
0000
0000
0000
0000
0000
0003
0011
0000
0000
0000
0000
0000
0000
0000
0110
0000
0000
0000
0000
0000
0000
0000
1100
0000
0000
0000
0000
0000
0000
0000
0110
0000
0000
0000
0000
0000
0000
0000
,
1001
0000
0101
0000
0101
0000
0101
0010
1001
0000
0011
0000
1001
0100
1001
0100
,
1010
0000
0000
0000
0000
0000
0000
0000
0110
0000
0000
0000
0000
0000
0000
0000
0011
0000
0000
0000
0000
0000
0000
0000
0110
0000
0000
0000
1000
0000
0000
0000
0011
0000
0000
0000
1000
0000
0000
0000
0110
0000
0000
0000
1000
0000
0000
0000
0001
0100
0010
1000
0001
0100
0010
1000
0001
0100
0010
1000
0002
0000
0000
0003
,
0101
0000
1000
0001
0102
0000
0113
0000
1100
0010
0101
0001
1010
1000
0110
0000
,
0011
0000
0000
0000
1100
0000
0000
0000
0011
0000
0000
0000
1100
0000
0000
0000
0001
0010
0100
1000
0001
0010
0100
1000
0002
0000
0000
0000
0000
0000
0000
0003
0111
0000
0000
0000
1000
0000
0000
0000
0000
0000
0000
0000
0111
0000
0000
0000
1000
0000
0000
0000
0000
0000
0000
0000
0111
0000
0000
0000
1000
0000
0000
0000
,
0110
0110
0110
1100
0011
1010
0101
0101
,
1010
0000
0100
0000
0011
0000
1100
0000
0101
0000
0110
0000
2100
0000
0010
3000
,
0101
0000
1000
0001
0102
0000
0113
0000
1100
0000
0011
0100
1010
0000
1100
0000
,
0110
0000
0000
0000
1000
0000
0000
0000
0110
0000
0000
0000
1000
0000
0000
0000
0001
0010
0100
1000
0001
0010
0100
1000
0002
0000
0000
0000
0000
0000
0000
0003
0011
0000
0000
0000
0000
0000
0000
0000
1100
0000
0000
0000
0000
0000
0000
0000
0101
0000
0000
0000
0000
0000
0000
0000
1100
0000
0000
0000
0000
0000
0000
0000
,
0110
0110
0110
0110
1001
1100
0011
0011
,
1001
0000
0100
0000
0011
0000
1100
0000
0110
0000
1001
0000
0012
0000
0100
0003
,
1010
0000
2001
0000
0001
3000
0110
0000
1010
0000
0011
0100
1010
0000
1100
0000
,
0101
0000
0000
0000
0010
0000
0000
0000
0101
0000
0000
0000
0010
0000
0000
0000
0001
0010
0100
1000
0001
0010
0100
1000
0002
0000
0000
0000
0000
0000
0000
0003
1001
0000
0000
0000
0000
0000
0000
0000
0110
0000
0000
0000
0000
0000
0000
0000
0101
0000
0000
0000
0000
0000
0000
0000
1000
0000
0000
0000
0000
0000
0000
0000
,
1000
0000
0000
0100
0000
0000
0010
0000
0000
0001
0000
0000
1000
0000
0000
0100
0000
0000
0010
0000
0000
0001
0000
0000
1000
0000
0000
0100
0000
0000
0010
0000
0000
0001
0000
0000
1000
0000
0000
0100
0000
0000
0010
0000
0000
0001
0000
0000
1000
0000
0000
0100
0000
0000
0010
0000
0000
0001
0000
0000
1000
0000
0000
0100
0000
0000
0010
0000
0000
0001
0000
0000
1000
0000
0000
0100
0000
0000
0010
0000
0000
0001
0000
0000
1000
0000
0000
0100
0000
0000
0010
0000
0000
0001
0000
0000
1100
0000
0000
0000
0000
0000
0000
0000
0000
0000
0000
0000
0000
0000
0000
0000
0000
0000
0000
0000
0000
0000
0000
0000
0110
0000
0000
0000
0000
0000
0000
0000
0000
0000
0000
0000
0000
0000
0000
0000
0000
0000
0000
0000
0000
0000
0000
0000
1001
0000
0000
0000
0100
0000
0000
0000
0000
0000
0000
0000
0010
0000
0000
0000
0000
0000
0000
0000
0000
0000
0000
0000
1001
0000
0000
0000
0000
0000
0000
0000
0000
0000
0000
0000
0010
0000
0000
0000
0000
0000
0000
0000
0000
0000
0000
0000
,
1100
0000
0000
0000
0010
0000
0000
0000
0101
0000
0000
0000
0011
0000
0100
0000
1001
0000
0100
1000
0011
0000
0000
0000
0102
0000
0000
0000
1000
0000
0003
0000
,
0110
0000
1000
0001
0012
0000
1013
0000
0011
0010
0011
0010
1100
0100
1100
0100
,
1001
0000
0000
0000
0010
0000
0000
0000
1001
0000
0000
0000
0010
0000
0000
0000
0001
0010
0100
1000
0001
0010
0100
1000
0002
0000
0000
0000
0000
0000
0000
0003
0011
0000
0000
0000
0100
0000
0000
0000
1010
0000
0000
0000
0100
0000
0000
0000
2010
0000
0000
0000
0000
0000
0000
0000
0000
0000
0000
0000
3000
0000
0000
0000
,
0110
0000
0000
0000
0000
0000
0000
0000
1100
0000
0000
0000
0000
0000
0000
0000
0101
0000
0000
0000
0001
0000
0000
0000
1100
0000
0000
0000
0000
0000
0000
0000
0110
0000
0000
0000
0001
0000
0000
0000
1000
0000
0000
0000
0000
0000
0000
0000
1100
0000
0000
0000
0001
0010
0100
1000
0001
0010
0100
1000
0002
0000
0000
0003
,
1100
0000
0011
0000
0101
1000
0101
1000
0110
0000
1021
0000
0030
1021
0000
0030
,
1100
0000
0100
0011
1002
0000
0113
0000
0110
0001
0110
0001
1100
0010
0101
1000
,
0110
0000
0000
0000
0000
0000
0000
0000
0000
0000
0000
0000
0100
0000
0000
0000
0000
0000
0000
0000
0000
0000
0000
0000
0110
0000
0000
0000
0000
0000
0000
0000
0000
0000
0000
0000
0100
0000
0000
0000
0000
0000
0000
0000
0000
0000
0000
0000
0001
0000
0000
0010
0000
0000
0100
0000
0000
1000
0000
0000
0001
0000
0000
0010
0000
0000
0100
0000
0000
1000
0000
0000
0002
0000
0000
0000
0000
0000
0000
0000
0000
0000
0000
0000
0000
0000
0000
0000
0000
0000
0000
0000
0000
0003
0000
0000
0011
0000
0000
0000
0000
0000
0000
0000
0000
0000
0000
0000
0000
0000
0000
0000
0000
0000
0000
0000
0010
0000
0000
0000
1100
0000
0000
0000
0000
0000
0000
0000
0000
0000
0000
0000
0000
0000
0000
0000
0000
0000
0000
0000
0000
0000
0000
0000
0011
0000
0000
0000
0100
0000
1000
0000
0000
0000
0000
0000
0000
0000
0000
0000
0000
0000
0000
0000
0000
0000
0000
0000
0001
0000
0000
0010
0000
0000
0100
0000
0000
1000
0000
0000
0001
0000
0000
0010
0000
0000
0100
0000
0000
1000
0000
0000
,
0011
0000
0000
0000
0000
0000
0000
0000
0000
0000
0000
0000
0000
0000
0000
0000
0000
0000
0010
0000
0000
0000
0000
0000
1100
0000
0000
0000
0001
0000
0000
0000
0000
0000
0000
0000
0000
0000
0000
0000
0000
0000
0000
0000
0000
0000
0000
0000
0110
0000
0000
0000
0000
0000
0000
0000
0000
0000
0000
0000
0000
0000
0000
0000
0000
0000
0000
0000
0000
0000
0000
0000
0010
0000
0000
0000
0000
0000
0000
0000
0000
0000
0000
0000
0000
0000
0000
0000
0000
0000
0000
0000
0000
0000
0000
0000
1100
0000
0000
0000
0000
0000
0000
0000
0000
0000
0000
0000
0000
0000
0000
0000
0000
0000
0000
0000
0000
0000
0000
0000
0010
0000
0000
0000
0000
0000
0000
0000
0000
0000
0000
0000
0000
0000
0000
0000
0000
0000
0000
0000
0000
0000
0000
0000
1010
0000
0000
0000
0000
0000
0000
0000
0000
0000
0000
0000
0000
0000
0000
0000
0000
0000
0000
0000
0000
0000
0000
0000
0100
0000
0000
0000
0000
0000
0000
0000
0000
0000
0000
0000
0000
0000
0000
0000
0000
0000
0000
0000
0000
0000
0000
0000
,
0011
0011
0101
0010
1101
0100
0011
1010
,
0101
0000
0000
0000
0101
0000
1000
0000
0101
0000
0000
0000
0101
0000
0100
0000
1001
0000
0010
0000
1001
0000
0010
0000
0001
0010
0100
1000
0001
0010
0100
1000
,
0100
0000
0000
0010
0000
0000
0001
0000
0000
1000
0000
0000
0100
0000
0000
0010
0000
0000
0001
0000
0000
1000
0000
0000
0100
0000
0000
0010
0000
0000
0001
0000
0000
1000
0000
0000
0200
0000
0000
0000
0000
0000
0000
0000
0000
0300
0000
0000
0010
0000
0000
0000
1000
0000
0000
0000
0002
0000
0000
0000
0000
0000
0000
0000
0003
0000
0000
0000
0000
0000
0000
0000
0010
0000
0000
0000
1000
0000
0000
0000
0002
0000
0000
0000
0000
0000
0000
0000
0003
0000
0000
0000
0000
0000
0000
0000
0100
0000
0000
0000
1000
0000
0000
0000
0010
0000
0000
0000
0100
0000
0000
0000
2000
0000
0000
0000
3000
0000
0000
0000
0020
0000
0000
0000
0030
0000
0000
0000
0000
0000
0000
0000
0100
0000
0000
0000
0010
0000
0000
0000
0001
0000
0000
0000
0100
0000
0000
0000
1000
0000
0000
0000
0020
0000
0000
0000
0000
0000
0000
0000
0030
0000
0000
0000
0000
0000
0000
0000
0100
0000
0000
0000
1000
0000
0000
0000
0002
0000
0000
0000
0000
0000
0000
0000
0003
0000
0000
0000
0000
0000
0000
0000
,
1010
1000
1000
1000
1001
1000
0100
0100
0100
0100
0101
0100
0010
0010
0010
0010
,
0010
0010
0001
0001
0101
0001
0001
0001
1111
0000
0101
1000
0110
1111
0000
0000
,
0110
0000
0000
0000
0000
0000
0110
0000
0000
0000
0000
0000
1001
0000
0000
0000
0000
0000
0110
0000
0000
0001
0000
0000
1100
0000
0000
1000
0000
0000
0011
0000
0000
0001
0000
0000
1000
0100
0010
0001
1000
0100
0010
0001
1000
0100
0010
0001
,
0100
0000
0000
0000
2000
0000
0000
0000
0000
0000
0000
0000
0000
0000
0000
0000
0000
0000
0000
0000
0000
0000
0000
0000
0000
0000
0000
0000
0000
0000
3000
0000
0010
0000
0000
0000
0002
0000
0000
0000
0000
0000
0000
0000
0000
0000
0000
0000
0000
0000
0000
0000
0000
0000
0000
0000
0000
0000
0000
0000
0103
0000
0000
0000
2000
0000
0000
0000
0000
0000
0000
0000
0000
0000
0000
0000
0000
0000
0000
0000
0000
0000
0000
0000
0000
0000
0000
0000
0000
0000
3000
0000
0010
0000
0000
0000
0002
0000
0000
0000
0000
0000
0000
0000
0000
0000
0000
0000
0000
0000
0000
0000
0000
0000
0000
0000
0000
0000
0000
0000
0103
0000
0000
0000
2000
0000
0000
0000
0000
0000
0000
0000
0000
0000
0000
0000
0000
0000
3000
0000
0000
0000
0000
0000
0110
0000
0000
0000
0000
0000
0000
0000
0000
0000
0000
0000
0010
0000
0000
0000
0000
0000
0000
0000
0000
0000
0000
0000
0110
0000
0000
0000
0000
0000
0000
0000
0000
0000
0000
0000
0010
0000
0000
0000
0000
0000
0000
0000
0000
0000
0000
0000
,
1102
1100
1010
1000
1000
1010
1000
1000
,
1010
0000
0000
0000
0000
0000
0000
0000
1000
0000
0000
0000
0000
0000
0000
0000
1100
0000
0000
0000
0000
0000
0000
0000
1000
0000
0000
0000
0000
0000
0000
0000
1000
0000
0000
0000
0000
0000
0000
0000
1100
0000
0000
0000
0000
0000
0000
0000
1000
0000
0000
0000
0000
0000
0000
0000
1000
0000
0000
0000
0000
0000
0000
0003
,
2011
0000
0000
0000
0000
0000
0000
0000
0001
0000
0000
0000
0000
0000
0000
0000
0011
0000
0000
0000
0000
0000
0000
3000
2001
0000
0000
0000
0000
0000
0000
0000
0001
0000
0000
0000
0000
0000
0000
0000
0011
0000
0000
0000
0000
0000
0000
0000
0001
0000
0000
0000
0000
0000
0000
0000
0001
0000
0000
0000
0000
0000
0000
0000
,
0101
0000
0000
0000
0000
0000
0000
0000
0001
0000
0000
0000
0000
0000
0000
0000
0011
0000
0000
0000
0000
0000
0000
0000
0001
0000
0000
0000
0000
0000
0000
0000
0001
0000
0000
0000
0000
0000
0000
0000
0011
0000
0000
0000
0000
0000
0000
0000
0001
0000
0000
0000
0110
0000
0000
0000
0001
0000
0000
0000
0001
0000
0000
3000
,
0121
0101
1100
0100
0101
0100
1100
0100
,
0101
0000
0000
0000
0000
0000
0000
0000
0100
0000
0000
0000
0000
0000
0000
0000
1100
0000
0000
0000
0000
0000
0000
0000
0100
0000
0000
0000
0000
0000
0000
0000
0100
0000
0000
0000
0000
0000
0000
0000
1100
0000
0000
0000
0000
0000
0000
0000
0100
0000
0000
0000
0000
0000
0000
0000
0100
0000
0000
0000
0000
0000
0000
0030
,
1201
1001
0011
0001
0001
0011
0001
0001
,
1001
0000
0000
0000
0000
0000
0000
0000
0001
0000
0000
0000
0000
0000
0000
0000
0011
0000
0000
0000
0010
0000
0000
0000
0001
0000
0000
0000
0001
0000
0000
0000
0001
0000
0000
0000
0001
0000
0000
0000
0011
0000
0000
0000
0000
0000
0000
0000
2001
0000
0000
3000
0000
0000
0000
0000
0021
0000
0000
0030
0000
0000
0000
0300
,
1121
0000
0000
0000
0000
0000
0000
0000
0100
0000
0000
0000
0000
0000
0000
0000
1100
0000
0000
0000
0000
0000
0000
0030
0100
0000
0000
0000
0000
0000
0000
0000
0100
0000
0000
0000
0000
0000
0000
0000
1100
0000
0000
0000
0000
0000
0000
0000
0100
0000
0000
0000
0000
0000
0000
0000
0100
0000
0000
0000
0000
0000
0000
0000
,
0110
0100
1100
0100
0100
1100
0100
0100
,
1211
0000
0000
0000
0000
0000
0000
0000
0001
0000
0000
0000
0000
0000
0000
0000
0011
0000
0000
0000
0000
0000
0000
0300
0001
0000
0000
0000
0000
0000
0000
0000
0001
0000
0000
0000
0000
0000
0000
0000
0011
0000
0000
0000
0000
0000
0000
0000
0011
0000
0000
0000
0000
0000
0000
0000
0001
0000
0010
0000
0000
0000
0000
0000
,
0001
0000
0000
0000
0001
0000
0000
0000
0011
0000
0000
0000
0001
0000
0000
0000
0101
0000
0000
0000
0011
0000
0000
0000
0001
0000
0000
0000
0010
0001
0010
0001
,
1210
0000
0000
0000
0000
0000
0000
0000
1000
0000
0000
0000
0000
0000
0000
0000
1001
0000
0000
0000
0000
0000
0000
0300
1000
0000
0000
0000
0000
0000
0000
0000
1000
0000
0000
0000
0000
0000
0000
0000
1000
0000
0000
0000
0000
0000
0000
0000
1001
0000
0000
0000
0000
0000
0000
0000
1200
0000
0000
0300
0000
0000
0000
0000
,
1200
0000
0000
0300
0000
0000
0000
0000
1000
0000
0000
0000
0000
0000
0000
0000
1001
0000
0000
0000
0000
0000
0000
0000
1200
0000
0000
0300
0000
0000
0000
0000
1000
0000
0000
0000
0000
0000
0000
0000
1200
0000
0000
0300
0000
0000
0000
0000
1001
0000
0000
0000
0001
0000
0000
0000
1001
0000
0000
0000
0001
0000
0000
0000
,
2111
0000
0000
0000
0000
0000
0000
0000
0010
0000
0000
0000
0000
0000
0000
0000
0001
0000
0100
0000
0001
0000
0100
3000
0001
0000
1000
0000
0010
0000
1000
0000
0001
0000
1000
0000
0001
0000
0100
0000
0001
0000
0100
0000
0000
0000
0000
0000
0010
0000
0000
0000
0000
0000
0000
0000
0010
0000
0000
0000
0000
0000
0000
0000
,
2010
0000
0000
3000
0000
0000
0000
0000
2011
0000
0000
3000
0000
0000
0000
0000
2010
0000
0000
3000
0000
0000
0000
0000
0010
0000
0000
0000
0000
0000
0000
0000
1010
0000
0000
0000
0000
0000
0000
0000
1011
0000
0000
0000
0000
0000
0000
0000
1011
0000
0001
0000
0001
0000
0000
0000
1011
0000
0000
0000
0000
0000
0000
0000
,
1011
0000
0010
0000
1010
0000
0110
0110
0110
0000
1010
0000
0011
0000
0010
0000
,
1101
0000
0100
0000
0110
0000
0101
0000
1100
0000
0101
0000
1100
0000
0110
0110
,
1101
0000
0001
0000
0101
0000
0011
0000
1001
0000
0110
0000
1001
1001
1001
1001
,
1011
0000
0000
0000
1000
0000
0000
0000
1100
0000
0000
0000
1000
0000
0110
0000
1000
0000
0000
0000
1010
0000
0000
0000
1000
0000
0010
0001
1010
0001
0000
0000
,
1101
0000
1000
0000
1001
0000
0110
0110
0110
0000
1001
0000
0110
0000
0100
0000
,
1011
1000
1010
0001
1010
1000
1001
1001
,
1110
0000
0001
0000
1001
1000
0110
0000
0110
0000
1001
1000
0110
0000
1000
0100
,
1011
0000
0000
0000
0000
0000
0000
0000
1010
0000
0000
0000
0010
0000
0000
0000
1010
0000
0000
0000
0010
0000
0000
0000
0011
0000
0000
0000
0000
0000
0000
0000
0011
0000
0000
0000
0000
0000
0000
0000
1100
0000
0000
0000
0000
0000
0000
0000
1001
0010
0100
1000
0001
0010
0100
1000
0001
0000
0000
0000
0000
0000
0000
0000
,
0111
0000
0101
0100
1100
0000
1100
0000
0110
0000
1010
0000
0110
0000
0010
0000
,
1101
0000
0000
0000
0100
0000
0000
0000
0110
0000
0000
0000
0000
0000
0000
0000
1100
0000
0000
0000
0000
0000
0000
0000
1100
0000
0000
0000
0100
0000
0000
0000
1010
0000
0000
0000
0010
0000
0000
0000
0110
0000
0000
0000
0010
0000
0000
0000
0001
0010
0100
1000
0001
0010
0100
1000
0001
0010
0100
1000
0001
0010
0100
1000
,
0111
0000
0101
0001
1001
0000
0110
0010
1010
0000
1010
0000
1010
0000
0101
0001
,
1110
0000
0000
0000
0000
0000
0000
0000
0101
0000
0000
0000
0100
0000
0000
0000
0110
0000
0000
0000
0100
0000
0000
0000
0110
0000
0000
0000
0000
0000
0000
0000
0101
0000
0000
0000
0100
0000
0000
0000
0110
0000
0000
0000
0000
0000
0000
0000
0001
0010
0100
1000
0001
0010
0100
1000
0001
0010
0100
1000
0001
0010
0100
1000
,
0111
0000
1000
0000
0101
0000
1100
0100
0011
0000
1100
0000
0011
0010
1010
0000
,
1101
0000
0000
0000
0000
0000
0000
0000
0101
0000
0000
0000
0001
0000
0000
0000
1001
0000
0000
0000
1001
0000
0000
0000
1001
0000
0000
0000
1001
0000
0000
0000
0011
0000
0000
0000
0000
0000
0000
0000
1001
0000
0000
0000
0001
0000
0000
0000
1000
0100
0010
0001
1000
0100
0010
0001
1000
0100
0010
0001
1000
0100
0010
0001
,
1110
0000
1000
0010
0101
0000
1100
0000
0011
0100
1010
0100
0011
0000
1010
0000
,
1011
0101
1001
0001
0101
1010
0101
1010
0101
0001
1010
0010
1001
0100
0110
0100
,
1011
0000
0000
0000
1000
0000
0000
0000
1010
0000
0000
0000
0101
0000
0000
0000
1010
0000
0000
0000
1000
0000
0000
0000
0101
0000
0000
0000
1000
0000
0000
0000
1010
0000
0000
0000
0101
0000
0000
0000
1000
0000
0000
0000
0101
0000
0000
0000
1000
0000
0000
0000
1000
0000
0000
0000
1000
0100
0010
0001
1000
0100
0010
0001
,
1110
0000
0001
0000
1100
0000
0011
0010
1101
0000
1101
0000
1100
0100
0101
0100
,
1011
0000
0101
0100
1100
0100
1011
0000
1100
0100
0101
0100
1011
0000
0001
0000
,
1110
0000
0000
0000
0000
0000
0000
0000
0001
0000
0000
0000
0000
0000
0000
0000
1000
0100
0010
0001
1000
0100
0010
0001
1000
0000
0000
0000
0000
0000
0000
0000
0000
0000
0000
0000
0000
0000
0000
0000
0000
0000
0000
0000
0000
0000
0000
0000
0000
0000
0000
0000
0000
0000
0000
0000
0000
0000
0000
0000
0000
0000
0000
0000
;
