#TITLE:Never Gonna Give You Up;
#SUBTITLE:;
#ARTIST:Ashley Tisdale;
#TITLETRANSLIT:;
#SUBTITLETRANSLIT:;
#ARTISTTRANSLIT:;
#CREDIT:Arch0wl;
#BANNER:nevergonnagiveyouup-bn.png;
#BACKGROUND:nevergonnagiveyouup-bg.png;
#LYRICSPATH:;
#CDTITLE:!arch0wltitle.png;
#MUSIC:nevergonnagiveyouup.ogg;
#OFFSET:1.375;
#SAMPLESTART:42.253;
#SAMPLELENGTH:17.422;
#SELECTABLE:YES;
#BPMS:0.000=114.000;
#STOPS:;
#BGCHANGES:0.000=nevergonnagiveyouup-bg.png=1.000=0=0=1,
99999=-nosongbg-=1.000=0=0=0 // don't automatically add -songbackground-
;
// cache tags:
#FIRSTBEAT:4.000;
#LASTBEAT:410.750;
#SONGFILENAME:Songs/Archmage and Dark0wl Hammer of Thor UltraHyperMegaPack/Never Gonna Give You Up/nevergonnagiveyouup.sm;
#HASMUSIC:1;
#HASBANNER:1;
#MUSICLENGTH:105.000;
// end cache tags

//---------------dance-single - Arch0wl----------------
#NOTES:
     dance-single:
     Arch0wl:
     Hard:
     11:
     1.000,1.000,0.848,0.410,1.000,1078.000,89.000,43.000,0.000,18.000:
0000
0000
0000
0000
,
2100
3210
0312
1203
,
2310
3101
0021
1230
,
1300
0000
0000
0000
1000
0000
0000
0000
0100
0000
0000
0100
0000
0000
0100
0000
,
0010
0000
0000
0000
0010
0000
0000
0000
0001
0000
0000
0001
0000
0000
0001
0000
,
1000
0000
0010
0000
0100
0000
0010
0000
0001
0000
0010
1000
0100
0000
0010
0000
,
0001
0000
0010
0000
0100
0000
0010
0000
1000
0000
0010
0001
0100
0000
0010
0000
,
1000
0000
0010
0000
0001
0000
0010
0000
0100
0000
0001
0010
0100
0000
0010
0000
,
2001
0000
0001
3200
2300
3200
0310
0000
,
1001
0000
1000
0100
1000
0100
0010
0001
,
0000
0001
0010
0000
0000
0000
0010
0000
0000
0000
0010
0000
0000
0000
0010
0000
,
0000
0100
1000
0001
0100
0010
0100
0001
,
1100
0001
1010
0101
1000
0001
1000
0001
,
1000
0010
0100
0001
0100
0010
1001
0110
,
1000
0001
0010
0100
1000
0100
0100
0100
,
0100
1000
0001
0100
0001
1000
0100
0000
,
2000
3020
0230
0302
2203
0000
0000
0000
,
3302
1000
1000
1000
1000
0103
0010
1000
,
0101
1000
0101
1000
1100
0100
0210
0000
,
1302
0000
0123
0000
1030
0010
0102
1003
,
0100
0000
0110
0000
0110
0000
1001
0000
0010
0000
0100
0000
0001
0010
0001
0010
,
0100
0000
1000
0100
0000
1000
0100
0000
0010
0001
0100
0000
0010
1000
0010
1000
,
0001
0000
0100
0001
0000
0100
0001
0000
1000
0010
0100
0000
0001
1000
0001
1000
,
0100
0000
0010
0001
1000
0000
0101
0000
0010
0000
1001
0000
0010
0000
0100
0001
,
1000
0000
0010
0000
1000
0000
0100
0000
1000
0000
0010
0000
0100
0001
0100
0001
,
1000
0000
0010
1000
0000
0010
1000
0000
0001
0000
0100
0000
0001
0010
0001
0010
,
0100
0000
1000
0001
0100
0000
1001
0000
0100
0010
0001
0000
1000
0010
1000
0010
,
0100
0000
0001
1000
0100
0000
1001
0000
0100
1000
0001
0000
0100
0000
0010
1000
,
0100
0000
0100
1000
0010
0000
0010
1000
0100
0000
0100
1000
0010
0000
0100
0000
,
0001
2000
3002
0023
0230
2300
3100
0010
,
0001
2100
3210
0312
0113
1000
1000
1000
,
1000
0002
0203
0320
2031
3100
2020
0000
,
0000
3031
0100
1010
0000
0001
1010
0100
,
0001
1000
0001
1000
0001
1000
0001
1000
,
0101
1000
0101
1000
0101
1000
0101
1000
,
0101
0010
1000
0000
0101
0010
1000
0000
0101
0010
1000
0000
0101
0010
1000
0000
,
0001
0000
1000
0001
0001
0001
1000
0001
0001
0001
1000
0001
0001
0001
0001
0001
,
0100
0010
0100
0010
0100
0010
0100
0010
0100
0010
1000
0000
0001
0000
0110
0000
,
0000
1000
0110
0001
0110
1000
1001
0000
,
1100
0000
0101
2000
0200
3020
0302
1030
,
0003
0000
1010
0000
1010
0000
0101
0000
0000
0000
0000
0000
1000
0001
1000
0001
,
0010
0000
0100
0010
0000
0100
0010
0000
0001
1000
0010
0000
0100
0001
0100
0001
,
1000
0000
0100
1000
0000
0100
1000
0000
0001
0010
0100
0000
1000
0010
1000
0010
,
0100
0000
0001
1000
0010
0000
1001
0000
0010
0000
1001
0000
0010
0000
0100
0001
,
1000
0000
0100
0000
0010
0000
1000
0000
0010
0000
0100
0000
1000
0010
1000
0010
,
0100
0000
0001
0100
0000
0001
0100
0000
0010
0000
1000
0000
0001
0100
0001
0100
,
0010
0000
1000
0001
0010
0000
1001
0000
0010
0100
1000
0000
0001
1000
0001
1000
,
0010
0000
1000
0001
0010
0000
1001
0000
0010
0100
1000
0000
0010
0000
0100
0001
,
0010
0000
0010
0001
0100
0000
0100
0001
0010
0000
0010
0001
1000
0100
1000
0100
,
0010
0000
0001
0010
0000
0001
0010
0000
0100
1000
0010
0000
0100
0001
0100
0001
,
1000
0000
0010
1000
0000
0010
1000
0000
0001
0100
0010
0000
1000
0001
1000
0001
,
0010
0000
0100
1000
0001
0000
1010
0000
0100
0000
1001
0000
0100
0000
0010
1000
,
0001
0000
0100
0000
0001
0000
0010
0000
0001
0000
0100
0000
0010
1000
0010
1000
,
0001
0000
0100
0001
0000
0100
0001
0000
1000
0000
0010
0000
1000
0100
1000
0100
,
0010
0000
0001
1000
0010
0000
1001
0000
0010
0100
1000
0000
0001
0100
0001
0100
,
0010
0000
1000
0001
0010
0000
1001
0000
0010
0001
1000
0000
0010
0000
0100
0001
,
0010
0000
0010
0001
0100
0000
0100
0001
0010
0000
0010
0001
0100
0000
0010
0000
,
1002
1000
1000
1000
1000
1000
1000
1003
,
1001
0000
0000
0110
0000
0000
1001
0000
0000
0000
0000
0000
1000
0000
0000
0000
,
1002
1000
1000
1000
1000
1000
1000
1003
,
1001
0000
0000
0110
0000
0000
1001
0000
0000
0000
0000
0000
1000
0000
0000
0000
,
1000
0100
1000
0100
1000
0000
0001
0100
0001
0100
0001
0000
1000
0000
0000
0000
,
1001
0000
0000
0110
0000
0000
1001
0000
0000
0000
0000
0000
1000
0000
0000
0000
,
1000
0010
1000
0010
1000
0000
0001
0010
0001
0010
0001
0000
1000
0000
0000
0000
,
1001
0000
0000
0110
0000
0000
1001
0000
0000
0000
0000
0000
1001
0000
0001
1000
,
0010
0100
0001
0010
0001
0010
0001
0010
0001
0010
0001
0100
0010
1000
0010
0100
,
0001
0010
0100
1000
0100
1000
0100
1000
0001
0100
0001
1000
0100
1000
0001
0100
,
0010
1000
0001
0100
0001
0100
0001
0100
0001
0100
0001
0100
0001
0010
0100
1000
,
0100
0010
0001
0100
0001
0100
0001
0010
0100
0010
0001
0100
0001
0100
0001
1000
,
0100
1000
0010
0100
0010
0100
0010
0100
0010
0100
0010
0100
0010
0100
0010
0100
,
0001
1000
0010
0100
0010
0100
0010
0100
0001
0010
0001
1000
0100
1000
0001
0010
,
0001
0100
0010
1000
0010
1000
0010
1000
0010
1000
0010
1000
0010
0100
0001
0100
,
0010
1000
0001
0100
0001
0100
0001
0010
0100
1000
0001
0010
0100
1000
0100
0010
,
1001
0000
1000
0100
1000
0000
1000
0100
1000
0000
0001
0100
0010
0000
1010
0000
,
1001
0000
1000
0100
0010
0000
0001
0100
0010
0000
1000
0100
0010
0000
1001
0000
,
0101
0000
1000
0100
1000
0000
1000
0100
0010
0000
0001
0100
0010
0000
1001
0000
,
0201
0000
1000
0000
1300
0000
0100
0010
0000
0100
0010
0100
0001
1000
0001
1000
,
0100
0000
0010
0100
0000
0010
0100
0000
1000
0001
0100
0000
0010
1000
0010
1000
,
0001
0000
0010
0001
0000
0010
0001
0000
1000
0100
0010
0000
0001
0100
0001
0100
,
0010
0000
1000
0001
0100
0000
1001
0000
0100
0000
1001
0000
0100
0000
0010
1000
,
0001
0000
0010
0000
0100
0000
0001
0000
0100
0000
0010
0000
0001
0100
0001
0100
,
0010
0000
1000
0010
0000
1000
0010
0000
0100
0000
0001
0000
1000
0010
1000
0010
,
0100
0000
0001
1000
0100
0000
1001
0000
0100
0010
0001
0000
1000
0001
1000
0001
,
0100
0000
0001
1000
0100
0000
1001
0000
0100
0010
0001
0000
0100
0000
0010
1000
,
0100
0000
0100
1000
0010
0000
0010
1000
0100
0000
0100
1000
0001
0100
0001
0100
,
0010
1000
0010
0100
0001
0100
0010
1000
0010
0100
0001
0010
0100
1000
0100
1000
,
0001
0010
0001
1000
0100
1000
0010
0100
0010
1000
0100
0010
0001
1000
0001
1000
,
0100
0010
0001
1000
0100
0010
0001
1000
0100
1000
0001
0100
0010
0100
0001
1000
,
0001
0010
0100
1000
0001
0010
0100
1000
0001
0100
0010
1000
0100
0010
0100
0010
,
0001
0100
0001
1000
0100
1000
0010
0100
0010
1000
0100
0010
0001
1000
0001
1000
,
0010
0100
0001
1000
0100
0010
0001
0100
0010
1000
0100
0010
0001
0100
0001
0100
,
0010
1000
0001
1000
0010
1000
0100
1000
0001
1000
0100
1000
0001
1000
0010
1000
,
0100
0010
0100
1000
0010
0100
0010
1000
0100
0010
0100
1000
0001
1000
0001
1000
,
0100
0000
0010
0100
1000
0010
0100
0000
0001
1000
0100
0000
0010
0100
0010
0100
,
1000
0001
0010
0100
1000
0010
0100
0000
0001
1000
0010
0000
0100
0001
0100
0001
,
1000
0000
1000
0001
0100
0000
0001
1000
0100
0000
1000
0001
0100
0000
0010
1000
,
0001
0000
0010
0100
1000
0000
0001
0100
0010
0000
0010
0100
0001
1000
0001
1000
,
0010
0100
0001
1000
0100
0000
0010
0100
1000
0000
0001
0100
0010
1000
0010
1000
,
0100
0000
1000
0001
0100
0000
0001
1000
0100
0010
0001
0000
1000
0001
1000
0001
,
0100
0000
0001
1000
0100
0000
1000
0001
0100
0010
1000
0000
0100
0000
0010
0001
,
0100
0000
0100
0001
0010
0000
0010
0001
0100
0000
0100
0001
1000
0000
0000
0000
,
0010
0000
1000
0100
1000
0000
0001
0100
0001
0000
0010
0100
0010
0000
0000
0000
,
0000
0000
0001
0100
0001
0000
1000
0100
1000
0000
0010
0100
0000
0000
0000
0000
;
