#TITLE:Angels Talking;
#SUBTITLE:;
#ARTIST:Diana Fox;
#TITLETRANSLIT:;
#SUBTITLETRANSLIT:;
#ARTISTTRANSLIT:;
#CREDIT:;
#BANNER:angelBAN.png;
#BACKGROUND:angelBG.png;
#LYRICSPATH:;
#CDTITLE:Flash;
#MUSIC:Diana Fox - Angels Talking.ogg;
#OFFSET:-0.165;
#SAMPLESTART:44.423;
#SAMPLELENGTH:12.000;
#SELECTABLE:YES;
#DISPLAYBPM:135.000;
#BPMS:0.000=135.000,33.000=270.000,37.000=135.000,97.000=67.500,99.000=135.000,117.000=1080.000,119.000=135.000,149.000=1080.000,151.000=135.000,223.000=67.500,225.000=135.000,243.000=1080.000,245.000=135.000,275.000=1080.000,277.000=135.000;
#STOPS:117.000=0.100
,117.250=0.100
,117.500=0.160
,118.000=0.100
,118.250=0.100
,118.500=0.100
,118.750=0.100
,119.000=0.020
,149.000=0.100
,149.250=0.100
,149.500=0.160
,150.000=0.100
,150.250=0.100
,150.500=0.100
,150.750=0.100
,151.000=0.020
,243.000=0.100
,243.250=0.100
,243.500=0.160
,244.000=0.100
,244.250=0.100
,244.500=0.100
,244.750=0.100
,245.000=0.020
,275.000=0.100
,275.250=0.100
,275.500=0.160
,276.000=0.100
,276.250=0.100
,276.500=0.100
,276.750=0.100
,277.000=0.020
;
#BGCHANGES:;
// cache tags:
#FIRSTBEAT:3.000;
#LASTBEAT:289.500;
#SONGFILENAME:Songs/Rodd's Revival/Angel's Talking (Rodd Steps)/Diana Fox - Angels Talking.sm;
#HASMUSIC:1;
#HASBANNER:1;
#MUSICLENGTH:131.243;
// end cache tags

//---------------dance-single - R. Farias----------------
#NOTES:
     dance-single:
     R. Farias:
     Challenge:
     9:
     0.758,0.744,0.053,0.632,0.682,606.000,7.000,83.000,49.000,0.000:

0000
0000
0000
0000
0000
0000
0000
0000
0000
0000
0000
0000
0001
0000
0100
0010
,
0000
0010
1000
0000
1100
0000
0100
0010
0000
0010
0001
0000
0101
0000
0100
0001
,
0000
0100
0001
0000
0101
0000
0100
0010
0000
0100
0010
0000
0110
0000
0010
1000
,
0000
0100
0010
0000
0110
0000
0010
0001
0000
0001
0100
0000
0010
0000
1000
0100
,
0000
0100
0010
0000
0001
0000
0100
0010
0000
1000
0100
0000
0020
0030
0000
0002
,
0003
0000
0200
0300
0020
0000
0030
2000
3000
0000
0200
0300
0020
0000
0030
0002
,
0003
0000
0200
0300
0020
0000
0030
0200
0300
0000
0002
0003
2000
0000
3000
0200
,
0300
0000
0020
0030
0002
0000
0003
2000
3000
0000
0100
0000
0020
0000
M000
0000
,
0M00
0000
0000
M000
0000
000M
0000
000M
0000
0M00
0000
M000
0000
0M00
000M
000M
,
0000
000M
0000
0000
0031
0000
0100
0000
0010
0000
2000
0000
3000
0000
0200
0000
,
0000
0300
0010
0001
1000
0002
0003
0200
,
0000
0000
0300
0000
0010
0000
0000
0000
1000
0001
1000
0000
0100
0000
0020
0000
,
0000
0000
0000
0030
0000
0000
0001
0000
0000
0200
0000
0000
0300
0000
0000
0010
0000
0000
0020
0000
0030
0000
0000
0000
,
1010
0000
1000
0100
0010
0002
0003
2000
,
0000
3000
0001
0100
0010
2000
3000
0200
,
0000
0000
0300
0000
0010
0000
0000
0000
0001
0100
0001
0000
0100
0000
0020
0000
,
0000
0000
0000
0030
1000
0000
0100
0000
0000
0000
0010
0000
0001
0000
0100
0000
,
0010
1000
0100
0010
0002
0000
0103
0100
,
0010
1000
0100
0010
0002
0000
0013
0100
,
1000
0001
0200
0000
0010
0320
0000
1030
,
2100
0000
0100
0100
3000
0010
0010
0001
,
1000
0001
0100
0010
0100
0001
1000
0100
,
0001
0100
0010
0001
0100
1000
0100
0010
,
1000
0000
0100
0000
0010
0001
0010
0100
1000
0001
0100
0010
0100
0001
1000
0100
,
0010
0000
0000
0001
0000
0000
0100
0000
0000
0010
0000
0000
1000
0000
0M00
0002
0000
0000
0003
0000
M000
0200
0000
0000
0300
0000
M00M
0020
0000
0000
0030
0000
0000
1000
0000
0000
0100
0000
0000
0000
0000
0000
0010
0000
0000
0001
0000
0000
,
0100
0000
0010
1000
0100
0000
0010
0001
0100
0000
0010
0000
0100
0000
0001
1000
,
0001
0000
1000
0100
1000
0000
0010
1000
0010
0000
0100
0000
0001
0000
1000
0100
,
0010
0000
0010
0100
1000
0000
1000
0001
0100
0000
0100
0010
1000
0000
0100
0010
,
0000
0010
0001
0000
0100
0000
0010
1000
0000
1000
0100
0000
0010
0000
0001
0000
,
1000
0000
0000
0000
0000
0000
0001
0000
0000
0000
0000
0000
M100
0000
0000
0010
000M
0000
010M
0000
M000
0000
0000
0000
0010
0000
000M
1000
0M00
0000
0010
0000
000M
1000
0M00
0000
002M
0000
0000
0000
0000
0000
0000
0000
0030
0000
0000
0000
,
0200
0000
0000
0000
0300
0000
0002
0000
0000
0000
0000
0000
0000
0000
0000
0003
0000
0000
1000
0000
0000
0000
0000
0000
0100
0000
0000
0000
0000
0000
0010
0000
0000
0000
0000
0000
0001
0000
0000
0000
0000
0000
0100
0000
0000
0000
0000
0000
,
0010
0000
0000
0000
0000
0000
2000
0000
0000
0000
0000
0000
0000
0000
3000
0000
0000
0000
0100
0000
0000
0000
0000
0000
0010
0000
0000
0000
0000
0000
0100
0000
0000
0000
0000
0000
1000
0000
0000
0001
0000
0000
0100
0000
0000
0010
0000
0000
,
1000
0001
0100
0010
1000
0100
0010
0001
0010
0100
1000
0001
0100
0000
0010
0000
,
1000
0000
0100
0010
0000
0010
0001
0000
0100
0000
0010
0000
0100
0000
0001
0000
,
1000
0000
0100
0010
0000
0010
0001
0000
0100
0000
0010
0000
0100
0000
0001
0000
,
1000
0000
0200
0000
0000
0000
0320
0000
0000
0000
0032
0000
0000
0000
0000
0003
,
0100
0020
0000
2030
0000
3001
0100
0010
,
1000
0000
0100
0000
M010
0M01
M010
0000
0001
M1M0
00M1
M100
00M1
0000
0000
0000
,
0100
0020
0000
1030
0100
0001
0100
1000
,
0010
0000
0200
0000
0000
0300
0001
0000
0010
0000
1000
0000
0010
0001
0100
0010
,
1000
0001
0100
0010
1000
0100
0010
0001
0010
0100
1000
0001
0100
0000
0100
0010
,
0000
0010
1000
0000
0100
0000
0010
0001
0000
0001
0100
0000
0010
0000
1000
0100
,
0000
0100
0010
0000
0001
0000
0100
0010
0000
1000
0100
0000
0010
0000
0001
0100
,
0000
0001
0100
0000
0010
0000
1000
0100
0000
1000
0100
0000
0010
0000
0100
0010
,
0000
0100
0010
0000
0001
0000
1000
0001
0000
1000
0001
0000
0200
0000
0300
0020
,
0000
0030
2000
3000
0200
0000
0300
0002
0000
0003
0200
0300
0020
0000
0030
0002
,
0000
0000
0203
0300
2000
3000
0000
0200
0000
0300
0020
0030
2000
0000
3000
0200
,
0000
0300
0020
0030
0002
0000
0003
0200
0000
0300
0020
0030
2000
0000
0000
0000
,
0000
0000
0000
0000
3100
0000
0010
0000
0001
0000
0100
0000
0010
0000
1000
0100
,
1000
0000
0100
0010
0000
0010
0001
0000
0100
0000
0010
0000
1000
0100
1000
0100
,
1000
0000
0100
0010
0000
0010
0100
0000
1000
0000
0001
0000
0200
0000
0000
0000
,
0010
0320
0000
1000
2030
0000
0100
0000
,
3010
0100
0001
1000
0100
0010
0001
0100
,
1000
0100
0010
1000
0100
0001
0100
1000
,
0010
0000
0001
0000
0010
0000
1000
0000
0100
0000
0010
0000
0001
0100
0010
1000
,
0100
0000
0000
0010
0000
0000
0001
0000
0000
0010
0000
0000
0100
0000
0000
1000
0000
0000
0001
0000
0000
0100
0000
0000
0010
0000
0000
1000
0000
0000
0100
0000
0000
1000
0000
0000
010M
0000
0000
0020
0000
0000
M000
0000
0M00
0032
0000
0000
,
0000
M203
0000
031M
1000
0000
0100
1000
0100
0000
0010
0001
0010
0000
0001
0000
,
0100
0000
0010
0000
1000
0000
0100
0010
0100
0000
0010
0001
0010
0000
0001
0000
,
0100
0000
0010
0000
1000
0000
0100
0010
0001
0000
0100
0001
0000
0100
0001
0000
,
0100
0000
0010
0000
1000
0000
0100
1000
0000
0100
1000
0000
0100
0000
0010
0100
,
0000
0010
0100
0000
0010
0000
0001
0000
0100
0000
0010
0000
1000
010M
0010
M000
,
0001
M100
0010
100M
0200
00M0
0000
0000
0310
0000
0002
0000
0000
0000
0103
0000
,
1000
0100
0010
1000
0100
0020
0000
0031
,
0100
0000
0010
0000
1000
0100
0010
0001
0010
0100
1000
0001
0100
0010
1000
0100
,
0010
0100
1000
0001
0100
0000
0010
0000
0100
0000
0001
1000
0000
0001
1000
0000
,
0100
0000
0010
0000
0001
0000
0010
0000
0100
0000
1000
0010
0000
0100
0001
0000
,
1000
0001
0100
0010
1000
0200
0000
0320
,
0000
0000
0031
0000
0100
0000
0010
1000
0000
0010
1000
0000
0100
0000
1000
0100
,
0000
1000
0100
0000
0010
0000
0001
0000
0100
0000
0010
0000
100M
0100
10M0
0000
,
0001
0M10
M001
0M10
M002
M000
0000
0000
0103
0000
0020
0000
0000
0000
1030
0000
,
0100
0001
0100
0010
0001
0200
0000
0310
,
1000
0000
0001
0000
0100
0010
1000
0100
0010
0001
0100
0010
1000
0100
0010
0100
,
1000
0001
0100
0010
0200
0000
0300
0000
0000
0000
0000
0000
0000
0000
0000
0000
;
