#TITLE:SMB Stage 1;
#SUBTITLE:MARIO;
#ARTIST:Nintendo;
#TITLETRANSLIT:;
#SUBTITLETRANSLIT:;
#ARTISTTRANSLIT:;
#CREDIT:;
#BANNER:;
#BACKGROUND:;
#LYRICSPATH:;
#CDTITLE:;
#MUSIC:smb1_level_1.mp3;
#OFFSET:0.000;
#SAMPLESTART:21.037;
#SAMPLELENGTH:12.000;
#SELECTABLE:YES;
#BPMS:0.000=136.901;
#STOPS:;
#BGCHANGES:;
// cache tags:
#FIRSTBEAT:0.750;
#LASTBEAT:96.000;
#SONGFILENAME:Songs/keyboard/smb1_level_1/smb1_level_1.sm;
#HASMUSIC:1;
#HASBANNER:0;
#MUSICLENGTH:42.543;
// end cache tags

//---------------dance-single - Blank----------------
#NOTES:
     dance-single:
     Blank:
     Hard:
     8:
     0.567,0.508,0.564,0.047,0.928,143.000,24.000,2.000,0.000,0.000:



0000
0000
0000
0110
0000
0000
1010
0000
0011
0110
0000
0000
0110
0110
0000
0000
,
0201
0000
0000
0000
0000
0310
0000
0000
0000
0000
0100
0000
0000
0000
0000
0010
,
0000
0000
0100
0000
0000
0000
1000
0000
0000
0010
0000
0000
0001
0000
0000
0000
,
0001
0000
0010
0000
0100
0000
1000
0000
0000
0100
0000
0010
0000
0001
0000
0000
,
0110
0000
0011
0000
0110
0000
0000
0100
0000
0000
0000
0010
0000
0000
0000
0100
,
0000
0000
1000
0000
0000
0010
0000
0000
0001
0000
0000
0000
0010
0001
0000
0010
,
0000
0100
0000
0000
1100
0000
0110
0000
1100
0000
0010
0000
0100
0001
0000
0000
,
0000
0000
0000
0000
0000
0010
0000
0100
0000
1000
0000
0000
0010
0000
0000
0001
,
0000
0010
0000
0100
0000
1000
0000
0010
0000
0000
0000
0001
0000
0010
0000
0100
,
0000
0000
0010
0000
0000
1010
0000
0010
1000
1010
0000
0000
0000
0000
0000
0000
,
0010
0000
0001
0000
0010
0000
0100
0000
1000
0000
0010
0000
0000
0100
0001
0000
,
0000
0100
0000
0000
0000
0000
0000
0101
0000
0000
0000
0101
0000
0000
0000
0101
,
0000
0000
0000
0010
0000
1000
0000
0100
0000
0000
0000
0010
0000
0000
0001
0000
,
0010
0000
0000
0100
0000
0000
0010
0000
0100
0000
0000
0000
0010
0001
0000
0000
,
0000
0000
0000
0010
0000
0100
1000
0000
0000
0010
0000
0000
1010
0000
0000
1010
,
0000
1010
0000
0000
0000
0000
0000
0000
0010
0000
0100
0000
0000
0010
0000
0000
,
0001
0000
0000
0010
0000
0100
0000
0000
1000
0010
0000
0100
0000
0000
0000
0110
,
0000
0000
0000
0110
0000
0000
0010
0100
0000
0000
0001
0000
0010
0000
0000
0100
,
0000
0000
0010
0000
1000
0100
0000
1000
0000
0010
0100
0000
0001
0000
0010
0000
,
0000
0010
0010
0000
0000
0000
0000
0100
1000
0010
0000
0100
0000
0010
0100
0001
,
0000
0000
0010
0000
0000
0000
0000
0001
0000
0000
0010
0000
0000
0100
1000
0000
,
0000
0010
0000
0100
0000
0001
0100
0000
0000
0010
0000
0010
0000
0100
1000
0000
,
0000
0000
0000
0010
0000
0011
0000
0000
0010
0000
0000
0100
0100
0000
0000
0020
,
0000
0000
0000
0000
0031
0000
0000
0000
0000
0010
0000
0000
0000
0100
0000
0000
,
1000
0000
0000
0000
;

//---------------dance-single - Blank----------------
#NOTES:
     dance-single:
     Blank:
     Challenge:
     10:
     0.702,0.698,1.000,0.047,0.846,148.000,59.000,2.000,0.000,0.000:

0000
0000
0000
0000
0000
0000
1001
1010
0000
0011
0110
0000
0110
1100
0000
0000
,
2001
0000
0000
0000
0000
3010
0000
0000
0000
0000
0100
0000
0000
0000
1000
0000
,
0000
0000
0010
0000
0000
0000
0001
0000
0000
0010
0000
0100
0000
0000
0000
0000
,
1000
0110
1010
0110
1001
0101
0110
0000
0011
0000
0011
0000
1100
0000
0000
1100
,
0000
0010
0100
0000
0000
0000
0010
0000
0000
0000
0000
0001
0000
0000
0010
0000
,
0000
0000
0100
0000
0000
1000
0000
0010
0000
0100
0000
0000
1010
0110
0101
1100
,
0000
0011
0000
0110
0000
1100
0000
0011
0000
0110
0000
1001
0110
0000
0010
0000
,
0000
0000
0000
0001
0000
0010
0000
0100
0000
1000
0000
0000
0010
0000
0001
0000
,
0010
0000
0100
0000
0000
0010
0000
0001
0000
0000
0000
0010
0100
0000
1000
0000
,
0010
0000
0100
0000
0110
0000
0000
0110
0000
0110
0000
0000
0000
0000
0000
0000
,
0100
0000
1000
0010
0000
0100
0000
0001
0000
0000
0100
0000
0010
0000
0001
0000
,
0000
0010
0000
0001
0000
0000
0000
0011
0000
0000
0000
0011
0000
0000
0000
0011
,
0000
0000
0000
0010
0000
0100
0000
0000
0010
0000
0000
0000
0000
0100
0000
1000
,
0010
0000
0100
0000
0000
0010
0000
0001
0000
0010
0000
0000
0100
0000
0010
0000
,
0000
0000
0000
0010
0100
0000
1000
0000
0010
0000
0000
0000
0110
0000
0000
0110
,
0000
0110
0000
0000
0000
0000
0000
0000
0100
0000
1000
0010
0000
0100
0000
0001
,
0000
0000
0000
0010
0000
0100
0000
1000
0000
0010
0100
0000
0000
0000
0000
0011
,
0000
0000
0000
0011
0000
0000
0000
0011
0000
0000
0100
0000
1000
0000
0000
0010
,
0000
0000
0001
0010
0000
0000
1001
0000
1001
0000
0110
0000
0001
0000
0010
0000
,
0100
0000
0101
0000
0000
0000
0000
0101
0000
0101
0000
0000
0110
0000
0010
0000
,
0110
0000
0001
0000
0000
0000
0000
0010
0000
0000
0100
0000
0000
0000
0100
0101
,
0000
0000
0100
0000
0000
1100
0100
0000
0000
0011
0010
0000
0000
0110
0010
0000
,
0000
1001
0000
0000
0110
0000
0101
0000
1010
0000
0011
0000
0110
0000
0000
0102
,
0000
0000
0000
0000
0013
0000
0000
0000
0000
0001
0000
0000
0010
0000
0000
0000
;
