#TITLE:Shattered;
#SUBTITLE:Cowboys From Hell (1990);
#ARTIST:Pantera;
#TITLETRANSLIT:;
#SUBTITLETRANSLIT:;
#ARTISTTRANSLIT:;
#CREDIT:;
#BANNER:shattered-banner.png;
#BACKGROUND:shattered-bg.png;
#LYRICSPATH:;
#CDTITLE:melonman67.png;
#MUSIC:07-Shattered.mp3;
#OFFSET:0.790;
#SAMPLESTART:14.294;
#SAMPLELENGTH:12.000;
#SELECTABLE:YES;
#BPMS:0.000=220.000,36.000=221.200,45.000=210.000,48.000=225.000,54.000=240.000,56.000=237.000,104.000=242.000,112.000=250.000,120.000=241.000,152.000=237.000,213.000=240.000,221.000=242.000,253.000=240.500,309.000=235.000,317.000=225.000,321.000=58.000,322.000=237.000,336.000=238.000,352.000=250.000,355.000=242.000,368.000=244.000,382.000=208.000,385.000=240.000,400.000=244.000,409.000=246.000,416.000=236.000,446.000=246.000,462.000=245.000,506.000=241.000,538.000=248.000,542.000=224.000,556.000=221.000,574.000=210.000,576.000=220.000,585.000=269.999,587.000=236.999,611.000=237.999,627.000=241.999,667.000=240.999,700.000=233.999,704.500=230.999,719.000=221.999;
#STOPS:188.000=0.860
,438.500=0.300
;
#BGCHANGES:;
// cache tags:
#FIRSTBEAT:4.000;
#LASTBEAT:779.000;
#SONGFILENAME:Songs/Astronomic Metal Collection/Shattered (melonman67)/Shattered.sm;
#HASMUSIC:1;
#HASBANNER:1;
#MUSICLENGTH:202.117;
// end cache tags

//---------------dance-single - ----------------
#NOTES:
     dance-single:
     :
     Challenge:
     14:
     1.000,1.000,1.000,0.520,0.759,1250.000,306.000,105.000,0.000,0.000:
0000
0000
0000
0000
,
1000
0100
0010
0001
1000
0001
0100
0010
1000
0001
0010
0100
,
0010
0001
1000
0001
1000
0010
0100
0010
1000
0001
0010
0100
,
1000
0100
0010
0100
1000
0010
0100
0001
1000
0001
0010
0100
,
1000
0100
1000
0001
1000
0010
0100
0001
0010
0001
1000
0100
,
0010
0100
1000
0001
1000
0001
0010
0100
1000
0010
0100
0010
,
1000
0001
0100
0010
1000
0001
0010
0100
0010
0001
1000
0001
,
0010
0100
1000
0010
0100
0001
0010
0001
1000
0100
0010
0001
,
1000
0001
0100
0010
1000
0001
0010
0100
0010
0001
1000
0100
,
1100
0110
0011
0000
,
0000
1001
0000
0000
0101
0000
0110
0000
,
1010
0000
0000
1001
0000
1001
0000
0000
,
1001
0011
0000
0110
0000
1001
0000
1010
,
0000
0101
0000
1010
1100
0000
1001
0000
,
1000
0100
1000
0100
1000
0010
1000
0001
,
1000
0010
1000
0100
2000
0000
3000
0000
,
1100
0110
0011
1001
0000
1010
0000
0101
,
0000
0011
0000
0110
2200
0000
3300
0000
,
0001
0010
0001
0010
0001
1000
0001
0100
,
0001
1000
0001
0010
0002
0000
0003
0000
,
0011
0110
0011
1001
0000
1010
0000
0101
,
0000
0011
0000
1001
2200
0000
3300
0000
,
1000
0010
1000
0010
1000
0100
1000
0001
,
1000
0100
1000
0010
2000
0000
3000
0000
,
1010
0110
1001
0011
0000
0101
0000
0110
,
0000
1001
0000
0110
0202
0000
0303
0000
,
0100
0010
0100
0010
0100
0001
0100
1000
,
0100
0001
0100
0010
0200
0000
0300
0000
,
0110
1100
0110
0101
0000
0011
0000
0110
,
0000
0011
0000
1001
0202
0000
0303
0000
,
0110
0010
1000
1100
0100
0110
0010
0011
,
0001
1000
1001
0001
0101
0011
0101
0100
,
0110
0010
1000
1010
1000
1100
1000
1001
,
0001
0010
0001
0010
0001
0010
0001
0010
,
1001
1000
0010
0110
0010
1010
1000
1100
,
0100
0010
0011
0010
0110
1100
0011
0001
,
1001
1000
0010
0110
0100
0101
0001
1001
,
1000
0010
1000
0010
1000
0010
1000
0010
,
2020
0000
0000
3030
,
0202
0000
0000
0303
,
0101
0100
0010
1010
0010
0110
0100
0001
,
0101
0100
0010
0110
0010
1010
1000
0100
,
0110
0100
1000
1001
0001
0101
0100
0010
,
1010
1000
0001
0011
0001
1001
1000
0001
,
0022
0000
0000
0033
,
2200
0000
0000
3300
,
1000
0001
1000
0001
1000
0001
1000
0001
1000
0001
1000
0001
,
1000
0000
1000
0100
0010
0001
0010
0100
,
0010
1000
0010
0001
0010
0001
2000
0000
,
3000
0000
1100
0011
1100
0110
0000
0011
,
0000
1001
0000
0101
0000
1010
0202
0000
,
0303
0000
0001
0100
0010
1000
0010
0100
,
0010
0001
0010
1000
0010
1000
0200
0000
,
0300
0000
0110
0011
0110
1100
0000
1001
,
0000
0011
0000
1001
0000
1100
2020
0000
,
3030
0000
0010
0100
0001
0100
0010
1000
,
0010
0100
0001
1000
0010
1000
0200
0000
,
0300
0000
1100
1001
1100
1010
0000
0110
,
0000
0101
0000
0110
0000
1010
2200
0000
,
3300
0000
1000
0001
0100
1000
0100
0001
,
0010
1000
0010
0001
1000
0100
2000
0000
,
3000
0000
0000
1001
0000
1000
0100
0010
0000
0001
1000
0001
,
0000
0000
0000
0000
1000
0000
0001
0000
0010
0000
0100
0000
1000
0000
0000
0010
0000
0000
1000
0000
0000
0001
0000
0000
,
0010
0001
1001
0001
0010
1100
0001
0110
,
1000
1001
0001
1000
1010
0100
1010
0101
,
1010
1000
1001
0001
0010
1100
0010
0101
,
1000
0110
1000
0100
1000
0100
1000
0100
,
1000
0100
1100
1000
0001
0101
0100
0110
,
0100
0101
0001
0100
0110
0010
1010
0101
,
0011
0010
0110
0100
1000
1001
0001
0101
,
0010
1010
1000
0001
0100
0001
0100
0001
,
0100
0001
0202
0000
0000
0000
0000
0000
,
0303
0022
0000
0000
,
0033
0000
0011
1000
0100
0011
1000
0110
,
0001
0100
0110
0010
1000
1010
0010
0110
,
0100
0001
0011
1000
0100
1100
0001
0011
,
0010
0100
1100
1000
0001
0101
0100
1001
,
0001
0010
0220
0000
0000
0000
0000
0000
,
0330
2002
0000
0000
,
3003
0000
0000
1000
0100
0010
0001
0100
0010
1000
0100
0010
,
0001
0000
0100
0000
0010
0000
1000
0000
0000
0000
0000
0000
0001
0000
0000
0010
0000
0000
0001
0000
0000
0010
0000
0000
,
0001
0100
0001
1000
0001
0100
0001
0010
,
0002
0000
0003
0000
0011
0110
1100
1001
,
0000
0101
0000
1010
0000
1100
0000
0110
,
0022
0000
0033
0000
1000
0100
1000
0100
,
1000
0001
1000
0010
1000
0001
1000
0100
,
2000
0000
3000
0000
1100
0110
1100
1001
,
0000
0101
0000
1010
0000
1100
0000
1001
,
0022
0000
0033
0000
0001
0100
0001
0100
,
0001
0010
0001
1000
0001
0010
0001
0100
,
0002
0000
0003
0000
0101
0110
1001
1100
,
0000
1010
0000
0110
0000
1001
0000
0110
,
2020
0000
3030
0000
0010
0100
0010
0100
,
0010
1000
0010
0001
0010
1000
0010
0100
,
0020
0000
0030
0000
0110
2002
0000
0000
,
0000
0000
0000
3003
1001
0000
0000
0000
,
0000
0022
0000
0000
,
0000
0000
0000
0000
0000
0033
0011
0110
,
1100
0000
0000
1001
0000
0000
0000
0000
0000
1000
0000
0000
0011
0000
0000
0000
0000
0000
0001
0000
1000
0000
0010
0000
,
0110
0000
0000
1000
0001
0010
0011
0001
1000
1010
0010
0100
,
0202
0000
0000
0000
,
0000
0000
0000
0000
0303
0101
0110
1010
,
1100
0000
0001
1000
0110
0000
0001
0100
,
1010
0000
0100
0010
1001
0000
0001
0010
,
2200
0000
0000
0000
,
0000
0000
0000
3300
1100
1001
0011
0110
,
0010
0000
0000
0001
0000
0000
1001
0000
0000
0000
0000
0000
1000
0000
0001
0000
0100
0000
0110
0000
0000
0000
0000
0000
,
0010
1000
0100
1100
1000
0001
0011
0010
0100
0220
0000
0000
,
0000
0000
0000
0000
,
0000
0000
0330
0220
0000
0330
0011
0000
,
0001
1100
0000
1000
0011
0000
0001
0101
,
0000
0000
0000
0001
0000
0000
1010
0000
0000
0000
0000
0000
1001
0000
0000
0000
0000
0000
0001
0000
0010
0000
0100
0000
,
2000
0000
0000
3001
1000
0001
0200
0000
0000
0310
0100
0010
,
2000
0000
0000
3001
0010
0001
2000
0000
0000
3001
0010
0100
,
0020
0000
0000
0031
1000
0100
2000
0000
0000
3001
0100
0010
,
2000
0000
0000
0000
0000
0000
3001
0100
0001
0100
0010
1000
,
0100
0001
0100
1000
0010
0100
0001
0100
1000
0100
0010
1000
,
0100
0001
0100
1000
0001
0010
0100
1000
0100
0010
0100
1000
,
0001
0000
0010
0000
0100
0000
0001
0000
0100
0000
1000
0000
0101
0000
0000
0000
0000
0000
0000
0000
0000
1010
0000
0000
,
0000
0000
0101
0000
0002
0000
0013
0100
,
1000
0001
1000
0010
0100
0001
1000
0001
,
0100
0010
0100
0001
0020
0000
0000
0230
,
0000
2300
3002
0000
,
0000
0000
0000
0000
0000
0000
1003
0100
0010
0001
1000
0010
,
0100
0010
1000
0001
0010
0100
1000
0010
0100
0001
0010
0100
,
1000
0001
0100
0010
0100
0001
1000
0010
1000
0100
0010
0001
,
0010
0000
0100
0000
1000
0000
0010
0000
0100
0000
0001
0000
2000
0000
0000
0000
0000
0000
0000
0000
0000
0001
0000
0000
,
0000
0001
3002
0000
,
0000
0000
0103
0010
2000
0000
0000
0000
,
0000
0000
0000
3000
0000
0000
0001
0000
0100
0000
0010
0000
,
1000
0000
0010
0000
0100
0000
0002
0000
0000
0000
0000
0000
,
0000
0000
0023
0000
0130
0100
1000
0002
,
0000
0003
1000
1000
0001
0200
0000
0300
,
0010
0010
1000
0001
0020
0000
0000
0000
,
0000
0030
0022
0000
,
0000
0000
0000
0033
0000
0000
0001
1000
0010
0100
0001
0100
,
0010
0100
0010
1000
0100
0010
0001
0010
0100
1000
0001
0100
,
0010
0100
0001
0010
0100
1000
0100
0001
0100
1000
0001
1000
,
0010
0100
0001
0100
0010
0100
0001
0010
0100
1000
0001
0010
,
0100
1000
0010
0100
0001
0010
0100
1000
0100
0010
0001
0100
,
0010
1000
0010
0100
0001
1000
0001
0100
0001
0100
0010
1000
,
0100
1000
0100
0010
0001
0010
0100
1000
0010
0100
0001
0010
,
0100
1000
0100
1000
0001
0010
1000
0010
0001
1000
0001
1000
,
0001
0010
0100
1000
0100
1000
1001
0000
0000
1100
0000
0000
,
0011
0000
0000
0000
0000
1001
0000
0000
,
0101
1010
0110
0000
,
1010
0000
1010
0000
0000
0000
0110
0110
,
0000
0110
0000
1010
0000
0101
0000
0011
,
0000
0110
1100
0000
0011
0000
0001
1000
,
0001
1000
0001
0100
0001
0010
0001
0100
,
0001
1000
0002
0000
0003
0000
0011
1001
,
1100
0011
0000
0110
0000
0011
0000
1001
,
0000
0101
2020
0000
3030
0000
1000
0001
,
1000
0001
1000
0010
1000
0100
1000
0010
,
1000
0001
2000
0000
3000
0000
1010
0101
,
0110
1010
0000
1100
0000
0011
0000
1100
,
0000
0011
0220
0000
0330
0000
0100
0001
,
0100
0001
0100
0010
0100
1000
0100
0010
,
0100
0001
0200
0000
0300
0000
0110
1100
,
0101
0110
0000
0011
0000
0101
0000
1001
,
0000
1010
0220
0000
0330
0000
0010
1000
,
0010
1000
0010
0001
0010
0100
0010
0001
,
0010
1000
0020
0000
0030
0000
0110
0101
,
0110
1010
0000
1100
0000
1001
0000
1010
,
0000
1100
2002
0000
3003
0000
1000
0001
,
0010
0100
0010
1000
0010
0100
0010
0001
,
1000
0010
2000
0000
3000
0000
1010
0110
,
0101
0110
0000
1010
0000
1001
0000
0101
,
0000
0011
0220
0000
0330
0000
0010
0001
,
1000
0010
0001
0010
1000
0100
0001
0100
,
1000
0001
0020
0000
0030
0000
0011
1100
,
0011
0101
0000
1010
0000
0101
0000
0011
,
0000
1001
0220
0000
0330
0000
0001
0010
,
0001
1000
0001
0100
0000
0000
0000
0001
,
0010
0100
1000
0100
0010
0000
0000
0000
,
0001
1000
0001
0100
0010
1000
0000
0000
,
0000
0010
1000
0001
0010
0100
1000
0100
,
0010
0001
1000
0001
0100
0010
0000
0000
,
0000
0000
0000
0120
0000
0000
0000
0000
,
0000
0000
0000
0000
0000
0000
0000
0000
0030
0000
0000
0000
0010
1000
0001
0010
,
0001
1000
0010
0100
0001
0010
0100
0010
0001
1000
0100
1000
0100
0010
0001
0100
,
0010
1000
0100
0010
0001
1000
0001
0100
0010
1000
0001
0010
0100
1000
0100
0010
,
0001
1000
0100
0010
0001
0010
0100
0010
0001
1000
0001
0100
0010
0100
0001
0010
,
0001
1000
0100
1000
0010
0100
0001
0010
0100
1000
0100
0010
0001
0010
0001
1000
,
0100
1000
0001
1000
0001
0100
0010
0100
0010
1000
0001
0010
0100
0010
0001
0010
,
0100
1000
0100
1000
0001
0010
0100
0010
0002
0000
0000
0000
0000
0000
0000
0000
,
0000
0000
0000
0000
0003
0000
1000
0000
0000
0001
0010
0100
0000
0000
1000
0001
,
0100
0000
0000
0000
0000
0010
0000
1000
0000
0001
0000
0000
0000
0000
1000
0000
0100
0000
0010
0000
0000
0000
0000
0000
0001
0000
0010
0000
0100
0000
0000
0000
,
0000
1000
0000
0100
0000
1000
0000
0000
0000
0000
0001
0000
0010
0000
0001
0000
0000
0000
0000
0000
1000
0000
0010
0000
1000
0000
0000
0000
0000
0000
0001
0000
,
0100
0002
0000
0000
0000
0000
0000
0000
0000
0000
0000
0000
0003
0000
0000
0000
,
1000
0001
0010
0100
0010
0001
1000
0010
0100
0001
0010
0100
1000
0100
0010
0001
,
1000
0000
0000
0001
0000
0000
0100
0000
0000
0010
0000
0000
1000
0000
0000
0000
0001
0000
0000
0000
0000
0000
0000
0000
0000
0000
0000
0000
0000
0000
0000
0000
0000
0000
0000
0000
0000
0000
0000
0000
0000
0000
0000
0000
0000
0000
0000
0000
,
1001
0000
0000
1001
0000
0000
2002
0000
,
0000
0000
0000
0000
,
0000
0000
0000
3003
;
