#TITLE:SMMAX Main Menu BGM;
#SUBTITLE:;
#ARTIST:DDRMAX;
#TITLETRANSLIT:;
#SUBTITLETRANSLIT:;
#ARTISTTRANSLIT:;
#CREDIT:Arch0wl;
#BANNER:bgm-bn.png;
#BACKGROUND:bgm-bg.png;
#LYRICSPATH:;
#CDTITLE:!arch0wlTitle.png;
#MUSIC:bgm.ogg;
#OFFSET:0.024;
#SAMPLESTART:0.002;
#SAMPLELENGTH:16.730;
#SELECTABLE:YES;
#BPMS:0.000=115.000;
#STOPS:;
#BGCHANGES:0.000=bgm-bg.png=1.000=0=0=1,
99999=-nosongbg-=1.000=0=0=0 // don't automatically add -songbackground-
;
// cache tags:
#FIRSTBEAT:0.000;
#LASTBEAT:31.500;
#SONGFILENAME:Songs/Archmage and Dark0wl Hammer of Thor UltraHyperMegaPack/SMMAX Main Menu BGM/bgm.sm;
#HASMUSIC:1;
#HASBANNER:1;
#MUSICLENGTH:105.000;
// end cache tags

//---------------dance-solo - Arch0wl----------------
#NOTES:
     dance-solo:
     Arch0wl:
     Challenge:
     12:
     0.214,0.206,0.400,0.095,0.119,87.000,42.000,10.000,0.000,25.000:
010000
000000
110000
000000
001011
000000
100000
000000
001110
001000
110101
000000
001000
000000
100000
000000
,
010000
000000
110000
000000
001000
000000
100110
001000
001000
001000
110000
000000
001000
000000
100110
000000
,
010000
000000
110011
000000
001000
000000
100000
000000
001000
001000
110000
000000
001000
000000
100000
000000
,
010000
000000
110000
000000
001000
001000
100000
001000
000000
001000
111000
000000
001000
000000
100000
000000
,
010001
000000
110021
000100
001000
000001
100100
000000
001002
001003
110002
000003
001130
000010
100001
000000
,
010001
000000
110000
000000
001010
000000
100000
001000
000100
001010
110000
000000
001001
000010
100100
000000
,
010010
000000
000100
000000
110002
000000
000000
000000
001020
000030
000020
000030
100000
000000
001020
000030
000000
000000
001020
000030
110020
000030
000000
000000
001103
000000
000010
000000
100000
000000
000000
000000
,
010011
000110
110001
000010
001002
000010
101000
001010
001010
000000
111010
000010
001003
000010
100010
000000
;

//---------------dance-single - Arch0wl----------------
#NOTES:
     dance-single:
     Arch0wl:
     Edit:
     16:
     0.200,0.180,0.400,0.000,0.119,87.000,42.000,0.000,0.000,14.000:
0100
0000
1100
0000
1011
0000
1000
0000
1011
0010
1111
0000
0010
0000
1000
0000
,
0100
0000
1100
0000
0010
0000
1101
0010
0010
0010
1100
0000
0010
0000
1011
0000
,
0100
0000
1111
0000
0010
0000
1000
0000
0010
0010
1100
0000
0010
0000
1000
0000
,
0100
0000
1100
0000
0010
0010
1000
0010
0000
0010
1110
0000
0010
0000
1000
0000
,
0101
0000
1111
0001
0010
0100
1001
0000
0110
0010
1101
0000
0011
0100
1001
0000
,
0101
0000
1100
0000
0110
0000
1000
0010
0001
0110
1100
0000
1010
0100
1001
0000
,
0110
0001
1110
0000
0011
0100
1000
0110
0000
0011
1101
0000
0011
0100
1000
0000
,
0111
0011
1101
0001
0110
0001
1010
0011
0011
0000
1111
0001
0010
0001
1001
0000
;

//---------------dance-single - Arch0wl----------------
#NOTES:
     dance-single:
     Arch0wl:
     Challenge:
     13:
     0.193,0.165,0.505,0.000,0.124,89.000,53.000,0.000,0.000,0.000:
0100
0000
1100
0000
0011
0000
1000
0000
0011
0100
1100
0000
0011
0000
1000
0000
,
0100
0000
1100
0000
0011
0000
0101
0010
1000
0010
0101
0000
1010
0000
0011
0000
,
0100
0000
0011
0000
0010
0000
0100
0000
0010
0100
0011
0000
1100
0000
1000
0000
,
0110
0000
0101
0000
0110
0010
1000
0110
1000
0110
1010
0000
0101
0000
1000
0000
,
0101
0000
0011
0001
0010
0100
1001
0000
0110
0010
0101
0000
0011
0100
1001
0000
,
0101
0000
0110
0000
0101
0000
1000
0010
0101
0110
1001
0000
1010
0100
1001
0000
,
0101
0010
1001
0000
0011
0100
1000
0110
0000
0110
0101
0000
0101
0010
1000
0000
,
1001
1001
0100
0011
0100
0011
0100
1001
0011
0100
0011
0011
0100
0011
0011
0000
;

//---------------dance-single - Arch0wl----------------
#NOTES:
     dance-single:
     Arch0wl:
     Hard:
     9:
     0.107,0.083,0.143,0.000,0.071,64.000,15.000,0.000,0.000,0.000:
0001
0010
1100
0010
1100
0011
0100
0010
,
1000
0010
0100
1001
0010
0100
0010
1001
,
0010
0000
1001
0000
0010
0000
0100
0000
0001
0010
0100
0000
0011
0000
0100
0000
,
1000
0000
1000
0000
1000
0010
0000
0010
0000
0010
1000
0000
0101
0000
0010
0000
,
1000
0000
0100
0010
0000
0010
0100
0000
1100
0000
0101
0000
0100
1000
0010
0000
,
1010
0000
0000
0000
0101
0000
0000
0000
0011
0100
0000
0000
1000
0100
0010
0000
,
0011
0100
0000
0000
1000
0010
0000
1000
0000
0010
0100
0000
0001
0010
0000
0000
,
0001
0010
0100
0000
1001
0000
0000
0000
0000
0000
0000
0000
0000
0000
0000
0000
;
