#TITLE:Resist;
#SUBTITLE:(Extratone Edit);
#ARTIST:m1dlet;
#TITLETRANSLIT:;
#SUBTITLETRANSLIT:;
#ARTISTTRANSLIT:;
#CREDIT:Aoreo;
#BANNER:Bn-Resist.png;
#BACKGROUND:Bg-Resist.png;
#LYRICSPATH:;
#CDTITLE:;
#MUSIC:Resist.ogg;
#OFFSET:-0.005;
#SAMPLESTART:8.180;
#SAMPLELENGTH:12.000;
#SELECTABLE:YES;
#DISPLAYBPM:235.000;
#BPMS:0.000=235.000,312.000=235.080;
#STOPS:;
#BGCHANGES:;
// cache tags:
#FIRSTBEAT:0.000;
#LASTBEAT:537.000;
#SONGFILENAME:Songs/SPEEEDCOOOORE/Resist - [Aoreo]/Resist.sm;
#HASMUSIC:1;
#HASBANNER:1;
#MUSICLENGTH:138.278;
// end cache tags

//---------------dance-single - J. Nero----------------
#NOTES:
     dance-single:
     J. Nero:
     Challenge:
     17:
     1.000,1.000,0.434,0.159,1.000,1202.000,60.000,22.000,0.000,0.000:

1001
0001
0010
0000
0000
0000
0100
1000
,
0001
0100
0000
0000
0000
0000
0101
0000
,
0101
0001
0010
0000
0000
0000
0100
1000
,
1100
0100
0000
0000
0000
0000
0000
0000
,
1001
1000
0010
0000
0000
0000
0100
0001
,
0010
0100
0000
0000
0000
0000
1100
0000
,
1100
0100
1000
0000
0000
0000
0000
0000
,
1001
0000
0000
0000
,
0001
0100
0001
0100
0010
1000
0010
1000
0001
1000
0001
0010
0100
0000
0010
0000
,
0001
0100
0001
0100
0010
1000
0010
1000
0001
0010
0001
0010
0100
0000
0000
0000
,
1000
0100
1000
0100
0010
0001
0010
0001
1000
0001
1000
0010
0100
0010
0100
0001
,
1000
0100
1000
0001
0100
0001
0100
0010
1000
0000
0100
0000
1000
0000
0010
0000
,
0100
0001
0100
0001
1000
0010
1000
0010
0100
0001
0100
0001
1000
0000
0000
0000
,
0001
1000
0001
1000
0010
0100
0010
1000
0001
1000
0001
0100
0001
1000
0100
1000
,
0100
0010
0001
0010
0100
1000
0001
1000
0010
0100
0001
1000
0001
0000
4000
0000
,
3001
0100
0001
1000
0001
1000
0100
1000
0100
0010
0001
0010
0001
0000
0000
0000
,
1000
0010
1000
0010
0100
0010
0100
0001
1000
0001
1000
0010
0100
0001
0100
0010
,
1000
0010
1000
0001
0010
0001
0010
0100
0010
0100
1000
0001
1000
0000
0001
0000
,
0100
0001
0100
0001
1000
0001
1000
0100
0010
0100
0010
0001
0010
0001
1000
0001
,
1000
0010
0100
0010
0100
0001
1000
0001
1000
0000
0000
0000
0001
0000
0000
0000
,
1000
0010
1000
0010
0100
0001
0100
0001
1000
0001
1000
0100
1000
0100
0010
0100
,
0010
0001
0010
0001
1000
0001
1000
0001
1000
0000
0040
0000
0130
0000
0004
0000
,
1003
0100
1000
0001
0100
0001
0100
0010
1000
0010
1000
0001
0010
0001
0010
0100
,
1000
0001
0010
0100
1000
0040
0130
0004
,
1003
0100
1000
0001
0100
0001
0100
0010
1000
0010
0100
0001
0100
0001
1000
0001
,
1000
0010
0100
0010
0100
0001
1000
0001
0100
0001
0100
0010
1000
0010
1000
0001
,
0010
0100
0010
0100
1000
0001
0010
0001
1000
0100
0010
0001
1000
0001
1000
0100
,
1000
0001
0100
0010
0100
0001
1000
0001
1000
0100
0010
0001
0020
0000
0030
0000
,
0001
1000
0001
1000
0010
1000
0010
0100
0001
0100
0001
1000
0100
1000
0100
0010
,
0001
1000
0001
0010
0100
1000
0100
1000
0100
0010
0100
0010
0001
0010
0001
1000
,
0010
1000
0001
1000
0010
0100
0001
1000
0001
1000
0100
1000
0200
0000
0300
0000
,
1000
0100
1000
0001
0100
0001
0100
0010
0100
0010
1000
0001
1000
0001
1000
0010
,
1000
0010
0100
0001
0100
0001
1000
0001
1000
0000
0400
0000
1300
0000
0004
0000
,
1003
0100
1000
0100
0010
0001
0010
0001
1000
0001
1000
0010
1000
0010
0100
0001
,
0100
0001
1000
0010
1000
0010
0100
0001
0100
0001
1000
0001
1000
0010
1000
0010
,
0100
0001
0100
0001
1000
0100
0010
0001
1000
0001
1000
0100
0010
0100
0010
0001
,
1000
0001
1000
0100
1000
0001
0100
0001
0100
0010
1000
0010
1000
0001
0010
0001
,
0010
0100
0010
0100
1000
0100
1000
0001
1000
0001
1000
0010
0100
0010
0100
0001
,
1000
0001
1000
0010
1000
0010
0100
0001
0100
0001
1000
0100
1000
0001
0010
0001
,
0010
0100
1000
0100
1000
0001
1000
0001
1000
0000
0001
0000
0100
0000
0010
0000
,
0000
0000
0000
0000
,
0000
0000
0000
0000
,
0000
0000
0000
0000
,
0000
0000
0000
0000
,
0000
0000
0000
0000
,
0000
0000
0000
0000
,
1001
0001
0100
0010
,
0110
0000
0110
0000
0000
0101
0000
0000
,
1001
1000
0100
1100
,
1001
0000
0000
0000
0000
0000
0000
0000
0001
0100
0001
0100
0001
0100
0001
0100
,
0001
0000
0000
0000
,
1001
0000
1001
0000
0000
1010
0000
0000
,
0110
0100
0001
0011
,
0110
0000
0000
0000
0000
0000
0000
0000
0100
1000
0100
1000
0100
0000
0000
0000
,
1000
0000
0100
0000
1000
0000
0001
0100
0001
0000
0100
0000
0010
0000
1000
0000
,
0001
0000
0000
0000
1000
0000
0001
0100
0000
0100
0001
0000
1000
0000
0001
1000
,
0001
0000
0010
0000
0100
0000
1000
0100
0000
0100
1000
0000
0100
0000
1000
0000
,
0001
0000
0100
0000
0010
0000
0100
0001
0000
0001
1000
0000
0100
0000
1000
0001
,
1000
0000
0001
0000
0100
0000
0010
1000
0010
1000
0001
0000
0010
0000
0100
0000
,
1000
0000
0001
0000
0100
0000
0001
0010
0001
0010
0100
0000
1000
0000
0001
1000
,
0001
0000
1000
0000
0010
0000
0100
0010
0100
0010
1000
0000
0001
0000
1000
0000
,
0100
0000
0000
0000
1100
0000
1000
0001
0000
0001
0100
0000
0001
0000
0000
0000
,
0101
0100
0110
0010
,
1010
1000
1100
0100
,
0110
0010
0011
0001
,
1001
1000
1010
0010
,
0110
0100
0101
0001
,
1001
1000
1010
0010
,
0110
0100
0101
0001
,
1001
1000
1100
0100
,
0020
0031
0101
0100
,
0001
1000
0100
0000
1100
0000
1001
0000
,
0001
0100
0010
0000
0110
0000
1001
0000
,
0001
0010
0100
0000
1100
0000
1000
0000
,
0001
0100
0001
0000
0101
0000
0100
0000
,
0110
0010
1010
1000
,
1001
0001
0011
0010
,
0220
0330
0000
0000
,
2100
0000
0000
0000
,
3002
0000
0000
0000
,
0203
0000
0000
0000
,
0320
0000
0000
0000
,
2030
0000
0000
0000
,
3200
0000
0000
0000
,
0320
0000
0000
0000
,
0032
0000
0000
0000
,
1003
0001
0100
0010
,
0100
0001
0010
0100
,
0010
0001
1000
0100
,
1000
0000
0010
0000
0100
0000
0001
1000
,
0100
1000
0010
0100
,
0001
1000
0010
0100
,
0001
0010
0100
1000
,
0001
1000
0010
0110
,
0110
0100
0001
1000
,
0100
0010
0001
1000
,
0010
0100
0010
1000
,
0001
0000
0010
0000
0100
0000
0010
0001
,
2000
3001
0100
0010
,
0200
0301
0010
0100
,
2000
3000
0002
0003
,
2000
3020
0230
0302
,
1003
0100
1000
0001
0010
0100
0010
0001
1000
0100
0010
0001
1000
0100
0010
0001
,
1000
0010
0100
0001
1000
0001
1000
0010
0100
0001
1000
0010
0100
0010
1000
0001
,
1000
0100
0010
0001
1000
0100
0010
0001
0010
0100
1000
0100
0010
0001
1000
0001
,
1000
0010
0100
0010
0100
0001
1000
0010
0100
0001
1000
0010
1000
0010
0100
0001
,
1000
0100
1000
0100
0010
0001
1000
0100
1000
0001
0010
0001
1000
0100
1000
0100
,
0010
0001
1000
0010
1000
0010
0100
0001
0100
0001
1000
0010
0100
0010
1000
0001
,
1000
0100
1000
0001
0010
0001
0010
0100
1000
0100
1000
0001
0010
0100
1000
0001
,
0100
0010
0100
0010
1000
0001
0100
0010
0100
0001
1000
0001
1000
0000
0000
0000
,
0001
0100
0001
0100
0010
1000
0010
1000
0001
0100
0001
1000
0010
1000
0001
0010
,
0001
0010
0100
1000
0100
1000
0001
1000
0001
0100
0010
0100
0001
1000
0001
1000
,
0100
0010
0100
0010
0001
0010
0001
1000
0001
1000
0010
1000
0010
0100
0001
0100
,
0001
1000
0001
1000
0100
0010
0100
0010
0001
0010
0001
1000
0001
1000
0010
1000
,
0010
0100
0001
0100
0001
1000
0100
1000
0001
0100
0001
1000
0100
0010
0001
0010
,
0001
1000
0010
0100
0010
1000
0001
1000
0001
0010
0001
0010
0100
1000
0100
1000
,
0001
1000
0001
0010
0100
0010
0001
1000
,
0100
1000
0001
0100
0010
0100
0001
1000
,
0001
0100
0001
1000
0010
1000
0010
0100
0001
0100
0001
1000
0001
1000
0001
0010
,
0001
0010
0100
0010
0100
1000
0100
1000
0001
1000
0001
0100
0010
0100
0010
1000
,
0001
1000
0001
0010
0001
1000
0010
1000
0010
0100
0001
0100
0010
1000
0010
1000
,
0001
0100
0001
0010
0001
0010
0100
1000
0100
1000
0001
1000
0001
0100
0010
1000
,
0010
0100
0001
0100
0001
1000
0010
1000
0010
1000
0001
1000
0001
0010
0001
0010
,
0100
1000
0100
1000
0001
1000
0001
0100
0001
0100
0010
0100
0010
1000
0001
1000
,
0001
0010
0001
1000
0010
1000
0010
0100
0010
0100
0001
1000
0100
1000
0100
0010
,
0001
0010
0001
1000
0010
0100
0010
1000
0001
1000
0001
1000
0001
0000
0000
0000
,
1000
0010
1000
0001
0100
0010
0100
0001
1000
0010
1000
0001
0100
0010
1000
0001
,
1000
0100
0010
0001
1000
0001
0010
0100
1000
0100
0010
0001
1000
0001
0010
0001
,
1000
0010
0100
0010
1000
0001
0100
0010
0100
0001
1000
0010
0100
0001
1000
0001
,
0010
0001
0010
0100
1000
0001
1000
0100
0010
0001
1000
0100
1000
0001
0010
0001
,
1000
0010
0100
0001
0100
0010
1000
0001
1000
0010
1000
0010
1000
0010
0100
0001
,
1000
0001
0100
0010
0100
0001
1000
0001
1000
0100
1000
0100
0010
0001
0010
0001
,
1000
0100
1000
0010
0100
0001
0010
0100
,
1000
0001
1000
0010
0100
0001
1000
0001
,
2000
3000
0000
0000
;
