#TITLE:Fangad av en Korvring;
#SUBTITLE:Fangad av en Stormvind CHIP-RMX;
#ARTIST:auricom / frolic & fo;
#TITLETRANSLIT:;
#SUBTITLETRANSLIT:;
#ARTISTTRANSLIT:;
#CREDIT:Gaaahh, no one gives a crap about this....;
#BANNER:korvring.jpg;
#BACKGROUND:korvring-bg.jpg;
#LYRICSPATH:;
#CDTITLE:;
#MUSIC:korvring.mp3;
#OFFSET:-0.924;
#SAMPLESTART:58.085;
#SAMPLELENGTH:12.000;
#SELECTABLE:YES;
#BPMS:0.000=104.967;
#STOPS:;
#BGCHANGES:;
// cache tags:
#FIRSTBEAT:0.000;
#LASTBEAT:161.500;
#SONGFILENAME:Songs/IzzySM Keyboard Mega Pack/Korvring/steps.sm;
#HASMUSIC:1;
#HASBANNER:1;
#MUSICLENGTH:95.085;
// end cache tags

//---------------dance-single - ----------------
#NOTES:
     dance-single:
     :
     Hard:
     8:
     0.721,0.701,0.421,0.105,0.957,430.000,40.000,10.000,0.000,0.000:
0001
0100
0001
0100
0001
0100
0001
0100
0001
0100
0001
0100
0001
0100
0001
0100
,
0010
1000
0010
1000
0010
1000
0010
1000
0010
1000
0010
1000
0010
1000
0010
1000
,
0001
1000
0001
1000
0001
1000
0001
1000
0001
1000
0001
1000
0001
1000
0001
0000
,
0101
0101
1001
1001
1100
1100
1001
1001
,
0010
0100
0010
0100
0010
0100
0010
0100
0010
0100
0010
0100
0010
0100
0010
0100
,
0001
0010
0001
0010
0001
0010
0001
0010
0001
0010
0001
0010
0001
0010
0001
0010
,
0100
1000
0100
1000
0100
1000
0100
1000
0100
1000
0100
1000
0100
1000
0100
0000
,
1001
1001
0101
0101
0110
0110
1010
1010
,
0001
0010
0100
1000
0001
0010
0100
1000
0001
0010
0100
1000
0001
0010
0100
1000
,
0001
1000
0010
0100
0001
1000
0010
0100
0001
1000
0010
0100
0001
1000
0010
0100
,
0001
0000
1000
0000
1000
0000
0001
1000
0000
0100
0000
0000
0010
0000
0001
0000
,
0200
0000
0000
0000
0000
0000
0000
0000
0000
0000
0300
0000
0000
0000
0000
0001
,
1000
0000
0001
1000
0000
0010
0000
0000
0100
0000
0000
0001
0000
0000
1000
0000
,
0100
0000
0010
0200
0000
0000
0000
0000
0000
0000
0000
0000
0300
0000
0000
0000
,
0000
0000
1000
0000
0010
0000
1000
0100
0000
0010
0000
0000
0001
0000
0100
0000
,
0020
0000
0000
0000
0000
0000
0000
0000
0000
0000
0030
0000
0000
0000
0000
1000
,
0001
0000
1000
0001
0000
1000
0000
0100
0000
0000
0000
0000
1000
0000
0001
0000
,
0010
0000
0001
0100
0000
0010
0000
0200
0000
0000
0000
0000
0000
0000
0300
0000
,
0000
0000
0000
0000
0010
0000
1000
0001
0000
0100
0000
0001
0000
0000
0001
0000
,
1000
0000
1000
0001
0000
0000
0001
0200
0000
0000
0000
0000
0000
0000
0300
0000
,
0000
0000
0000
0000
1000
0000
0001
0010
0000
0100
0000
0001
0000
0000
1000
0000
,
0001
0000
0100
0010
0000
0000
1000
0001
0000
0000
0000
0000
0000
1000
0001
0000
,
0001
0100
0001
0100
0001
0100
0001
0100
0001
0100
0001
0100
0001
0100
0001
0100
,
0010
1000
0010
1000
0010
1000
0010
1000
0010
1000
0010
1000
0010
1000
0010
1000
,
0001
1000
0001
1000
0001
1000
0001
1000
0001
1000
0001
1000
0001
1000
0001
0000
,
0101
0101
1001
1001
1100
1100
1001
1001
,
0010
0100
0010
0100
0010
0100
0010
0100
0010
0100
0010
0100
0010
0100
0010
0100
,
0001
0010
0001
0010
0001
0010
0001
0010
0001
0010
0001
0010
0001
0010
0001
0010
,
0100
1000
0100
1000
0100
1000
0100
1000
0100
1000
0100
1000
0100
1000
0100
0000
,
1001
1001
0101
0101
0110
0110
1010
1010
,
0001
0000
1000
0000
0001
1000
0001
1000
,
0001
0100
0001
0100
0001
0100
0001
0100
0001
0100
0001
0100
0001
0100
0001
0100
,
0010
1000
0010
1000
0010
1000
0010
1000
0010
1000
0010
1000
0010
1000
0010
1000
,
0001
1000
0001
1000
0001
1000
0001
1000
0001
1000
0001
1000
0001
1000
0001
0000
,
0101
0101
1001
1001
1100
1100
1001
1001
,
0010
0100
0010
0100
0010
0100
0010
0100
0010
0100
0010
0100
0010
0100
0010
0100
,
0001
0010
0001
0010
0001
0010
0001
0010
0001
0010
0001
0010
0001
0010
0001
0010
,
0100
1000
0100
1000
0100
1000
0100
1000
0100
1000
0100
1000
0100
1000
0100
0000
,
2000
0000
0000
0000
3002
0000
0000
0000
0203
0000
0000
0020
0300
0000
0200
0000
,
0000
0000
0000
0000
,
0000
0000
0000
0330
0000
0000
0000
0000
;

//---------------dance-single - Copied from----------------
#NOTES:
     dance-single:
     Copied from:
     Challenge:
     14:
     1.000,1.000,1.000,0.095,1.000,575.000,375.000,9.000,0.000,0.000:
0101
0101
0101
0101
0101
0101
0101
0101
0101
0101
0101
0101
0101
0101
0101
0101
,
1010
1010
1010
1010
1010
1010
1010
1010
1010
1010
1010
1010
1010
1010
1010
1001
,
1001
1001
1001
1001
1001
1001
1001
1001
1001
1001
1001
1001
1001
1001
1001
0000
,
0101
1001
0101
0000
1001
0110
1001
0000
1100
0011
1100
0000
1001
0110
1001
0000
,
0110
0110
0110
0110
0110
0110
0110
0110
0110
0110
0110
0110
0110
0110
0110
0110
,
0011
0011
0011
0011
0011
0011
0011
0011
0011
0011
0011
0011
0011
0011
0011
0110
,
0101
1010
1100
1010
0101
1010
0101
1010
1100
1010
0110
1001
0110
1001
1100
0000
,
1001
0110
1001
0000
0101
1010
0101
0000
0110
1001
0110
0000
1010
0011
1010
0000
,
0101
0011
0110
1100
1001
0110
0101
1010
1001
0110
0101
1010
0101
0011
0110
1010
,
0101
1001
1010
1100
0011
1100
1010
0101
0011
1100
0011
1100
0101
1010
0110
1100
,
0101
0000
0000
0000
1000
0100
0010
0000
1000
0100
0010
0000
0001
0100
1000
0010
0000
0000
0100
0010
1000
0001
0000
0000
0010
1000
0001
0000
0001
0100
0001
0000
,
0100
0000
0100
0000
0100
0000
0100
0000
0100
0000
0100
0000
0100
0000
0100
0000
0100
0000
0100
0000
0100
0000
0100
0000
0100
0000
0100
0000
0100
0000
0001
0010
,
1000
0000
0000
0000
0001
0100
1000
0000
0000
0000
0010
1000
0001
0100
0000
0000
0100
0010
1000
0100
0000
0000
0001
1000
0010
0000
0000
0000
1000
0010
0100
0000
,
0100
1000
0001
0000
0010
1000
0100
0000
0100
0000
0100
0000
0100
0000
0100
0000
0100
0000
0100
0000
0100
0000
0100
0000
0100
0000
0100
0000
0100
0000
0100
0000
,
0100
0000
0000
0000
1000
0100
0001
0000
0010
1000
0001
0000
1000
0001
0100
0010
0000
0000
0010
1000
0010
0100
0000
0000
0001
0010
1000
0000
0100
0010
0001
0000
,
0010
0000
0010
0000
0010
0000
0010
0000
0010
0000
0010
0000
0010
0000
0010
0000
0010
0000
0010
0000
0010
0000
0010
0000
0010
0000
0010
0000
0010
0000
1000
0100
,
0001
0000
0000
0000
1000
0010
0001
1000
0000
0000
1000
0100
0001
0000
0100
1000
0001
0000
0000
0000
0000
0000
0000
0000
1000
0000
0000
0000
0001
0000
0000
0000
,
0010
0000
0000
0000
0001
0000
0100
0000
0000
0000
0010
0000
0000
0000
1000
0010
1000
0010
1000
0010
1000
0010
1000
0010
1000
0010
1000
0010
1000
0010
0000
0000
,
0000
0000
0000
0000
0010
0000
1000
0001
0000
0100
0000
0001
0000
0000
0001
0000
,
1000
0000
1000
0001
0000
0000
0001
0200
0000
0000
0000
0000
0000
0000
0300
0000
,
0000
0000
0000
0000
1000
0000
0001
0010
0000
0100
0000
0001
0000
0000
1000
0000
,
0001
0000
0100
0010
0000
0000
1000
0001
0000
0000
0000
0000
0000
1000
0001
0000
,
0101
0101
0101
0101
0101
0101
0101
0101
0101
0101
0101
0101
0101
0101
0101
0101
,
1010
1010
1010
1010
1010
1010
1010
1010
1010
1010
1010
1010
1010
1010
1010
1001
,
1001
1001
1001
1001
1001
1001
1001
1001
1001
1001
1001
1001
1001
1001
1001
0000
,
0101
1001
0101
0000
1001
0110
1001
0000
1100
0011
1100
0000
1001
0110
1001
0000
,
0110
0110
0110
0110
0110
0110
0110
0110
0110
0110
0110
0110
0110
0110
0110
0110
,
0011
0011
0011
0011
0011
0011
0011
0011
0011
0011
0011
0011
0011
0011
0011
0011
,
1100
1100
1100
1100
1100
1100
1100
1100
1100
1100
1100
1100
1100
1100
1100
0000
,
1001
0110
1001
0000
0101
1010
0101
0000
0110
1001
0110
0000
1010
0101
1010
0000
,
0001
0000
0000
0000
0010
0000
0000
0000
0100
0000
0000
0000
1000
0000
0000
0000
0001
0000
0000
0000
0010
0000
0000
0000
0100
0000
0000
0000
1000
0000
0000
0000
0001
0000
0010
0000
0100
0000
1000
0000
0001
0000
0010
0000
0100
0000
1000
0000
0001
0000
0010
0000
0100
0000
1000
0000
0000
0010
0000
1000
0000
0010
0000
1000
,
0101
0101
0101
0101
0101
0101
0101
0101
0101
0101
0101
0101
0101
0101
0101
0101
,
1010
1010
1010
1010
1010
1010
1010
1010
1010
1010
1010
1010
1010
1010
1010
1010
,
1001
1001
1001
1001
1001
1001
1001
1001
1001
1001
1001
1001
1001
1001
1001
0000
,
0101
1001
0101
0000
1001
0110
1001
0000
1100
0011
1100
0000
1001
0110
1001
0000
,
0110
0110
0110
0110
0110
0110
0110
0110
0110
0110
0110
0110
0110
0110
0110
0110
,
0011
0011
0011
0011
0011
0011
0011
0011
0011
0011
0011
0011
0011
0011
0011
0011
,
1100
1100
1100
1100
1100
1100
1100
1100
1100
1100
1100
1100
1100
1100
1100
0000
,
2000
0200
0000
0300
3002
0020
0000
0030
0203
2000
3000
0020
0300
0000
0200
0000
,
0000
0000
0000
0000
,
0000
0000
0000
0330
0000
0000
0000
0000
;
