#TITLE:Zelda 2 Temple;
#SUBTITLE:Trace Mix;
#ARTIST:Nintendo;
#TITLETRANSLIT:;
#SUBTITLETRANSLIT:;
#ARTISTTRANSLIT:;
#CREDIT:;
#BANNER:bag.png;
#BACKGROUND:bag-bg.png;
#LYRICSPATH:;
#CDTITLE:Dance Dance Revolution Extreme.png;
#MUSIC:Zelda_2_Temple_Trance_OC_ReMix.mp3;
#OFFSET:-3.747;
#SAMPLESTART:121.840;
#SAMPLELENGTH:12.000;
#SELECTABLE:YES;
#BPMS:0.000=130.000,252.000=260.000,260.000=130.000;
#STOPS:;
#BGCHANGES:;
// cache tags:
#FIRSTBEAT:0.000;
#LASTBEAT:292.000;
#SONGFILENAME:Songs/zelda et megaman/Z2T TM/Zelda_2_Temple_Trance_OC_ReMix.sm;
#HASMUSIC:1;
#HASBANNER:0;
#MUSICLENGTH:140.468;
// end cache tags

//---------------dance-single - ----------------
#NOTES:
     dance-single:
     :
     Hard:
     9:
     0.522,0.857,0.078,0.150,0.545,481.000,11.000,21.000,0.000,0.000:
0000
0000
0000
0000
,
0000
0000
0000
0000
,
0010
0010
0010
0010
,
0100
0100
0100
0100
,
1000
1000
1000
1000
,
0001
0001
0001
0001
,
2000
3100
0020
0130
,
0002
0013
0020
0130
,
1000
1100
0001
0101
,
0010
1001
0100
1100
,
0002
0013
0020
0130
,
0002
1003
0200
0301
,
0020
1030
0002
0103
,
0020
1030
0100
0010
,
1000
0100
0010
0000
0001
0000
0101
0000
,
0010
1000
0010
0000
1000
0000
1100
0000
,
0010
0100
0101
0000
0010
0000
1010
0000
,
0001
1000
0100
1000
,
1000
0100
0010
0001
0010
0100
0001
0100
,
0010
1000
0001
0100
0010
0100
0001
0100
,
0010
1000
0010
1000
0010
1000
0010
1000
0010
1000
0010
1000
0010
1000
0010
1000
,
0010
1000
0010
1000
0010
1000
0010
1000
0010
1000
0010
1000
0010
1000
0010
1000
,
0010
0000
0000
0000
,
0010
0000
0000
1000
0000
0000
0001
0000
0100
0000
0000
0010
0000
0000
1000
0000
,
0001
0000
0000
0100
0000
0000
0010
0000
1000
0000
0001
0010
0000
0100
1000
0000
,
0010
0000
0000
0100
0000
0000
0010
0000
1000
0000
0000
0001
0000
0000
0100
0000
,
0010
0000
0000
1000
0000
0000
0001
0000
0100
0000
1000
0100
0000
0100
1000
0000
,
0010
0000
0000
0100
0000
0000
0001
0000
0100
0000
0000
0010
0000
0000
1000
0000
,
0001
0000
0000
0100
0000
0000
0010
0000
0100
0000
0001
0100
0000
0100
0001
0000
,
0010
0000
0000
1000
0000
0000
0001
0000
0100
0000
0000
0010
0000
0000
0100
0000
,
0001
0000
0000
0100
0000
0010
0000
0000
0100
0000
0010
1000
0000
0001
0100
0000
,
0010
1000
0010
1000
0000
0010
1000
0010
0000
0000
0000
0000
0000
0000
0000
0000
,
0100
1000
0010
1000
0000
0010
0100
0001
0000
0000
0000
0000
0000
0000
0000
0000
,
0010
0100
1000
0100
0000
0010
0100
0001
0000
0000
0010
0000
0000
0000
0000
0000
,
1000
0010
1000
0100
0000
0010
0001
0010
0000
0000
0001
0000
0000
0000
0000
0000
,
1000
0000
0000
1000
0000
0000
1000
0000
0100
0000
0000
0100
0000
0000
0100
0000
,
0010
0000
0000
0010
0000
0000
0010
0000
0010
0000
0010
0100
0000
0100
0010
0000
,
0001
0000
0000
0001
0000
0000
0001
0000
0100
0000
0000
0010
0000
0000
1000
0000
,
0001
0000
0000
0100
0000
0010
0000
0000
1000
0000
1000
0100
0000
0100
1000
0000
,
0010
0000
0000
0100
0000
0000
0010
0000
0100
0000
0000
0001
0000
0000
1000
0000
,
0100
0000
0000
0010
0000
0001
0000
0000
0010
0000
0010
1000
0000
1000
0001
0000
,
0010
0000
0000
0100
0000
0000
0001
0000
1000
0000
0000
0010
0000
0100
0000
0000
,
0001
0000
0000
0100
0000
0000
0000
0000
0100
0000
0100
1000
0000
1000
0100
0000
,
0010
0001
0010
0001
0000
0100
0001
0000
0010
1000
0010
1000
0000
0010
0100
0000
,
0100
1000
0100
1000
0000
0001
1000
0000
0100
0010
0100
0010
0000
0100
0001
0000
,
0001
1000
0100
1000
0000
0001
1000
0000
0100
0010
0100
0010
0000
0100
0001
0000
,
0010
1000
0000
0001
0000
0100
0000
0000
0010
0100
0000
0001
0000
0100
0010
0000
,
0100
0000
0000
0000
,
0120
0000
1000
0000
0100
0030
0101
0000
,
0020
2030
3002
0103
,
0020
1000
0100
0031
,
0002
0100
1000
0010
,
2003
0100
0010
0001
,
3002
0100
0010
1000
,
0203
1000
0010
0001
,
0320
0100
1000
0100
,
0001
0100
1000
0130
,
1000
0100
0010
0001
0010
0100
0001
0100
,
0010
0010
1000
1000
0001
0100
0010
0100
,
0001
0100
1000
0100
1000
0010
1000
0010
,
1000
0001
0100
0010
0100
0001
0100
0010
,
0100
0001
1000
0010
0100
0001
0100
0010
,
1000
0001
1000
0001
1000
0001
1000
0001
,
1000
0001
1000
0001
1000
0001
1000
0001
,
1000
0001
1000
0001
1000
0001
1000
0001
,
1000
0000
0010
0000
1000
0001
0100
0010
0100
0001
0100
0000
,
0010
0000
0010
0000
1000
0100
0010
0001
0100
0010
0100
0001
,
0100
0000
0100
0000
0010
1000
0001
0100
0010
0100
0001
0100
,
0010
0000
0010
0000
1000
0100
1000
0010
0001
0010
0100
0001
,
0100
0000
0010
0000
0010
1000
0001
0100
0010
0100
0001
0100
,
0010
0000
0010
0000
1000
0100
0010
0001
0010
0100
0001
0100
,
0010
0000
0010
0000
0100
0001
0100
0010
1000
0001
0100
0010
,
1000
0000
1000
0000
0000
0000
1000
0100
0010
0001
0010
0100
,
1001
0000
0000
0000
;

//---------------dance-single - ----------------
#NOTES:
     dance-single:
     :
     Medium:
     6:
     0.380,0.416,0.135,0.242,0.064,321.000,19.000,34.000,0.000,0.000:
0010
0001
0010
0001
,
0010
0001
0010
0001
,
2000
0000
3002
0000
,
0200
0003
0000
0000
0320
0000
0000
0000
,
0032
0000
0000
0000
2000
0003
0000
0000
,
3200
0000
0000
0300
0020
0000
0000
0000
,
0230
0010
0001
0010
,
2300
0100
0100
0100
,
3002
0000
0100
0000
0100
0000
0100
0003
,
0002
0100
0010
0103
,
0020
0000
1000
0000
1000
0000
1000
0030
,
0020
0000
0001
0000
0001
0000
0001
0030
,
0200
1000
1000
1000
,
0001
0001
0001
0001
,
0320
0000
1000
0000
1000
0000
1000
0030
,
0002
0100
0100
0100
,
0023
0000
1000
0000
,
0001
0000
0100
0000
1000
0030
0100
1000
,
0020
0000
2030
0000
,
3002
0000
0000
0000
0203
0000
0000
0300
,
1000
0100
0010
0001
,
1000
1000
0100
0100
0010
0001
0010
0100
,
1001
0000
0000
0000
,
0010
0000
1010
0000
0001
0100
0010
0000
,
0010
0000
1010
0000
0001
0100
0010
0100
,
0001
0000
0101
0000
0010
1000
0001
0000
,
0100
0000
1100
0000
0010
1000
0001
0100
,
1000
0000
1100
0000
0010
0001
0010
0000
,
1000
0000
1001
0000
0010
1000
0001
0100
,
0010
0000
0101
0000
0010
1000
0001
0000
,
1000
1100
0010
0100
,
1000
0100
0010
0001
0010
0000
0000
0000
,
0001
0100
0010
1000
0020
0000
0000
0030
,
1000
0100
0010
0001
0020
0000
0000
0030
,
1000
0100
0010
0001
0020
0000
0100
0000
,
0130
0001
0100
0010
1001
0000
0000
0010
,
0001
0000
0000
1000
0100
1000
0100
0010
,
0100
0000
0000
0001
0100
0000
0010
0000
,
1000
0100
1000
0000
0100
0010
0100
0001
,
0002
0000
0103
0000
0010
1000
0010
0000
,
1000
1000
0100
0100
0010
0001
0010
0001
,
0001
0010
0010
0001
0100
0010
0100
0000
,
1000
1100
0010
0101
,
0010
0000
0000
0010
0000
0000
0010
0000
1000
0000
0000
1000
0000
0000
1000
0000
,
0001
0000
0000
0001
0000
0000
0001
0000
0100
0000
0000
0100
0000
0000
0100
0000
,
0010
0000
0000
0010
0000
0000
0010
0000
1000
0000
0000
0001
0000
0000
0100
0000
,
0010
0000
0000
1000
0000
0000
0000
0000
0100
0000
0000
0000
0000
0000
0000
0000
,
1000
0000
0000
0000
,
1020
0100
0001
0130
,
1020
0100
0001
0130
,
0210
0000
1000
0000
0001
0000
0010
0300
,
2100
0000
0010
0000
0100
0000
0010
3000
,
0102
0000
0010
0000
0100
0000
0010
0003
,
0120
0000
1000
0000
0001
0000
1000
0030
,
0210
1000
0001
1000
,
0302
0000
0010
0000
0100
0000
1000
0003
,
1000
0100
0010
0001
,
0001
0010
0100
1000
,
1000
0100
0010
0001
,
0001
0010
0100
1000
,
0001
1000
0001
1000
,
0001
1000
0001
1000
,
0001
1000
0001
1000
0001
1000
0001
1000
,
0001
1000
0001
1000
,
0001
1000
0001
1000
,
0010
1000
1000
1000
,
0100
0000
0100
0000
0000
0000
0010
0000
0000
1000
0000
0000
,
1000
0000
1000
0000
0000
0000
0001
0000
0000
0100
0000
0000
,
0010
0000
0010
0000
0000
0000
1000
0000
0000
0100
0000
0000
,
0010
0000
0010
0000
0000
0000
1000
0000
0000
0100
0000
0000
,
0010
0000
0010
0000
0000
0000
0001
0000
0000
0100
0000
0000
,
1000
0000
1000
0000
0000
0000
1000
0000
0000
0100
0000
0000
,
0010
0000
0010
0000
0000
0000
0001
1000
0010
0100
0001
0100
,
0010
0000
0000
0000
;

//---------------dance-single - ----------------
#NOTES:
     dance-single:
     :
     Easy:
     3:
     0.259,0.286,0.164,0.000,0.000,232.000,23.000,0.000,0.000,0.000:
1000
0010
0010
0100
,
0010
0100
0010
0010
,
0000
0000
0000
0000
,
0000
0000
0000
0000
,
0000
0000
0000
0000
,
0000
0000
0000
0000
,
0000
1000
0010
1000
,
0000
1000
0001
0100
,
0000
0100
0001
0100
,
0000
0001
0010
0010
,
0000
1000
0100
1000
,
0000
0010
0010
0001
,
0000
0001
1000
0010
,
0100
0001
1000
0100
,
0000
0010
0100
1000
,
0000
0100
0100
0001
,
0000
0000
0100
0000
,
0010
1000
0100
0100
,
1001
0000
0110
0000
,
1001
0000
0110
0000
,
0100
1000
0010
1000
,
0001
0100
0001
0100
,
0101
0000
0000
0000
,
0010
0101
0010
1000
,
0100
0011
1000
0010
,
0010
0110
1000
0001
,
0001
1010
1000
0010
,
0010
1010
1000
1000
,
0100
1001
0010
0100
,
0010
0110
1000
0010
,
0010
1100
0100
1000
,
1000
0100
0100
0000
,
1000
1000
0000
0000
,
0010
1000
0000
0000
,
0010
0100
0000
0001
,
0100
0010
0110
0000
,
0001
0000
0010
1000
,
0100
0000
1000
0010
,
0010
0001
1000
0100
,
0000
0001
0010
0010
,
0010
0001
0001
0001
,
0100
1000
0010
0100
,
1000
0011
0100
1010
,
0100
0000
0100
0000
,
0100
0000
0100
0000
,
0010
0000
0100
0000
,
0010
0000
0001
0000
,
0010
0000
0000
0000
,
1000
1000
0001
0100
,
1000
0001
0001
1000
,
0001
1000
0001
0100
,
1000
1000
0010
1000
,
0100
0010
0100
1000
,
0010
1000
0010
0010
,
0010
0100
0010
0100
,
0000
0010
0010
0100
,
0001
0010
1000
0010
,
1000
0001
1000
0100
,
0100
0001
0010
0010
,
0100
1000
0100
1000
,
0100
0100
0100
0100
,
1000
0100
0010
1000
,
0100
0010
0001
1000
,
0001
0000
0010
0000
,
0010
0000
0010
0000
,
0010
0010
0100
1000
,
0010
0110
0010
1000
,
1000
1100
1000
1000
,
0001
0001
0010
0100
,
0100
1001
0010
0001
,
1000
0110
0001
0100
,
0010
0011
0001
0001
,
0010
0101
0001
0100
,
0110
0000
0000
0000
;
