#TITLE:Swamp-Stamp-Polka;
#SUBTITLE:Woodland Prattlers (2004);
#ARTIST:Mechanical Poet;
#TITLETRANSLIT:;
#SUBTITLETRANSLIT:;
#ARTISTTRANSLIT:;
#CREDIT:SulferDragon;
#BANNER:swampstamppolka-banner.png;
#BACKGROUND:swampstamppolka-bg.png;
#LYRICSPATH:;
#CDTITLE:!Sulfer.png;
#MUSIC:10 - Swamp-stamp-polka.mp3;
#OFFSET:-0.410;
#SAMPLESTART:37.730;
#SAMPLELENGTH:12.540;
#SELECTABLE:YES;
#BPMS:0.000=77.010,32.000=154.000;
#STOPS:;
#BGCHANGES:;
// cache tags:
#FIRSTBEAT:0.000;
#LASTBEAT:416.000;
#SONGFILENAME:Songs/Astronomic Metal Collection 2/(SulferDragon) Swamp-Stamp-Polka/10 - Swamp-stamp-polka.sm;
#HASMUSIC:1;
#HASBANNER:1;
#MUSICLENGTH:176.718;
// end cache tags

//---------------dance-single - ----------------
#NOTES:
     dance-single:
     :
     Hard:
     11:
     1.000,1.000,1.000,0.311,0.908,1061.000,384.000,55.000,0.000,0.000:
0020
0000
0000
0000
0000
0000
0000
0000
0000
0000
0000
0000
0000
0000
0000
0000
0000
0000
0000
0000
0000
0000
0000
0000
0000
0000
0000
0000
0000
0000
0000
0000
0000
0000
0000
0000
0000
0000
0000
0000
0000
0000
0000
0000
0000
0000
0000
0000
0000
0000
0000
0000
0000
0000
0000
0000
0000
0000
0000
0000
0000
0000
0000
0000
0000
0000
0030
0000
0000
0000
0000
0000
1000
0000
0000
0000
0000
0000
0000
0000
0000
0000
0000
0000
1000
0000
0000
0000
0000
0000
0000
0000
0000
0000
0000
0000
2000
0000
0000
0000
0000
0000
0000
0000
0000
0000
0000
0000
0000
0000
0000
3000
0000
0000
0000
0000
0000
0000
0000
0000
0100
0000
0000
0000
0000
0000
0000
0000
0010
0000
0000
0000
0000
0000
0000
0000
0001
0000
0000
0000
0000
0000
0000
0000
0010
0000
0000
0000
0000
0000
0000
0000
0000
0000
0000
0000
0100
0000
0000
0000
0000
0000
0000
0000
0000
0000
0000
0000
1000
0000
0000
0000
0000
0000
0000
0000
0000
0000
0000
0000
0100
0000
0000
0000
0000
0000
0000
0000
0000
0000
0000
0000
,
0020
0000
0000
0000
0000
0000
0000
0000
0000
0000
0000
0000
0000
0000
0000
0000
0000
0000
0000
0000
0000
0000
0000
0000
0000
0000
0000
0000
0000
0000
0000
0000
0000
0000
0000
0000
0000
0000
0000
0000
0000
0000
0000
0000
0000
0000
0000
0000
0000
0000
0000
0000
0000
0000
0000
0000
0000
0000
0000
0000
0000
0000
0000
0000
0000
0000
0000
0000
0000
0000
0000
0000
0000
0000
0000
0000
0000
0000
0000
0000
0000
0000
0000
0000
0000
0000
0000
0000
0000
0000
0030
0000
0000
0000
0000
0000
0002
0000
0000
0000
0000
0000
0000
0000
0000
0000
0000
0000
0000
0000
0000
0003
0000
0000
1000
0000
0000
0000
0100
0000
0000
0000
0000
0010
0000
0000
0000
0000
0001
0000
0000
0000
0000
0000
0000
0000
0010
0000
0000
0000
0000
0000
0000
0000
0100
0000
0000
0000
0000
0000
0000
0000
1000
0000
0000
0000
0000
0000
0000
0000
0001
0000
0000
0000
0000
0000
0000
0000
0100
0000
0000
0000
0000
0000
0000
0000
0010
0000
0000
0000
0000
0000
0000
0000
0100
0000
0000
0000
0000
0000
0000
0000
,
1001
0000
0000
0000
0000
0000
0000
0000
0000
0000
0000
0000
0000
0000
0000
0000
0000
0010
0101
0000
0000
0101
0000
0000
0101
0000
0000
0000
0000
0000
0100
0000
0010
0000
0001
0000
0010
0000
0000
0100
0000
0000
1000
0000
0000
0100
0000
0000
,
0020
0000
0000
0000
0000
0000
0000
0000
0000
0000
0000
0000
0000
0000
0000
0000
0000
0000
0000
0000
0000
0000
0000
0000
0000
0000
0000
0000
0000
0000
0000
0000
0000
0000
0000
0000
0000
0000
0000
0000
0000
0000
0000
0000
0000
0000
0000
0000
0000
0000
0000
0000
0000
0000
0000
0000
0000
0000
0000
0000
0000
0000
0000
0000
0000
0000
0000
0000
0000
0000
0000
0000
0100
0000
0000
0000
0000
0000
0001
0000
0000
0000
0000
0000
1000
0000
0000
0000
0000
0000
0030
0000
0100
0000
0000
0000
0000
0000
0000
0000
0002
0000
0000
0000
0000
0000
0000
0000
0000
0000
0000
0000
0000
0000
0000
0000
0000
0000
0000
0000
0000
0000
0000
0000
0000
0000
0000
0000
0010
0000
0000
0000
0000
0000
0000
0000
0100
0000
0000
0000
0000
0000
0000
0000
1000
0000
0000
0000
0000
0000
0000
0000
0010
0000
0000
0000
0000
0000
0000
0000
0100
0000
0000
0000
0000
0000
0000
0000
1000
0000
0000
0000
0000
0000
0000
0000
0100
0000
0000
0000
0000
0000
0000
0000
0010
0000
0003
0000
0000
0000
0000
0000
,
0101
0000
0000
0000
0000
0000
0000
0000
0000
0000
0000
0010
0101
0000
0000
0000
0000
0000
0000
0000
0000
0000
0000
0000
0101
0000
0000
0000
1000
0000
0000
0000
0120
0000
0000
0000
0000
0000
0000
0000
0000
0000
0000
0000
0000
0000
0000
0000
0000
0000
0000
0000
0000
0000
0030
0000
0200
0000
0000
0000
2300
0000
0000
0000
,
3020
0000
0000
0000
0000
0000
0000
0000
0000
0000
0000
0000
0000
0000
0000
0000
0000
0000
0000
0000
0000
0000
0000
0000
0000
0000
0000
0000
0000
0000
0000
0000
0000
0000
0000
0000
2030
0000
0000
0000
0000
0000
0000
0000
0000
0000
0000
0000
0000
0000
0000
0000
0000
0000
0000
0000
0000
0000
0000
0000
0000
0000
0000
0000
0000
0000
0000
0000
0000
0000
0000
0000
3200
0000
0000
0000
0000
0000
0000
0000
0000
0000
0000
0000
0000
0000
0000
0000
0000
0000
0000
0000
0000
0000
0000
0000
0302
0000
0000
0000
0000
0000
0000
0000
0000
0000
0000
0000
0000
0000
0000
0000
0000
0000
0000
0000
0000
0000
0000
0000
0010
0000
0000
0000
0000
0000
0000
0000
0100
0000
0000
0000
0000
0000
0000
0000
1000
0000
0000
0000
0000
0000
0000
0000
0100
0000
0000
0000
0000
0000
0000
0000
0010
0000
0000
0000
0000
0000
0000
0000
0100
0000
0000
0000
0000
0000
0000
0000
1000
0000
0000
0000
0000
0000
0000
0000
0010
0000
0000
0000
0003
0000
0000
0000
0100
0000
0000
0000
1000
0010
0000
0000
,
0101
0000
0000
0000
0000
0000
0000
0000
0000
0000
0000
0000
0000
0000
0000
0000
0000
0000
0000
0000
0000
0000
0000
0000
0000
0000
0000
0000
0000
0000
0000
0000
0000
0000
0000
0000
1000
0000
0000
0000
0000
0000
0000
0000
0000
0000
0000
0000
0000
0000
0000
0000
0000
0000
0000
0000
0000
0000
0000
0000
0000
0000
0000
0000
0000
0000
0000
0000
0000
0000
0000
0000
0110
0000
0000
0000
0000
0000
0000
0000
0000
0000
0000
0000
1000
0000
0000
0000
0000
0000
0000
0000
0000
0000
0000
0000
0101
0000
0000
0000
0000
0000
0000
0000
0000
0000
0000
0000
0000
0000
0000
0000
0000
0000
0000
0000
0000
0000
0000
0000
0000
0000
0000
0000
0000
0000
0000
0000
0000
0000
0000
0000
0000
0000
0000
0000
0100
0000
0000
0000
0010
0000
0000
0000
0002
0000
0000
0000
0000
0000
0000
0000
0000
0000
0000
0000
0000
0000
0000
0000
0000
0000
0000
0000
0000
0000
0000
0000
0000
0000
0000
0000
0000
0000
0000
0000
0003
0000
0000
0000
1000
0000
0000
0000
0000
0000
0001
0000
0000
0000
0000
0000
,
0200
0000
0000
0000
0000
0000
0000
0000
0000
0000
0000
0000
0000
0000
0000
0000
0000
0000
0000
0000
0000
0000
0000
0000
0000
0000
0000
0000
0000
0000
0000
0000
0000
0000
0000
0000
0320
0000
0000
0000
0000
0000
0000
0000
0000
0000
0000
0000
0000
0000
0000
0000
0000
0000
0000
0000
0000
0000
0000
0000
0000
0000
0000
0000
0000
0000
0000
0000
0000
0000
0000
0000
0230
0000
0000
0000
0000
0000
0000
0000
0000
0000
0000
0000
0000
0000
0000
0000
0000
0000
0000
0000
0000
0000
0000
0000
2300
0000
0000
0000
0000
0000
0000
0000
0000
0000
0000
0000
0000
0000
0000
0000
0000
0000
0000
0000
0000
0000
0000
0000
0001
0000
0000
0000
0000
0000
0000
0000
0010
0000
0000
0000
0000
0000
0000
0000
0100
0000
0000
0000
0000
3000
0000
0000
0001
0000
0000
0000
0000
0000
0000
0000
0000
0000
0000
0000
0010
0000
0000
0000
1000
0000
0000
0000
0220
0000
0000
0000
0000
0000
0000
0000
0000
0000
0000
0000
0000
0000
0000
0000
0000
0000
0000
0000
0000
0000
0000
0000
0330
0000
0000
0000
,
0200
0000
0000
0000
0000
0000
0000
0000
0000
0000
0000
0300
0101
0000
0000
0000
0000
0000
0010
0000
0000
0000
0000
0000
0200
0000
0000
0000
0000
0000
0000
0000
0000
0000
0000
0300
0201
0000
0000
0000
0000
0000
0000
0000
0000
0000
0000
0000
,
0320
0000
0000
0000
0000
0000
0000
0000
0000
0000
0000
0030
0011
0000
0000
0000
0000
0000
0100
0000
0000
0000
0000
0000
0010
0000
0000
0000
0000
0000
0001
0000
0000
0000
0000
0000
1100
0000
0000
0000
0000
0000
0002
0000
0000
0000
0000
0000
,
0000
0000
0000
0000
0000
0000
0000
0000
0000
0000
0000
0003
1010
0000
0000
0000
0000
0000
0100
0000
0000
0000
0000
0000
0020
0000
0000
0000
0000
0000
0000
0000
0000
0000
0000
0030
0011
0000
0000
0000
0000
0000
0100
0000
0000
0000
0000
0000
,
0001
0000
0000
0000
0000
0000
0100
0000
0000
0000
0000
0000
1010
0000
0000
0000
0000
0000
0002
0000
0000
0000
0000
0000
0000
0000
0000
0000
0000
0000
0100
0000
0000
1000
0000
0003
0120
0000
0000
1000
0000
0000
0100
0000
0000
1000
0000
0000
,
0230
0000
0000
0000
0000
0000
0000
0000
0000
0000
0000
0300
0101
0000
0000
0000
0000
0000
0010
0000
0000
0000
0000
0000
0200
0000
0000
0000
0000
0000
0000
0000
0000
0000
0000
0300
0201
0000
0000
0000
0000
0000
0000
0000
0000
0000
0000
0000
,
0320
0000
0000
0000
0000
0000
0000
0000
0000
0000
0000
0030
0011
0000
0000
0000
0000
0000
0100
0000
0000
0000
0000
0000
0010
0000
0000
0000
0000
0000
0001
0000
0000
0000
0000
0000
1100
0000
0000
0000
0000
0000
0002
0000
0000
0000
0000
0000
,
0000
0000
0000
0000
0000
0000
0000
0000
0000
0000
0000
0003
1010
0000
0000
0000
0000
0000
0100
0000
0000
0000
0000
0000
0020
0000
0000
0000
0000
0000
0000
0000
0000
0000
0000
0030
0011
0000
0000
0000
0000
0000
0100
0000
0000
0000
0000
0000
,
0001
0000
0000
0000
0000
0000
0100
0000
0000
0000
0000
0000
1010
0000
0000
0000
0000
0000
0002
0000
0000
0000
0100
0000
1000
0000
0000
0100
0000
0000
1003
0000
0000
0100
0000
0000
1000
0000
0000
0100
0000
0000
1000
0000
0000
0100
0000
0000
,
1010
0000
0000
0000
0001
0000
0000
0000
0100
0001
1000
0000
0011
0000
0000
0000
0100
0000
0000
0000
0001
0000
0000
0000
0100
0001
1000
0000
0011
0000
0000
0000
,
0010
0000
0000
0000
0001
0000
0000
0000
0010
1000
0001
0000
0110
0000
0000
0000
0100
0000
0000
0000
0101
0000
0000
0000
0101
0000
0000
0000
0202
0000
0000
0000
,
0303
0101
0101
0202
0303
0101
0101
0202
,
0303
0000
0101
0000
0101
0000
0011
0000
1010
0100
1001
0100
1010
0001
1100
0001
,
1010
0000
0000
0000
0001
0000
0000
0000
0100
0000
1000
0000
0011
0000
0000
0000
0100
0000
0000
0000
0001
0000
0000
0000
0100
0001
1000
0000
0011
0000
0000
0000
,
0010
0000
0000
0000
0001
0000
0000
0000
0010
0000
1000
0001
0110
0000
0000
0000
0100
0000
0000
0000
0101
0000
0000
0000
0100
0001
1000
0010
0101
0000
0000
0000
,
1000
0000
0000
0000
1000
0000
0000
0000
0101
0000
0000
0000
1000
0000
0000
0000
1000
0000
0000
0000
0101
0000
0010
1000
0001
0000
1000
0100
0011
0000
0000
0000
,
0000
0000
0000
0000
1000
0000
0000
0000
1000
0000
0000
0000
0110
0001
0000
0000
1000
0000
0000
0000
1000
0000
0000
0000
1000
0000
0000
0000
1000
0000
0000
0000
,
0110
0000
0010
0000
1010
0000
0010
0000
0110
0000
0010
0000
1010
0000
0010
1000
,
0011
0001
0101
0001
0110
0100
0101
0100
,
0110
0000
0100
0000
0101
0000
0100
0010
1100
0000
1000
0000
1010
0000
1000
0001
,
0110
0000
0100
0000
0101
0000
0100
0000
1010
0000
0010
0000
1010
0000
0010
1000
,
0110
0000
0010
0000
1010
0000
0010
0000
0110
0000
0010
0000
1010
0000
0010
0100
,
0011
0001
0101
0001
0110
0100
0101
0100
,
0110
0001
0100
0000
0101
0010
0100
0000
1100
0001
1000
0000
1010
0000
1001
0000
,
0110
0000
0000
0000
0110
0000
0000
0000
0110
0000
0000
0000
0100
0000
0010
0000
0101
0000
0000
0000
0000
0000
0000
0100
1001
0000
0000
0000
0000
0000
0000
0000
,
1000
0000
0000
0000
0011
0000
0000
0000
1000
0000
0100
0000
0011
0000
0000
0000
1000
0000
0000
0000
0011
0000
0000
0000
1000
0000
0100
1000
0011
0000
0000
0000
,
1000
0000
0000
0000
0101
0000
0000
0000
1000
0000
0010
1000
0101
0000
0000
0000
1000
0000
0000
0000
0101
0000
0000
0000
1000
0000
0010
0000
0101
0000
0000
0000
,
1000
0000
0000
0000
0011
0000
0000
0000
1000
0000
0100
1000
0011
0000
0000
0000
1000
0000
0000
0000
0011
0000
0000
0000
1000
0000
0100
0000
0011
0000
0000
0000
,
0100
0000
0101
0000
1001
0000
0101
0000
1001
0000
0101
0000
1001
0000
0101
0010
,
0001
0000
0000
0000
0011
0000
0000
0000
1000
0000
0100
0000
0011
0000
0000
0000
1000
0000
0000
0000
0011
0000
0000
0000
1000
0000
0100
1000
0011
0000
0000
0000
,
1000
0000
0000
0000
0101
0000
0000
0000
1000
0000
0010
1000
0101
0000
0000
0000
1000
0000
0000
0000
0101
0000
0000
0000
1000
0000
0010
1000
0101
0000
0000
0000
,
1000
0000
0011
0000
1000
0100
0011
0000
1000
0000
0011
0000
1000
0100
0011
0000
,
1010
0101
0110
0101
0110
0101
0110
0101
,
1010
0000
0000
0000
0001
0010
0100
0000
1010
0000
0000
0000
0100
0000
0000
0000
1001
0000
0000
0000
0010
0000
0100
0000
1010
0000
0000
0000
0001
1000
0000
0000
,
0110
0000
0000
0000
0001
1000
0010
0000
0101
0000
0000
0000
0100
0000
0000
0000
0101
0000
1000
0000
0101
0000
1000
0000
0101
0000
1000
0000
0202
0000
0000
0000
,
0303
0000
0101
1000
0101
1000
0202
0000
0303
0000
0101
1000
0101
1000
0202
0000
,
0303
0000
0101
1000
0101
1000
0011
1000
0110
0001
1010
0100
1001
0010
1100
0001
,
1010
0000
0100
0000
0000
0000
0000
0001
1010
0000
0000
0000
0100
0000
0000
0000
1001
0000
0000
0000
0010
1000
0001
0000
1010
0000
0000
0000
0001
1000
0000
0000
,
0110
0000
0000
0000
0001
0000
1000
0000
0101
0000
0000
0000
0100
0010
0000
0000
0101
0000
0000
0000
0100
0000
0010
0000
0101
0000
0000
0000
0101
0000
0000
0000
,
0000
0000
0000
0000
0011
0000
0000
0000
0000
0000
0000
0000
0000
0000
0000
0000
0000
0000
0100
0010
1001
0000
0000
0000
0000
0000
0000
0000
0011
0000
0000
0000
,
0000
1000
1000
0110
1000
1000
0010
1000
,
0110
0010
1010
0010
0110
0010
1010
0010
,
0011
0001
0101
0001
0110
0100
0101
0100
,
0011
0011
0000
1000
1100
1000
1010
1000
,
0110
0000
0100
0000
0101
0000
0100
0000
1010
0000
0010
0000
1010
0000
0010
1000
,
0110
0000
0010
0000
1010
0100
0010
0000
0110
1000
0010
0000
1010
0100
0010
0000
,
0011
0000
1000
0000
0001
0000
0000
0000
0101
0000
0000
0000
0001
0000
0000
0000
0110
0000
0001
0000
0100
0000
0000
0000
0101
0000
0000
0000
0100
0010
0001
1000
,
0110
0000
0000
0000
0100
0000
0010
1000
0101
0000
0000
0000
0100
0000
0001
0010
1100
0000
0000
0000
1000
0000
0000
0000
1010
0000
0000
0000
1000
0000
0000
0000
,
0101
0000
0100
0000
1100
0000
0100
0010
0101
0000
0000
0000
0000
0000
0000
0000
,
1000
0100
1000
0010
0100
0010
0001
0010
0100
0001
0010
0100
0010
1000
0010
0100
,
1000
0000
0001
0000
1000
0000
0100
0000
0010
0000
0100
0000
1000
0000
0100
0000
0001
0000
0000
0000
1000
0001
0100
0010
1001
0000
0000
0000
0000
0000
0000
0000
,
1000
0100
1000
0010
0100
0010
0001
0010
0100
0001
0010
0100
0010
1000
0010
0100
,
0010
0000
0000
0000
0001
0000
0000
0000
0010
0000
0000
0000
0001
0000
0000
0000
0010
0000
0000
0000
0001
0000
0000
0000
0010
0000
0000
0000
0001
0000
0000
0000
0010
0000
0000
0000
0000
0000
0000
0000
0000
0000
0000
0000
0000
0000
1000
0100
0011
0000
0000
0000
0000
0000
0000
0000
0100
0000
0000
0000
0010
0000
0000
0000
,
0100
1010
0100
1010
0001
1010
0000
1100
,
0010
0000
1001
0100
0010
0000
0101
0000
1000
0000
0101
0000
0010
0000
0101
0000
,
0010
1001
0000
1010
0000
1010
0010
1001
,
0100
0000
1010
0000
0000
0000
1001
0000
0000
0000
1001
0000
0000
0000
1001
0010
,
0100
0000
0000
0000
1010
0000
0000
0000
0100
0000
0000
0000
1010
0000
0000
0000
0001
0000
0000
0000
1010
0000
0000
0100
0001
0000
0000
0000
1100
0000
0000
0000
,
0010
0000
1001
0100
0010
0000
1001
0000
0010
0000
0101
0000
0010
0000
1001
0000
,
0100
0000
1010
0000
0000
0000
1010
0000
0000
0000
1010
0100
0010
0000
1100
0010
,
0001
1000
0101
1000
0010
0100
1001
0100
0010
1000
0011
1000
0100
0001
1010
0100
,
0011
0000
0011
0000
0011
1000
0001
0000
0101
0000
0101
0000
0101
0000
0000
0000
,
0110
0000
0110
1001
0110
0000
1000
0000
0011
0100
0011
0000
0011
0000
0000
0000
,
0001
0000
0110
1000
0010
0000
1001
0000
0100
0010
0101
0000
1000
0000
0101
0000
,
1000
0000
1010
0100
1000
0000
1010
0100
1001
0000
0011
0100
0011
0000
0000
0000
,
0101
0101
0101
1000
0011
0011
0011
0000
,
0110
0000
0110
1001
0110
0000
1000
0000
0011
0100
0011
0000
0011
0000
0000
0000
,
1000
0100
0011
0100
1000
0010
1100
0001
0010
0100
0011
1000
0100
0010
1100
0001
,
0010
0100
1010
0001
0100
0001
1100
0010
0101
1000
0101
1000
0101
0010
0001
0100
,
1001
0000
0000
0000
0011
0000
0000
0000
1000
0000
0100
0000
0011
0000
0000
0000
1000
0000
0000
0000
0011
0000
0000
0000
1000
0000
0100
1000
0011
0000
0000
0000
,
1000
0000
0000
0000
0101
0000
0000
0000
1000
0000
0010
1000
0101
0000
0000
0000
1000
0000
0000
0000
0101
0000
0000
0000
1000
0000
0010
0000
0101
0000
0000
0000
,
1000
0000
0000
0000
0011
0000
0000
0000
1000
0000
0100
1000
0011
0000
0000
0000
1000
0000
0000
0000
0011
0000
0000
0000
1000
0000
0100
1000
0011
0000
0000
0000
,
0100
0000
0101
0000
1001
0000
0101
0000
1001
0000
0101
0000
1001
0000
0101
0010
,
1000
0000
0000
0000
0011
0000
0000
0000
1000
0000
0100
0000
0011
0000
0000
0000
1000
0000
0000
0000
0011
0000
0000
0000
1000
0000
0100
1000
0011
0000
0000
0000
,
1000
0000
0000
0000
0101
0000
0000
0000
1000
0000
0010
1000
0101
0000
0000
0000
1000
0000
0000
0000
0101
0000
0000
0000
1000
0000
0010
1000
0101
0000
0000
0000
,
1000
0000
0000
0000
0011
0000
0000
0000
1000
0000
0100
1000
0011
0000
0000
0000
1000
0000
0000
0000
0011
0000
0000
0000
1000
0000
0100
0000
0011
0000
0000
0000
,
1010
0101
0110
0101
0110
0101
0110
0101
,
1010
0000
0001
0100
1010
0000
0100
0000
1001
0000
0010
0100
1010
0000
0001
1000
,
0110
0000
0000
0000
0001
0000
1000
0010
0101
0000
0000
0000
0100
0000
0010
0000
0101
0000
1000
0000
0101
0000
1000
0000
0101
0000
1000
0000
0202
0000
0000
0000
,
0303
0000
0101
1000
0101
1000
0202
0000
0303
0000
0101
1000
0101
1000
0202
0000
,
0303
0000
0101
1000
0101
1000
0011
1000
0110
0001
1010
0100
1001
0010
1100
0001
,
1010
0000
0100
0000
0000
0000
0000
0001
1010
0000
0000
0000
0100
0000
0000
0000
1001
0000
0000
0000
0010
0000
0100
0001
1010
0000
0000
0000
0001
0000
1000
0000
,
0110
0000
0001
1000
0101
0000
0100
0010
0101
0000
0100
0010
0101
0000
0101
0000
,
0000
0000
0000
0000
0011
0000
0000
0000
0000
0000
0000
0000
0000
0000
0000
0000
0000
0000
0100
0010
1001
0000
0000
0000
0000
0000
0000
0000
0011
0000
0000
0000
,
0000
0000
0000
0000
1000
0000
0000
0000
1000
0000
0000
0000
0110
0001
0000
0000
0010
0000
0100
0000
1000
0000
0000
0000
0100
0000
0010
0000
0001
0000
0000
0000
,
0110
0010
1010
0010
0110
0010
1010
0010
,
0011
0000
0001
0000
0101
0000
0001
1000
0110
0000
0100
0000
0101
0000
0100
0000
,
0011
0000
0011
0000
0000
0000
1000
0000
1100
0000
1000
0000
1010
0000
1000
0001
,
0110
0100
0101
0100
1010
0010
1010
0010
,
0110
0010
1010
0010
0110
0010
1010
0010
,
0011
0001
0101
0001
0110
0100
0101
0100
,
0110
0000
0001
0000
0100
0000
0000
0000
0101
0000
0010
0000
0100
0000
0000
0000
1100
0000
0001
0000
1000
0000
0000
0000
1010
0000
0000
0000
1000
0001
0010
1000
,
0101
0000
0100
0000
0110
0000
0100
0010
0101
0000
0000
0000
0000
0000
0000
0000
,
1000
0100
1000
0010
0100
0010
0001
0010
0100
0001
0010
0100
0010
1000
0010
0100
,
1000
0000
0001
0000
1000
0000
0100
0000
0010
0000
0100
0000
1000
0000
0100
0000
0001
0000
0000
0000
1000
0001
0100
0010
1001
0000
0000
0000
0000
0000
0000
0000
,
1000
0100
1000
0010
0100
0010
0001
0010
0100
0001
0010
0100
0010
1000
0010
0100
,
0010
0000
0000
0000
0001
0000
0000
0000
0010
0000
0000
0000
0001
0000
0000
0000
0010
0000
0000
0000
0001
0000
0000
0000
0010
0000
0000
0000
0001
0000
0000
0000
0010
0000
0000
0000
0000
0000
0000
0000
0000
0000
0000
0000
0000
0000
0100
0010
2002
0000
0000
0000
0000
0000
0000
0000
3003
0000
0000
0000
0000
0000
0000
0000
;

//---------------dance-single - ----------------
#NOTES:
     dance-single:
     :
     Challenge:
     13:
     1.000,1.000,1.000,0.311,1.000,1107.000,451.000,55.000,55.000,1.000:
0020
0000
0000
0000
0000
0000
0000
0000
0000
0000
0000
0000
0000
0000
0000
0000
0000
0000
0000
0000
0000
0000
0000
0000
0000
0000
0000
0000
0000
0000
0000
0000
0000
0000
0000
0000
0000
0000
0000
0000
0000
0000
0000
0000
0000
0000
0000
0000
0000
0000
0000
0000
0000
0000
0000
0000
0000
0000
0000
0000
0000
0000
0000
0000
0000
0000
0030
0000
0000
0000
0000
0000
1000
0000
0000
0000
0000
0000
0000
0000
0000
0000
0000
0000
1000
0000
0000
0000
0000
0000
0000
0000
0000
0000
0000
0000
2000
0000
0000
0000
0000
0000
0000
0000
0000
0000
0000
0000
0000
0000
0000
3000
0000
0000
0000
0000
0000
0000
0000
0000
0100
0000
0000
0000
0000
0000
0000
0000
0010
0000
0000
0000
0000
0000
0000
0000
0001
0000
0000
0000
0000
0000
0000
0000
0010
0000
0000
0000
0000
0000
0000
0000
0000
0000
0000
0000
0100
0000
0000
0000
0000
0000
0000
0000
0000
0000
0000
0000
1000
0000
0000
0000
0000
0000
0000
0000
0000
0000
0000
0000
0100
0000
0000
0000
0000
0000
0000
0000
0000
0000
0000
0000
,
0020
0000
0000
0000
0000
0000
0000
0000
0000
0000
0000
0000
0000
0000
0000
0000
0000
0000
0000
0000
0000
0000
0000
0000
0000
0000
0000
0000
0000
0000
0000
0000
0000
0000
0000
0000
0000
0000
0000
0000
0000
0000
0000
0000
0000
0000
0000
0000
0000
0000
0000
0000
0000
0000
0000
0000
0000
0000
0000
0000
0000
0000
0000
0000
0000
0000
0000
0000
0000
0000
0000
0000
0000
0000
0000
0000
0000
0000
0000
0000
0000
0000
0000
0000
0000
0000
0000
0000
0000
0000
0030
0000
0000
0000
0000
0000
0002
0000
0000
0000
0000
0000
0000
0000
0000
0000
0000
0000
0000
0000
0000
0003
0000
0000
1000
0000
0000
0000
0100
0000
0000
0000
0000
0010
0000
0000
0000
0000
0001
0000
0000
0000
0000
0000
0000
0000
0010
0000
0000
0000
0000
0000
0000
0000
0100
0000
0000
0000
0000
0000
0000
0000
1000
0000
0000
0000
0000
0000
0000
0000
0001
0000
0000
0000
0000
0000
0000
0000
0100
0000
0000
0000
0000
0000
0000
0000
0010
0000
0000
0000
0000
0000
0000
0000
0100
0000
0000
0000
0000
0000
0000
0000
,
1001
0000
0000
0000
0000
0000
0000
0000
0000
0000
0000
0000
0000
0000
0000
0000
0000
0010
0101
0000
0000
0101
0000
0000
0101
0000
0000
0000
0000
0000
0100
0000
0010
0000
0001
0000
0010
0000
0000
0100
0000
0000
1000
0000
0000
0100
0000
0000
,
0020
0000
0000
0000
0000
0000
0000
0000
0000
0000
0000
0000
0000
0000
0000
0000
0000
0000
0000
0000
0000
0000
0000
0000
0000
0000
0000
0000
0000
0000
0000
0000
0000
0000
0000
0000
0000
0000
0000
0000
0000
0000
0000
0000
0000
0000
0000
0000
0000
0000
0000
0000
0000
0000
0000
0000
0000
0000
0000
0000
0000
0000
0000
0000
0000
0000
0000
0000
0000
0000
0000
0000
0100
0000
0000
0000
0000
0000
0001
0000
0000
0000
0000
0000
1000
0000
0000
0000
0000
0000
0030
0000
0100
0000
0000
0000
0000
0000
0000
0000
0002
0000
0000
0000
0000
0000
0000
0000
0000
0000
0000
0000
0000
0000
0000
0000
0000
0000
0000
0000
0000
0000
0000
0000
0000
0000
0000
0000
0010
0000
0000
0000
0000
0000
0000
0000
0100
0000
0000
0000
0000
0000
0000
0000
1000
0000
0000
0000
0000
0000
0000
0000
0010
0000
0000
0000
0000
0000
0000
0000
0100
0000
0000
0000
0000
0000
0000
0000
1000
0000
0000
0000
0000
0000
0000
0000
0100
0000
0000
0000
0000
0000
0000
0000
0010
0000
0003
0000
0000
0000
0000
0000
,
0101
0000
0000
0000
0000
0000
0000
0000
0000
0000
0000
0010
0101
0000
0000
0000
0000
0000
0000
0000
0000
0000
0000
0000
0101
0000
0000
0000
1000
0000
0000
0000
0120
0000
0000
0000
0000
0000
0000
0000
0000
0000
0000
0000
0000
0000
0000
0000
0000
0000
0000
0000
0000
0000
0030
0000
0200
0000
0000
0000
2300
0000
0000
0000
,
3020
0000
0000
0000
0000
0000
0000
0000
0000
0000
0000
0000
0000
0000
0000
0000
0000
0000
0000
0000
0000
0000
0000
0000
0000
0000
0000
0000
0000
0000
0000
0000
0000
0000
0000
0000
2030
0000
0000
0000
0000
0000
0000
0000
0000
0000
0000
0000
0000
0000
0000
0000
0000
0000
0000
0000
0000
0000
0000
0000
0000
0000
0000
0000
0000
0000
0000
0000
0000
0000
0000
0000
3200
0000
0000
0000
0000
0000
0000
0000
0000
0000
0000
0000
0000
0000
0000
0000
0000
0000
0000
0000
0000
0000
0000
0000
0302
0000
0000
0000
0000
0000
0000
0000
0000
0000
0000
0000
0000
0000
0000
0000
0000
0000
0000
0000
0000
0000
0000
0000
0010
0000
0000
0000
0000
0000
0000
0000
0100
0000
0000
0000
0000
0000
0000
0000
1000
0000
0000
0000
0000
0000
0000
0000
0100
0000
0000
0000
0000
0000
0000
0000
0010
0000
0000
0000
0000
0000
0000
0000
0100
0000
0000
0000
0000
0000
0000
0000
1000
0000
0000
0000
0000
0000
0000
0000
0010
0000
0000
0000
0003
0000
0000
0000
0100
0000
0000
0000
1000
0010
0000
0000
,
0101
0000
0000
0000
0000
0000
0000
0000
0000
0000
0000
0000
0000
0000
0000
0000
0000
0000
0000
0000
0000
0000
0000
0000
0000
0000
0000
0000
0000
0000
0000
0000
0000
0000
0000
0000
1000
0000
0000
0000
0000
0000
0000
0000
0000
0000
0000
0000
0000
0000
0000
0000
0000
0000
0000
0000
0000
0000
0000
0000
0000
0000
0000
0000
0000
0000
0000
0000
0000
0000
0000
0000
0110
0000
0000
0000
0000
0000
0000
0000
0000
0000
0000
0000
1000
0000
0000
0000
0000
0000
0000
0000
0000
0000
0000
0000
0101
0000
0000
0000
0000
0000
0000
0000
0000
0000
0000
0000
0000
0000
0000
0000
0000
0000
0000
0000
0000
0000
0000
0000
0000
0000
0000
0000
0000
0000
0000
0000
0000
0000
0000
0000
0000
0000
0000
0000
0100
0000
0000
0000
0010
0000
0000
0000
0002
0000
0000
0000
0000
0000
0000
0000
0000
0000
0000
0000
0000
0000
0000
0000
0000
0000
0000
0000
0000
0000
0000
0000
0000
0000
0000
0000
0000
0000
0000
0000
0003
0000
0000
0000
1000
0000
0000
0000
0000
0000
0001
0000
0000
0000
0000
0000
,
0200
0000
0000
0000
0000
0000
0000
0000
0000
0000
0000
0000
0000
0000
0000
0000
0000
0000
0000
0000
0000
0000
0000
0000
0000
0000
0000
0000
0000
0000
0000
0000
0000
0000
0000
0000
0320
0000
0000
0000
0000
0000
0000
0000
0000
0000
0000
0000
0000
0000
0000
0000
0000
0000
0000
0000
0000
0000
0000
0000
0000
0000
0000
0000
0000
0000
0000
0000
0000
0000
0000
0000
0230
0000
0000
0000
0000
0000
0000
0000
0000
0000
0000
0000
0000
0000
0000
0000
0000
0000
0000
0000
0000
0000
0000
0000
2300
0000
0000
0000
0000
0000
0000
0000
0000
0000
0000
0000
0000
0000
0000
0000
0000
0000
0000
0000
0000
0000
0000
0000
0001
0000
0000
0000
0000
0000
0000
0000
0010
0000
0000
0000
0000
0000
0000
0000
0100
0000
0000
0000
0000
3000
0000
0000
0001
0000
0000
0000
0100
0000
0000
0000
0001
0000
0000
0000
0100
0000
0000
0000
0001
0000
0000
0000
0220
0000
0000
0000
0001
0000
0000
0000
0000
0000
0000
0000
0000
0000
0000
0000
0000
0000
0000
0000
0000
0000
0000
0000
0330
0000
0000
0000
,
0200
0000
0000
0000
0000
0000
0000
0000
0000
0000
0000
0300
0101
0000
0000
0000
0000
0000
0010
0000
0000
0000
0000
0000
0200
0000
0000
0000
0000
0000
0000
0000
0000
0000
0000
0300
0201
0000
0000
0000
0000
0000
000M
0000
0000
0000
0000
0000
,
0320
0000
0000
0000
0000
0000
0000
0000
0000
0000
0000
0030
0011
0000
0000
0000
0000
0000
0100
0000
0000
0000
0000
0000
0010
0000
0000
0000
0000
0000
0001
0000
0000
0000
0000
0000
1100
0000
0000
0000
0000
0000
0002
0000
0000
0000
0000
0000
,
0M00
0000
0000
0000
0000
0000
0000
0000
0000
0000
0000
0003
1010
0000
0000
0000
0000
0000
0100
0000
0000
0000
0000
0000
0020
0000
0000
0000
0000
0000
0000
0000
0000
0000
0000
0030
0011
0000
0000
0000
0000
0000
0100
0000
0000
0000
0000
0000
,
0001
0000
0000
0000
0000
0000
0100
0000
0000
0000
0000
0000
1010
0000
0000
0000
0000
0000
0002
0000
0000
0000
0000
0000
M000
0000
0000
0000
0000
0000
0100
0000
0000
1000
0000
0003
0120
0000
0000
1000
0000
0000
0100
0000
0000
1000
0000
0000
,
0230
0000
0000
0000
0000
0000
0000
0000
0000
0000
0000
0300
0101
0000
0000
0000
0000
0000
0010
0000
0000
0000
0000
0000
0200
0000
0000
0000
0000
0000
0000
0000
0000
0000
0000
0300
0201
0000
0000
0000
0000
0000
000M
0000
0000
0000
0000
0000
,
0320
0000
0000
0000
0000
0000
0000
0000
0000
0000
0000
0030
0011
0000
0000
0000
0000
0000
0100
0000
0000
0000
0000
0000
0010
0000
0000
0000
0000
0000
0001
0000
0000
0000
0000
0000
1100
0000
0000
0000
0000
0000
0002
0000
0000
0000
0000
0000
,
0M00
0000
0000
0000
0000
0000
0000
0000
0000
0000
0000
0003
1010
0000
0000
0000
0000
0000
0100
0000
0000
0000
0000
0000
0020
0000
0000
0000
0000
0000
0000
0000
0000
0000
0000
0030
0011
0000
0000
0000
0000
0000
0100
0000
0000
0000
0000
0000
,
0001
0000
0000
0000
0000
0000
0100
0000
0000
0000
0000
0000
1010
0000
0000
0000
0000
0000
0002
0000
0000
0000
0100
0000
1000
0000
0000
0100
0000
0000
1003
0000
0000
0100
0000
0000
1000
0000
0000
0100
0000
0000
1000
0000
0000
0100
0000
0000
,
1010
0000
0000
0000
00M1
0000
0000
0000
0100
0001
1000
0000
0011
0000
0000
0000
0100
0000
0000
0000
00M1
0000
0000
0000
0100
0001
1000
0000
0011
0000
0000
0000
,
0010
0000
0000
0000
0M01
0000
0000
0000
0010
1000
0001
0000
0110
0000
0000
0000
0100
0000
0000
0000
0101
0000
0000
0000
0101
0000
0000
0000
0202
0000
0000
0000
,
0303
0101
0101
0202
0303
0101
0101
0202
,
0303
0000
0101
0000
0101
0000
0011
0000
1010
0100
1001
0100
1010
0001
1100
0001
,
1010
0000
0000
0000
0000
0000
0000
0000
00M1
0000
0000
0000
0000
0000
0000
0000
0100
0000
0000
0000
0010
0000
0000
0000
0011
1000
0000
0000
0000
0000
0000
0000
0100
0000
0000
0000
0000
0000
0000
0000
00M1
0000
0000
0000
0000
0000
0000
0000
0100
0000
0001
0000
1000
0000
0000
0000
0011
0000
0000
0000
0000
0000
0000
0000
,
0010
0000
0000
0000
0M01
0000
0000
0000
0010
0000
1000
0001
0110
0000
0000
0000
0100
0000
0000
0000
0101
0000
0000
0000
0100
0001
1000
0010
0101
0000
0000
0000
,
10M0
0000
0000
0000
10M0
0000
0000
0000
0101
0000
0000
0000
10M0
0000
0000
0000
10M0
0000
0000
0000
0101
0000
0010
1000
0001
0000
1000
0100
0011
0000
0000
0000
,
0000
0000
0000
0000
1000
0000
0000
0000
1000
0000
0000
0000
0011
0001
0000
0000
1000
0000
0000
0000
1000
0000
0000
0000
1000
0000
0000
0000
1000
0000
0000
0000
,
0110
0000
0010
0000
1010
0000
0010
0000
0110
0000
0010
0000
1010
0000
0010
1000
,
0011
0001
0101
0001
0110
0100
0101
0100
,
0110
0000
0100
0000
0101
0000
0100
0010
1100
0000
1000
0000
1010
0000
1000
0001
,
0110
0000
0100
0000
0101
0000
0100
0000
1010
0000
0010
0000
1010
0000
0010
1000
,
0110
0000
0000
0000
0000
0000
0000
0000
0000
0000
0000
0000
0000
0000
0000
0000
0000
0000
0000
0000
0000
0000
0000
0000
0011
0000
0000
0100
0000
0000
0000
0000
0000
0000
0000
0000
0000
0000
0000
0000
0000
0000
0000
0000
0000
0000
0000
0000
0011
0000
0000
0100
0000
0000
0000
0000
0000
0000
0000
0000
0000
0000
0000
0000
0000
0000
0000
0000
0000
0000
0000
0000
0011
0000
0000
0100
0000
0000
0000
0000
0000
0000
0000
0000
0000
0000
0000
0000
0000
0000
0000
0000
0010
0000
0000
0000
1001
0000
0000
0100
0000
0000
0000
0000
0000
0000
0000
0000
0000
0000
0000
0000
0000
0000
0000
0000
0000
0000
0000
0000
1010
0000
0000
0000
0000
0000
0000
0000
0000
0000
0000
0000
0000
0000
0000
0000
0000
0000
0000
0000
0000
0000
0000
0000
1010
0000
0000
0000
0000
0000
0000
0000
0000
0000
0000
0000
0000
0000
0000
0000
0000
0000
0000
0000
0000
0000
0000
0000
1100
0000
0000
0000
0000
0000
0000
0000
0000
0000
0000
0000
0001
0000
0000
0000
1000
0000
0000
0000
0100
0000
0000
0000
,
0011
0101
1001
1010
0011
0101
0110
1010
,
0110
0000
0000
0000
0000
0000
0000
0000
0000
0000
0000
0000
1000
0000
0000
0000
0000
0000
0000
0000
0000
0000
0000
0000
0011
0000
0000
0100
0000
0000
0000
0000
0000
0000
0000
0000
0000
0000
0000
0000
0000
0000
0000
0000
0000
0000
0000
0000
0011
0000
0000
0100
0000
0000
0000
0000
0000
0000
0000
0000
1000
0000
0000
0000
0000
0000
0000
0000
0000
0000
0000
0000
0011
0000
0000
0100
0000
0000
0000
0000
0000
0000
0000
0000
0000
0000
0000
0000
0000
0000
0000
0000
0010
0000
0000
0000
1001
0000
0000
0100
0000
0000
0000
0000
0000
0000
0000
0000
0010
0000
0000
0000
0000
0000
0000
0000
0000
0000
0000
0000
1100
0000
0000
0000
0000
0000
0000
0000
0000
0000
0000
0000
0000
0000
0000
0000
0000
0000
0000
0000
0000
0000
0000
0000
1010
0000
0000
0000
0000
0000
0000
0000
0000
0000
0000
0000
0000
0000
0000
0000
0000
0000
0000
0000
0000
0000
0000
0000
1001
0000
0000
0000
0000
0000
0000
0000
0000
0100
0000
0000
0010
0000
0000
0000
0000
0000
0000
0000
0000
0000
0000
0000
,
0110
0000
0000
0000
0000
0000
0000
0000
0001
0000
0000
0000
0000
0000
0000
0000
0100
0000
0000
0000
0000
0000
0000
0000
0011
0000
0000
0000
0000
0000
0000
0000
0100
0000
0000
0000
0000
0000
0000
0000
0001
0000
0000
0000
0000
0000
0000
0000
0110
0000
0000
0000
0000
0000
0000
0000
0001
0000
0000
0000
0000
0000
0000
0000
0100
0000
0000
0000
0000
0000
0000
0000
0001
0000
0000
0000
0000
0000
0000
0000
0100
0000
0000
0000
0000
0000
0000
0000
0001
0000
0000
0000
0000
0000
0000
0000
1100
0000
0000
0000
0000
0000
0000
0000
0000
0000
0000
0000
0000
0000
0000
0000
0000
0000
0000
0000
0000
0000
0000
0000
0000
0000
0000
0000
0000
0000
0000
0000
0000
0000
0000
0000
0000
0000
0000
0000
0000
0000
0100
0000
0000
0000
0000
0000
1001
0000
0000
0000
0000
0000
0000
0000
0000
0000
0000
0000
0000
0000
0000
0000
0000
0000
0000
0000
0000
0000
0000
0000
0000
0000
0000
0000
0000
0000
0000
0000
0000
0000
0000
0000
0000
0000
0000
0000
0000
0000
0000
0000
0000
0000
0000
0000
,
1000
0000
0000
0000
0011
0000
0000
0000
1000
0000
0100
0000
0011
0000
0000
0000
1000
0000
0000
0000
0011
0000
0000
0000
1000
0000
0100
1000
0011
0000
0000
0000
,
1000
0000
0000
0000
0101
0000
0000
0000
1000
0000
0010
1000
0101
0000
0000
0000
1000
0000
0000
0000
0101
0000
0000
0000
1000
0000
0010
0000
0101
0000
0000
0000
,
1000
0000
0000
0000
0011
0000
0000
0000
1000
0000
0100
1000
0011
0000
0000
0000
1000
0000
0000
0000
0011
0000
0000
0000
1000
0000
0100
0000
0011
0000
0000
0000
,
M100
0000
0101
0000
1001
0000
0101
0000
1001
0000
0101
0000
1001
0000
0101
0010
,
0001
0000
0000
0000
0011
0000
0000
0000
1000
0000
0100
0000
0011
0000
0000
0000
1000
0000
0000
0000
0011
0000
0000
0000
1000
0000
0100
1000
0011
0000
0000
0000
,
1000
0000
0000
0000
0101
0000
0000
0000
1000
0000
0010
1000
0101
0000
0000
0000
1000
0000
0000
0000
0101
0000
0000
0000
1000
0000
0010
1000
0101
0000
0000
0000
,
1000
0000
0011
0000
1000
0100
0011
0000
1000
0000
0011
0000
1000
0100
0011
0000
,
1010
0101
0110
0101
0110
0101
0110
0101
,
1010
0000
0000
0000
0001
0010
0100
0000
1010
0000
0000
0000
0100
0000
0000
0000
1001
0000
0000
0000
0010
0000
0100
0000
1010
0000
0000
0000
0001
1000
0000
0000
,
0110
0000
0000
0000
0001
1000
0010
0000
0101
0000
0000
0000
0100
0000
0000
0000
0101
0000
1000
0000
0101
0000
1000
0000
0101
0000
1000
0000
0202
0000
0000
0000
,
0303
0000
0101
1000
0101
1000
0202
0000
0303
0000
0101
1000
0101
1000
0202
0000
,
0303
0000
0101
1000
0101
1000
0011
1000
0110
0001
1010
0100
1001
0010
1100
0001
,
1010
0000
0100
0000
00M0
0000
0000
0001
1010
0000
0000
0000
0100
0000
0000
0000
1001
0000
0000
0000
0010
1000
0001
0000
1010
0000
0000
0000
0001
1000
0000
0000
,
0110
0000
0000
0000
0001
0000
1000
0000
0101
0000
0000
0000
0100
0010
0000
0000
0101
0000
0000
0000
0100
0000
0010
0000
0101
0000
0000
0000
0101
0000
0000
0000
,
0000
0000
0000
0000
0011
0000
0000
0000
0000
0000
0000
0000
0000
0000
0000
0000
0000
0000
0100
0010
1001
0000
0000
0000
0000
0000
0000
0000
0011
0000
0000
0000
,
0000
1000
1000
0110
1000
1000
001M
1000
,
0110
0010
1010
0010
0110
0010
1010
0010
,
0011
0001
0101
0001
0110
0100
0101
0100
,
M011
M011
0000
1000
1100
1000
1010
1000
,
0110
0000
0100
0000
0101
0000
0100
0000
1010
0000
0010
0000
1010
0000
0010
1000
,
0110
0000
0010
0000
1010
0100
0010
0000
0110
1000
0010
0000
1010
0100
0010
0000
,
0011
0000
1000
0000
0001
0000
0000
0000
0101
0000
0000
0000
0001
0000
0000
0000
0110
0000
0001
0000
0100
0000
0000
0000
0101
0000
0000
0000
0100
0001
0010
1000
,
0110
0000
0000
0000
0100
0000
0010
1000
0101
0000
0000
0000
0100
0000
0001
0010
1100
0000
0000
0000
1000
0000
0000
0000
1010
0000
0000
0000
1000
0000
0000
0000
,
0011
0100
0001
0100
0001
0100
1001
0100
0001
0100
0001
0100
0011
0000
0000
0000
0000
0000
0000
0000
0000
0000
0000
0000
,
1000
0100
1001
1010
0100
0010
0101
0011
0100
0001
1010
1100
0010
1000
0011
0101
,
1000
0000
0000
0000
0000
0000
0000
0000
0000
0000
0000
0000
0001
0000
0000
0000
0000
0000
0000
0000
0000
0000
0000
0000
1010
0000
0000
0000
0000
0000
0000
0000
0000
0000
0000
0000
1100
0000
0000
0000
0000
0000
0000
0000
0000
0000
0000
0000
0010
0000
0000
0000
0000
0000
0000
0000
0000
0000
0000
0000
0100
0000
0000
0000
0000
0000
0000
0000
0000
0000
0000
0000
1010
0000
0000
0000
0000
0000
0000
0000
0000
0000
0000
0000
0110
0000
0000
0000
0000
0000
0000
0000
0000
0000
0000
0000
0001
0000
0000
0000
0000
0000
0000
0000
0000
0000
0000
0000
0000
0000
0000
0000
0000
0000
0000
0000
0000
0000
0000
0000
1000
0000
0000
0000
0000
0000
0100
0000
0000
0000
0000
0000
0010
0000
0000
0000
0100
0000
0000
0000
0010
0000
0000
0000
1001
0000
0000
0000
0000
0000
0000
0000
0000
0000
0000
0000
0000
0000
0000
0000
0000
0000
0000
0000
0000
0000
0000
0000
0000
0000
0000
0000
0000
0000
0000
0000
0000
0000
0000
0000
0000
0000
0000
0000
0000
0000
0000
0000
0000
0000
0000
0000
,
1000
0100
1001
1010
0100
0010
0101
0011
0100
0001
1010
1100
0010
1000
0011
0100
,
1010
0000
0000
0000
0101
0000
0000
0000
1010
0000
0000
0000
0101
0000
0000
0000
1010
0000
0000
0000
0101
0000
0000
0000
1010
0000
0000
0000
0101
0000
0000
0000
1010
0000
0000
0000
0000
0000
0000
0000
0000
0000
0000
0000
0000
0000
1000
0100
0011
0000
0000
0000
0000
0000
0000
0000
0100
0000
0000
0000
0100
0000
0000
0000
,
0100
1010
0100
1010
0001
1010
00M0
1100
,
0010
0000
1001
0100
0010
0000
0101
0000
1000
0000
0101
0000
0010
0000
0101
0000
,
0010
1001
000M
1010
000M
1010
0010
1001
,
0100
0000
1010
0000
00M0
0000
1001
0000
00M0
0000
1001
0000
00M0
0000
1001
0010
,
0100
0000
0000
0000
1010
0000
0000
0000
0100
0000
0000
0000
1010
0000
0000
0000
0001
0000
0000
0000
1010
0000
0000
0100
0001
0000
0000
0000
1100
0000
0000
0000
,
0010
0000
1001
0100
0010
0000
1001
0000
0010
0000
0101
0000
0010
0000
1001
0000
,
0100
0000
1010
0000
000M
0000
1010
0000
000M
0000
1010
0010
0010
0000
1100
0010
,
0001
1000
0101
1000
0010
0100
1001
0100
0010
1000
0011
1000
0100
0001
1010
0100
,
0011
0000
0011
0000
0011
0001
0001
0000
0101
0000
0101
0000
0101
0000
M0M0
0000
,
0110
0000
0110
0110
0110
0000
100M
0000
0011
0001
0011
0000
0011
0000
MM00
0000
,
0001
0000
0110
0010
0010
0000
1001
0000
0100
0100
0101
0000
100M
0000
0101
0000
,
100M
0000
1010
1000
1000
0000
1010
1000
1001
0000
0011
0001
0011
0000
M0M0
0000
,
0101
0101
0101
100M
0011
0011
0011
M00M
,
0110
0000
0110
0110
0110
0000
100M
0000
0011
0001
0011
0000
0011
0000
MM00
0000
,
1000
0100
0011
0100
1000
0010
1100
0001
0010
0100
0011
1000
0100
0010
1100
0001
,
0010
0000
0000
0100
0000
0000
1010
0000
0000
0001
0000
0000
0100
0000
0000
0001
0000
0000
1100
0000
0000
0010
0000
0000
0101
0000
0000
1000
0000
0000
0101
0000
0000
1000
0000
0000
0101
0000
0000
0010
0000
0000
0001
0000
0000
1000
0100
0010
,
1001
0000
0000
0000
0011
0000
0000
0000
1000
0000
0100
0000
0011
0000
0000
0000
1000
0000
0000
0000
0011
0000
0000
0000
1000
0000
0100
1000
0011
0000
0000
0000
,
1000
0000
0000
0000
0101
0000
0000
0000
1000
0000
0010
1000
0101
0000
0000
0000
1000
0000
0000
0000
0101
0000
0010
0000
1000
0000
0010
0000
0101
0000
0000
0000
,
1000
0000
0000
0000
0011
0000
0000
0000
1000
0000
0100
1000
0011
0000
0000
0000
1000
0000
0000
0000
0011
0000
0000
0000
1000
0000
0100
1000
0011
0000
0000
0000
,
M100
0000
0000
0000
0000
0000
0101
0000
0000
0000
0000
0000
1001
0000
0000
0000
0000
0000
0101
0000
0000
0000
0000
0000
1001
0000
0000
0000
0000
0000
0101
0000
0000
0000
0000
0000
1001
0000
0000
0000
0000
0000
0101
0000
0000
1000
0100
0010
,
0001
0000
0000
0000
0011
0000
0000
0000
1000
0000
0100
0000
0011
0000
0000
0000
1000
0000
0000
0000
0011
0000
0000
0000
1000
0000
0100
1000
0011
0000
0000
0000
,
1000
0000
0000
0000
0101
0000
0000
0000
1000
0000
0010
1000
0101
0000
0000
0000
1000
0000
0000
0000
0101
0000
0000
0000
1000
0000
0010
1000
0101
0000
0000
0000
,
1000
0000
0000
0000
0011
0000
0000
0000
1000
0000
0100
1000
0011
0000
0000
0000
1000
0000
0000
0000
0011
0000
0000
0000
1000
0000
0100
0000
0011
0000
0000
0000
,
1010
0101
0110
0101
0110
0101
0110
0101
,
1010
0000
0001
0100
1010
0000
0100
0000
1001
0000
0010
0100
1010
0000
0001
1000
,
0110
0000
0000
0000
0001
0000
1000
0010
0101
0000
0000
0000
0100
0000
0010
0000
0101
0000
1000
0000
0101
0000
1000
0000
0101
0000
1000
0000
0202
0000
0000
0000
,
0303
0000
0101
1000
0101
1000
0202
0000
0303
0000
0101
1000
0101
1000
0202
0000
,
0303
0000
0101
1000
0101
1000
0011
1000
0110
0001
1010
0100
1001
0010
1100
0001
,
1010
0000
0100
0000
00M0
0000
0000
0001
1010
0000
0000
0000
0100
0000
0000
0000
1001
0000
0000
0000
0010
0000
0100
0001
1010
0000
0000
0000
0001
0000
1000
0000
,
0110
0000
0001
1000
0101
0000
0100
0010
0101
0000
0100
0010
0101
0000
0101
0000
,
0000
0000
0000
0000
0011
0000
0000
0000
0000
0000
0000
0000
0000
0000
0000
0000
0000
0000
0100
0010
1001
0000
0000
0000
0000
0000
0000
0000
0011
0000
0000
0000
,
0000
0000
0000
0000
1000
0000
0000
0000
1000
0000
0000
0000
0011
0001
0000
0000
M010
0000
0100
0000
100M
0000
0000
0000
M100
0000
0010
0000
0M01
0000
0000
0000
,
0110
0010
1010
0010
0110
0010
1010
0010
,
0011
0000
0001
0000
0101
0000
0001
1000
0110
0000
0100
0000
0101
0000
0100
0000
,
M011
0000
M011
0000
0000
0000
1000
0000
1100
0000
1000
0000
1010
0000
1000
0001
,
0110
0100
0101
0100
1010
0010
1010
0010
,
0110
0010
1010
0010
0110
0010
1010
0010
,
0011
0001
0101
0001
0110
0100
0101
0100
,
0110
0000
0001
0000
0100
0000
0000
0000
0101
0000
0010
0000
0100
0000
0000
0000
1100
0000
0001
0000
1000
0000
0000
0000
1010
0000
0000
0000
1000
0100
0001
1000
,
0011
0100
0001
0100
0001
0100
1001
0100
0001
0100
0001
0100
0011
0000
0000
0000
0000
0000
0000
0000
0000
0000
0000
0000
,
1000
0100
1001
1010
0100
0010
0101
0011
0100
0001
1010
1100
0010
1000
0011
0101
,
1000
0000
0000
0000
0000
0000
0000
0000
0000
0000
0000
0000
0001
0000
0000
0000
0000
0000
0000
0000
0000
0000
0000
0000
1010
0000
0000
0000
0000
0000
0000
0000
0000
0000
0000
0000
1100
0000
0000
0000
0000
0000
0000
0000
0000
0000
0000
0000
0010
0000
0000
0000
0000
0000
0000
0000
0000
0000
0000
0000
0100
0000
0000
0000
0000
0000
0000
0000
0000
0000
0000
0000
1010
0000
0000
0000
0000
0000
0000
0000
0000
0000
0000
0000
0110
0000
0000
0000
0000
0000
0000
0000
0000
0000
0000
0000
0001
0000
0000
0000
0000
0000
0000
0000
0000
0000
0000
0000
0000
0000
0000
0000
0000
0000
0000
0000
0000
0000
0000
0000
1000
0000
0000
0000
0000
0000
0100
0000
0000
0000
0000
0000
0010
0000
0000
0000
0100
0000
0000
0000
0010
0000
0000
0000
1001
0000
0000
0000
0000
0000
0000
0000
0000
0000
0000
0000
0000
0000
0000
0000
0000
0000
0000
0000
0000
0000
0000
0000
0000
0000
0000
0000
0000
0000
0000
0000
0000
0000
0000
0000
0000
0000
0000
0000
0000
0000
0000
0000
0000
0000
0000
0000
,
1000
0100
1001
1010
0100
0010
0101
0011
0100
0001
1010
1100
0010
1000
0011
0100
,
1010
0000
0000
0000
0101
0000
0000
0000
1010
0000
0000
0000
0101
0000
0000
0000
1010
0000
0000
0000
0101
0000
0000
0000
1010
0000
0000
0000
0101
0000
0000
0000
1010
0000
0000
0000
0000
0000
0000
0000
0000
0000
0000
0000
0000
0000
0100
0010
2002
0000
0000
0000
0000
0000
0000
0000
3003
0000
0000
0000
0000
0000
0000
0000
,
MMMM
0000
0000
0000
;
