#TITLE:Aztec Templing;
#SUBTITLE:;
#ARTIST:Hi-G remixed by DM Ashura;
#TITLETRANSLIT:;
#SUBTITLETRANSLIT:;
#ARTISTTRANSLIT:;
#CREDIT:;
#BANNER:../bn.png;
#BACKGROUND:../veyron.png;
#LYRICSPATH:;
#CDTITLE:;
#MUSIC:Aztec Templing (Techno-titlan Mix).ogg;
#OFFSET:-9.432;
#SAMPLESTART:84.267;
#SAMPLELENGTH:18.930;
#SELECTABLE:YES;
#BPMS:0.000=205.000;
#STOPS:;
#BGCHANGES:;
// cache tags:
#FIRSTBEAT:0.000;
#LASTBEAT:361.000;
#SONGFILENAME:Songs/Cirque du Veyron/Zaia - Aztec Templing (Techno-titlan Mix)/aztectempling.sm;
#HASMUSIC:1;
#HASBANNER:1;
#MUSICLENGTH:117.133;
// end cache tags

//---------------dance-single - Zaia----------------
#NOTES:
     dance-single:
     Zaia:
     Challenge:
     14:
     1.000,1.000,0.307,0.068,0.888,828.000,36.000,8.000,0.000,0.000:
1000
0100
1000
0001
1000
0010
1000
0100
,
1000
0010
1000
0001
0010
0100
0010
0001
,
0100
0001
0010
0001
1000
0001
0100
0001
,
0010
0001
1000
0001
0100
0100
0110
0010
,
1000
0001
1000
0100
1000
0010
1000
0001
,
1000
0100
0010
0100
1000
0001
1000
0010
,
1000
0001
0100
0010
0100
0001
0010
0001
1000
0010
0100
0001
0010
0100
1000
0001
,
1000
0010
0100
0001
1000
0010
0100
0001
1000
0100
0010
0001
1000
0010
0100
0010
,
1000
0001
0101
0100
0020
0000
1030
0001
,
0000
1000
1001
0001
0020
0000
0130
1000
,
0000
0001
0011
0010
0200
0000
0310
0001
,
1000
0001
0010
0001
1000
0000
0010
0000
1000
0000
0001
0000
1000
0000
0100
0000
,
0000
1000
1001
0001
0020
0000
0031
0100
,
0000
0001
0101
0100
0020
0000
1030
0001
,
0000
0010
0110
0100
2000
0000
3100
0010
,
0001
1000
0010
1000
0001
0000
0100
0000
0101
0000
0001
0000
1000
0000
0010
0000
,
0101
0000
1001
1000
0001
1000
0010
0100
,
0101
0000
1010
0010
1000
0100
0010
0100
,
1100
0000
0011
0001
0010
0001
0100
0010
,
1000
0000
0100
0000
0010
0000
0001
0000
0100
0000
0010
0000
1000
0100
0010
0100
,
1000
0000
1100
0100
1000
0001
1000
0010
,
1001
0000
1010
1000
0010
1000
0100
0010
,
0011
0000
1100
0100
0010
0001
0100
0001
,
0010
0000
0100
0000
1000
0000
0010
0000
0100
0000
0001
0000
1000
0001
1000
0001
,
0010
0000
0001
0100
0001
0100
0010
1000
,
0001
0000
0010
0100
0010
0100
1000
0010
,
0100
0000
0001
1000
0001
1000
0010
0100
,
0001
0000
0010
0000
0100
0000
1000
0000
0010
0000
0100
0000
0001
1000
0010
1000
,
0001
0000
1000
0100
1000
0100
0010
0001
,
0100
0000
0010
1000
0010
1000
0001
0010
,
0100
0000
1000
0100
0010
0001
0100
0010
,
1000
0001
0010
0100
0010
0001
1000
0100
1000
0001
0010
0100
0010
0100
1000
0010
,
0100
0001
1000
0001
0100
0010
0100
0001
1000
0001
1000
0100
1000
0100
0010
0100
,
1000
0001
0100
0010
1000
0100
0010
0100
1000
0001
0010
0001
0100
0010
1000
0010
,
0100
0001
1000
0100
1000
0001
0010
0100
1000
0001
1000
0001
0100
0010
0100
0001
,
1000
0010
0100
0001
1000
0010
1000
0001
0010
0100
1000
0010
0100
0001
0010
0100
,
1000
0001
1000
0001
0100
0010
0100
0001
1000
0001
1000
0100
0010
0100
1000
0001
,
0010
0100
1000
0010
0100
0001
1000
0010
1000
0001
0010
0001
1000
0001
0010
0100
,
1000
0001
0010
0001
0010
0100
1000
0001
1000
0010
1000
0010
0100
0001
1000
0001
,
0010
0001
1000
0100
0010
0100
1000
0001
0010
0100
1000
0010
0100
0001
1000
0010
,
1000
0001
1000
0100
0010
0100
1000
0001
1000
0010
0100
0001
0010
0100
0010
0001
,
1000
0001
1000
0010
0100
0001
0100
0010
1000
0100
1000
0001
0010
0100
1000
0100
,
0010
0001
0100
0010
0100
0001
1000
0100
1000
0100
0010
0001
1000
0100
1000
0001
,
0100
0001
0100
0010
1000
0001
1000
0100
0010
0100
1000
0001
0010
0001
0100
0010
,
1000
0001
1000
0100
0010
0100
1000
0001
1000
0010
0100
0001
0010
0100
0010
0001
,
1000
0001
1000
0010
0100
0001
0100
0010
1000
0100
1000
0001
0010
0100
1000
0100
,
0010
0001
0100
0010
0100
0001
1000
0100
1000
0100
0010
0001
1000
0100
1000
0001
,
0100
0001
0100
0010
1000
0001
1000
0100
0010
0100
1000
0001
0100
0010
0100
0001
,
1000
0100
1000
0001
,
0010
0100
0010
0001
,
1000
0001
0100
0010
,
0100
0001
1000
1000
,
0001
0010
0100
1000
,
0001
0000
0100
0001
0010
0000
0001
0000
,
0100
0001
0010
0100
,
2000
0000
0000
0000
,
3001
1000
0001
0100
0001
1000
0001
0010
,
0001
0100
0001
0010
0100
1000
0010
1000
,
0001
1000
0100
1000
0001
0100
0001
0010
,
0100
1000
0001
1000
0001
0001
1000
1000
,
0001
0010
0001
0010
0001
0100
0001
1000
,
0100
1000
0100
1000
0010
0100
0010
1000
,
0001
0100
0010
1000
0100
1000
0001
1000
0001
0100
0010
1000
0001
1000
0010
1000
,
0001
0100
0010
1000
0001
0100
0010
1000
0001
0010
0100
1000
0010
0100
0001
1000
,
0010
0000
1001
0001
1000
0001
0010
0100
,
1100
0000
0011
0010
0001
0010
0001
0100
,
0101
0000
1010
1000
0010
1000
0100
0010
,
0001
0000
0100
0000
0010
0000
1000
0000
0100
0000
0010
0000
0001
0100
0010
0100
,
0001
0000
0101
0100
0001
0100
0001
1000
,
1001
0000
0011
0001
0010
0001
0100
0010
,
1010
0000
0101
0100
0010
1000
0100
1000
,
0010
0000
0100
0000
0001
0000
0010
0000
0100
0000
1000
0000
0001
1000
0001
1000
,
0010
0000
1000
0100
1000
0100
0010
0001
,
1000
0000
0010
0100
0010
0100
0001
0010
,
0100
0000
1000
0001
1000
0001
0010
0100
,
1000
0000
0010
0000
0100
0000
0001
0000
0010
0000
0100
0000
1000
0001
0010
0001
,
1000
0000
0001
0100
0001
0100
0010
1000
,
0100
0000
0010
0001
0010
0001
1000
0010
,
0100
0000
0001
0100
0010
1000
0100
0010
,
0001
0010
0100
1000
0010
0100
0001
1000
0001
1000
0100
0010
0001
1000
0001
0100
,
0010
1000
1100
1000
,
1010
1000
1100
1000
,
1010
1000
1100
1000
,
1010
1000
1100
1000
,
1000
0010
0100
0010
1000
0100
0010
0001
,
0100
0010
0100
0001
0010
0100
1000
0010
,
0100
0001
0010
0100
1000
0001
0100
0001
1000
0001
0100
0010
1000
0100
0010
0001
,
1000
0010
1000
0001
0010
0100
1000
0001
0100
0010
1000
0100
0010
0001
0100
0010
,
2000
0000
0000
0000
,
0000
0000
0000
0000
,
0000
3000
0000
0000
;
