#TITLE:Hyrule Party Mix;
#SUBTITLE:- Zelda 64 - Orcarina of Time;
#ARTIST:NoppZ;
#TITLETRANSLIT:;
#SUBTITLETRANSLIT:;
#ARTISTTRANSLIT:;
#CREDIT:Crazylegz;
#BANNER:Hyrule Party Mix - Banner.JPG;
#BACKGROUND:Hyrule Party Mix - Background.JPG;
#LYRICSPATH:;
#CDTITLE:;
#MUSIC:Zelda_64_Hyrule_Party_Mix_OC_ReMix.mp3;
#OFFSET:-0.055;
#SAMPLESTART:41.096;
#SAMPLELENGTH:12.000;
#SELECTABLE:YES;
#BPMS:0.000=146.000,288.000=73.000,352.000=146.000;
#STOPS:;
#BGCHANGES:;
// cache tags:
#FIRSTBEAT:3.000;
#LASTBEAT:608.000;
#SONGFILENAME:Songs/toune/Zelda - Hyrule Party Mix (OC Remix) (Crazyelgz Edit)/Hyrule Party Mix.sm;
#HASMUSIC:1;
#HASBANNER:1;
#MUSICLENGTH:289.358;
// end cache tags

//---------------dance-single - ----------------
#NOTES:
     dance-single:
     :
     Hard:
     9:
     0.495,0.867,0.263,0.556,0.062,765.000,76.000,161.000,0.000,0.000:
0000
0000
0000
1000
,
0000
0000
0000
0001
,
0000
0000
0000
1000
,
0000
0000
0000
0001
,
0010
0000
0100
1000
0000
1000
0100
0000
,
0010
0000
0001
0100
0000
0100
0001
0000
,
0010
0000
0100
1000
0000
1000
0100
0000
,
0010
0000
0001
0100
0000
0100
0001
0000
,
1000
0010
0100
0001
1000
0010
0200
0000
,
0000
0000
0000
0000
0000
0000
0301
0010
,
0100
1000
0001
0010
0100
1000
0002
0000
,
0000
0000
0000
0000
0000
0000
1003
0100
,
0010
0001
1000
0010
0100
0001
1000
0100
,
0010
0001
1000
0010
0100
0001
0010
0200
,
0000
0000
0000
1300
,
0000
0000
0000
0000
0000
0000
0010
0001
,
1000
0100
0010
0100
1000
0001
2000
0000
,
0010
0000
0100
0000
0010
0000
3001
0010
,
0100
1000
0100
0010
0001
0100
0002
0000
,
0100
0000
1000
0000
0100
0000
0013
0100
,
1000
0001
0010
0100
0010
0001
1000
0010
,
1000
0001
0010
0001
1000
0100
1000
0002
,
0000
0000
0000
0000
0000
0000
0003
0100
,
0010
0000
0000
1010
,
0200
0000
0000
0020
0300
0000
0002
0000
,
0030
0000
0000
0103
,
0020
0000
0000
2030
0000
0000
3200
0000
,
0000
0000
0000
0310
,
0002
0000
0000
2003
0000
0000
0002
3000
,
0000
0023
0000
0000
0230
0000
0000
2300
,
0000
0000
0000
0000
,
0000
0000
0000
3000
,
2020
0000
3030
2002
0000
3003
0022
0000
,
0000
0000
0000
0000
0000
0033
0110
0000
,
2200
0000
3300
2002
0000
3003
0202
0000
,
0000
0000
0000
0000
0000
0303
0110
0000
,
2002
0000
3003
2020
0000
3030
0220
0000
,
0330
0202
0000
0303
0022
0000
0033
2200
,
0000
0000
0000
0000
0000
3000
2300
0000
,
0000
0000
0000
0000
,
3100
0010
0001
0100
0010
0001
1000
0100
,
0010
2000
0000
0002
3000
0200
0003
0310
,
1000
0100
0010
0100
1000
0001
0100
0020
,
0000
2030
0000
3200
0000
0320
0000
1030
,
0001
0100
0010
0001
0100
0010
0001
1000
,
0100
0020
0000
2030
0000
3200
0000
1300
,
0010
1000
0200
0000
0000
0000
0000
0000
,
0300
0000
0010
0001
0100
0000
0010
1000
0100
0000
0010
0000
0001
0000
0011
0000
,
0001
0100
0010
1000
0100
0010
0001
0100
,
0010
2000
0000
3020
0000
0230
0000
0301
,
0110
1000
0010
0110
0001
1000
1100
0100
,
0010
0011
1001
0100
0110
0001
0101
0100
,
0100
0010
1000
0100
0010
1000
0001
0100
,
0010
0002
0000
0023
0000
0230
0000
1300
,
0010
1000
0200
0000
0000
0000
0000
0000
,
0000
0000
0000
0000
0000
0310
0000
0000
,
0011
0000
0000
0110
0000
0000
2200
0000
,
0000
0000
0000
3300
1000
0000
0010
0000
,
1010
0000
0000
1001
0000
0000
0102
0000
,
0000
0000
0000
0203
0000
0000
0002
0303
,
0101
0000
0000
1001
0000
0000
1020
0000
,
2000
0000
3030
2000
,
0200
0000
0000
0000
0000
3300
0100
0010
,
0001
1000
1000
1000
1000
1000
1000
1000
,
1010
0000
0000
0110
0000
0000
0202
0000
,
0000
0000
0000
0303
0001
0000
0010
0000
,
0011
0000
0000
0110
0000
0000
2200
0000
,
0000
0000
3000
1300
0000
0000
0100
0000
,
0120
0000
0000
0001
0000
0030
1001
0000
,
0200
0000
0000
0301
,
0012
0000
0000
0000
0000
0000
0013
0001
,
0200
0000
0000
0000
,
0310
1000
0100
0010
,
0100
1000
0001
1000
,
0001
0011
1000
1010
,
0001
0101
1000
1010
,
1000
0100
0010
0001
0010
1000
0010
0001
,
0100
0010
1000
0010
0100
0001
0010
0001
,
1000
1000
1000
1000
0001
0001
0001
0001
,
0100
0100
0100
0100
,
1000
0010
0100
0001
1000
0010
0100
0001
1000
0010
0100
0001
1000
0010
0100
0001
,
0020
0000
0000
0130
1000
0010
2000
0000
3000
0100
2000
0000
0000
3100
0010
0001
,
0001
0010
0100
1000
0001
0010
0100
1000
0001
0010
0100
1000
0001
0010
0100
1000
,
0020
0000
0130
0000
0001
0000
0010
0001
0000
0010
0000
0200
0000
0000
0000
0000
,
1300
1000
1000
1000
1000
1000
1000
1000
,
1001
0001
0001
0001
1001
1000
1000
1000
,
1002
0013
2001
3010
1002
0013
2001
3010
,
1002
0000
0103
0000
2001
0000
3100
0000
1000
0010
0100
0001
0001
0001
0001
0001
,
0001
0010
0100
0001
1000
0010
0001
0100
,
0010
1000
0010
1000
0010
1000
0200
0000
,
0300
0010
0001
0100
0020
0000
1030
0000
,
0100
0100
0001
0000
0100
0000
1000
0000
,
0010
0100
1000
0001
0010
1000
0100
0010
,
0001
0010
0001
0010
0001
0010
0200
0000
,
0300
1000
0010
0100
0002
0000
1003
0000
,
0001
0000
0100
0100
0010
0000
1010
0000
,
1000
0100
0010
1000
0001
0100
0010
0001
,
0010
1000
0010
1000
0010
0001
0200
0000
,
0300
0010
1000
0100
0020
0000
0000
0000
,
0000
0031
1000
0010
0200
0000
0000
0300
,
0001
0010
1000
0001
0100
1000
0010
0100
,
1000
0100
1000
0100
0001
0010
0200
0000
,
0300
1000
0010
0100
0002
0000
0010
0000
,
0013
0000
0100
1000
0001
1000
0001
1000
,
1001
0000
0000
0110
0000
0000
2002
0000
,
0000
0000
0000
3003
0200
0000
0020
0330
,
0011
0000
0000
0110
0000
0000
2200
0000
,
0000
3000
0000
2300
0000
0000
0200
3000
,
0320
0000
0000
0032
0000
0000
0203
0000
,
0002
0000
0303
0200
,
0020
0000
0000
0000
0330
0000
0010
1000
,
0200
0000
0000
0000
,
0310
0001
1000
0100
0010
0001
1000
0100
,
0010
0002
0000
0023
0000
0230
0000
1300
,
0010
0100
0001
0010
0001
0100
0010
2000
,
0000
3002
0000
2003
0000
3010
0000
0010
,
0100
0001
0010
0100
1000
0010
0100
0001
,
0010
2000
0000
3020
0000
0032
0000
1003
,
0010
1000
0200
0000
0000
0000
0000
0000
,
0300
0000
0010
0001
0100
0000
0010
1000
0100
0000
0010
0000
0100
0000
1000
0000
,
0010
0001
0010
1000
0001
0010
0100
0010
,
0001
0020
0000
2030
0000
3020
0000
0031
,
0101
0100
0010
1010
1000
0100
1100
0100
,
0010
0011
1001
0100
0110
0001
0101
0100
,
1010
1000
0100
0010
0001
0100
0010
1000
,
0100
0020
0000
0230
0000
2300
0000
3001
,
0010
0001
0200
0000
0000
0000
0000
0000
,
0000
0000
0000
0000
0000
0020
0000
0330
,
0001
0010
0100
0001
0010
0100
1000
0001
,
0010
2000
0000
3020
0000
0032
0000
0103
,
0010
1000
0010
0100
0001
0010
0001
0200
,
0000
0320
0000
2030
0000
3002
0000
1003
,
0100
0010
0001
1000
0100
0010
0001
1000
,
0100
0020
0000
0032
0000
2003
0000
3001
,
0010
0001
0200
0000
0000
0000
0000
0000
,
0300
0000
0001
0100
0010
0000
1000
0100
0010
0000
0001
0000
0010
0000
0100
0000
,
1000
0010
0100
0001
0010
0100
1000
0010
,
0100
0002
0000
0023
0000
0230
0000
1300
,
1010
0100
0001
0101
0100
0010
0110
0100
,
0001
0011
0110
0100
1100
1000
1001
0001
,
0101
0010
1000
0001
0100
0010
1000
0001
,
0100
0020
0000
2030
0000
3002
0000
1003
,
0010
1000
0200
0000
0000
0000
0000
0000
,
0000
0000
0000
0000
0000
0020
0000
0330
,
1000
0001
0100
0010
0001
0100
0010
1000
,
0100
0020
0000
0230
0000
2300
0000
3001
,
0010
0100
1000
0001
1000
0100
0010
0200
,
0000
2300
0000
3002
0000
0023
0000
0130
,
1000
0001
0010
0100
1000
0001
0010
0100
,
1000
0002
0000
0023
0000
2030
0000
3010
,
0001
0100
0002
0000
0000
0000
0000
0000
,
0003
0000
0001
0100
0010
0000
1000
0100
0010
0000
0001
0000
0010
0000
0100
0000
,
1000
0000
0000
0000
;

//---------------dance-single - ----------------
#NOTES:
     dance-single:
     :
     Challenge:
     10:
     0.527,0.867,0.401,0.183,0.102,898.000,116.000,53.000,53.000,3.000:
0000
0000
0000
1001
,
0000
0000
0000
0011
,
0000
0000
0000
1001
,
0000
0000
0000
1010
,
1000
0000
0001
0100
0000
0100
0001
0000
,
0010
0000
0100
1000
0000
1000
0100
0000
,
0010
0000
0001
0100
0001
0100
0001
0001
,
0100
0000
0010
1000
0000
1000
0010
0000
,
0100
0001
1000
0010
0100
0001
2000
0000
,
0001
0000
0001
0001
0000
0001
3001
0010
,
0100
1000
0001
0010
0100
1000
0002
0000
,
1000
0000
1000
1000
0000
1000
1003
0010
,
1000
0010
0100
0001
0010
0001
0100
0010
,
1000
0100
1000
0100
0010
0100
1000
0002
,
0000
0000
0000
0000
0000
0000
0000
0010
,
0013
0000
0010
0000
0100
0000
0110
0100
,
1000
0001
0010
0100
1000
0001
0020
0000
,
0001
0000
1000
0001
0000
0001
0130
0010
,
0001
1000
0100
0010
0001
1000
0200
0000
,
1000
0000
0001
1000
1000
0000
0310
0001
,
1000
0100
0010
0001
0010
0100
0010
0001
,
0100
0010
1000
0100
1000
0010
0100
0202
,
0000
0000
0000
0000
0000
0000
0000
0010
,
1000
0000
0000
0000
0000
0000
1010
0303
,
0001
0000
0001
0010
0000
0010
0100
0000
,
1000
0010
0100
0001
,
1000
0100
1000
0100
0010
0100
0010
0000
,
0001
0010
0001
1000
0001
0000
1001
0000
,
1000
0000
1000
0010
0000
0010
0100
0000
,
0100
0001
0000
0001
1000
0100
1000
0200
,
0000
0000
0000
0000
0000
0000
0310
0001
,
1000
0001
0100
1001
,
0010
0000
1000
0010
0000
1000
0020
0000
,
0100
1000
0130
0001
,
0010
0000
0100
0010
0000
0100
0020
0000
,
0001
0000
0100
0001
0001
0000
0130
0000
,
1000
0000
0010
1000
0000
0001
1000
0000
,
0001
0100
0000
0010
0100
0001
0001
0020
,
0000
0000
0000
0000
0000
0000
0200
0030
,
0000
0000
0000
0000
,
0301
0100
1000
0010
0100
1000
0001
0010
,
1000
1010
0000
1100
0000
0011
0000
0010
,
0100
1000
0001
1000
0100
0010
0100
1000
,
0000
1100
0000
0110
0000
0011
0000
0001
,
0100
0010
1000
0100
0010
1000
0001
0100
,
1000
0010
0000
0110
0000
0101
0000
0001
,
0010
0001
0200
0000
0000
0000
0000
0000
,
0300
0000
0010
1000
0100
0000
0010
0001
0100
0000
0010
0000
0100
0000
0001
0000
,
0010
0100
1000
0001
0010
1000
0001
0100
,
1000
0010
0000
0110
0000
1001
0000
1000
,
1010
0100
0001
0101
0100
0010
0110
1000
,
0100
1100
0100
0010
0011
0001
1001
0100
,
0010
1000
0001
0100
0010
1000
0001
0100
,
0010
2000
0000
3020
0000
0230
0000
1300
,
0010
1000
0200
0000
0000
0000
0000
0001
,
0001
0000
0000
0000
0000
0320
0000
0000
,
0130
0000
0100
0001
0000
0001
2000
0000
,
0000
0000
0000
3000
1100
0000
0110
0000
,
0011
0000
0000
00MM
0000
0000
1001
0000
0000
M00M
0000
0000
1100
0000
0000
0000
,
0100
0010
0001
1000
0100
0010
0002
0000
,
0103
0000
0100
0010
0000
0010
1000
0100
,
0010
0001
0010
0100
0010
0001
0100
0010
,
2000
0000
0000
0000
0000
0000
3010
0100
,
0001
1000
1001
0001
1001
0010
0011
0001
,
0101
0000
0000
0M0M
0000
0000
0110
0000
0000
M0M0
0000
0000
2020
0000
0000
0000
,
0000
0000
0000
3030
1000
0000
0100
0000
,
0011
0000
0000
00MM
0000
0000
1001
0000
0000
M00M
0000
0000
1100
0000
0000
0000
,
0100
0010
0001
1000
0100
0010
0002
0000
,
0103
0000
0100
0010
0000
0010
1000
0001
,
0020
0001
0001
0130
,
2000
0000
0100
0000
0100
3000
1000
0001
,
0200
0000
0000
0000
,
0310
1000
0100
0010
,
0001
0000
0000
0000
0100
0000
0000
0000
0001
0000
0000
0000
0100
0001
0010
0100
,
1000
0000
0010
0000
0100
0000
0001
0100
,
0001
0010
0100
1000
,
2MMM
0M1M
01MM
0M1M
,
3MM2
0000
0000
0000
0000
0000
0000
0000
MMM3
0000
0000
0000
0000
0200
0000
0000
M0M0
0000
0000
0000
000M
0000
0000
0000
M000
0000
0000
0000
00M0
0000
0000
0000
,
M32M
0000
0000
1M00
000M
0000
MM01
0000
0000
1M0M
0000
0000
,
2030
0000
0000
0000
,
3001
0010
0100
1000
0010
1000
0100
0010
0001
0100
0010
1000
0010
0100
0001
0010
,
0002
0000
0003
1000
0010
1000
0002
0000
0000
0100
0103
0000
0000
0100
0010
1000
,
1000
0001
0100
0010
1000
0100
0010
0001
0010
0100
0010
0001
0100
0010
1000
0001
,
0001
0000
1010
0000
1001
0000
0100
0110
0000
0011
0000
0202
0000
0000
0303
0000
,
2010
0001
0100
0001
0010
0001
3100
0001
,
1002
0010
1000
0100
1000
0010
1000
0100
,
1003
1000
0001
0001
0100
0100
0010
0010
1000
0100
0010
0001
0010
0100
1000
1000
,
0001
0100
0010
1000
0010
0100
0001
0010
0001
1000
0100
1000
0010
1000
0100
1000
,
0001
0010
0011
0001
1000
1010
0100
0010
,
0001
0100
0001
0100
0010
1000
0200
0000
,
0300
0001
0100
1000
0010
0000
0100
0001
,
0010
0001
0100
0010
1000
0000
1000
0000
,
0010
0100
0101
0001
0010
0011
0100
1000
,
0010
1000
0010
1000
0001
0010
0200
0000
,
0000
1300
0010
0001
0010
0000
1000
0100
,
0001
0100
1000
0010
0100
0001
0010
1000
,
0010
0001
0101
0010
1000
1100
0010
0001
,
0100
0010
0100
0010
1000
0100
0020
0000
,
0000
0031
0100
0010
0020
0000
0000
0000
,
0000
1030
0001
0010
0200
0000
0000
0000
,
1300
0001
0101
0001
0100
0110
0010
1000
,
0100
0010
0100
0010
0001
1000
0200
0000
,
0000
0310
0001
0100
0010
0000
0110
0000
,
0101
0000
1000
0100
0010
0001
1000
0100
,
0010
0001
0010
0001
1000
0001
2000
0000
,
0000
3000
1100
0110
,
0001
0010
0001
0010
0100
0010
0200
0000
,
0000
0000
0300
1000
0000
1000
0010
0000
,
0100
0001
0010
0100
1000
0100
0010
0001
,
0100
0001
1000
0001
0100
0010
1000
0100
,
1000
0010
0001
0010
1000
0100
0010
1000
,
0010
0100
0001
0100
0010
0000
0001
0000
,
1000
0001
1001
0001
1000
1001
1000
0010
,
0100
0101
0000
0011
0000
1100
0000
1000
,
0100
0010
0001
0001
0010
0100
1000
0001
,
0000
0011
0000
0101
0000
0110
0000
1010
,
1000
0100
0010
0001
0100
0010
1000
0100
,
0010
0011
0000
1001
0000
1100
0000
0001
,
1000
0010
0200
0000
0000
0000
0000
0000
,
0300
0000
0001
0010
0001
0000
0001
1000
0001
0000
0100
0000
0010
0000
0100
0000
,
0001
0010
0011
0001
0100
0101
0100
0010
,
1000
1010
0000
0110
0000
0101
0000
0001
,
0110
1000
0100
0110
0010
0001
0101
0100
,
0010
1010
1001
0101
0010
0010
1000
1000
,
0001
0100
0010
1000
0001
0100
0010
1000
,
0001
0011
0000
1001
0000
1100
0000
1000
,
0010
1000
0100
0010
0000
0010
1000
0000
,
0010
0000
0010
0001
0000
0001
0100
0000
,
0100
0010
1010
1000
0001
0101
0100
0010
,
1000
0110
0000
1001
0000
1100
0000
1000
,
0100
0010
0001
0001
0010
0100
1000
0001
,
0000
0100
0000
0010
0000
1000
0000
0001
,
1000
0100
0110
0010
0001
0101
0100
0010
,
1000
1010
0000
1001
0000
1100
0000
1000
,
0010
1000
0100
0010
0000
0001
2000
0000
,
0000
0000
3001
0100
0010
0000
1000
0100
0010
0000
0001
0000
0010
0000
0100
0000
,
1000
0010
1010
0001
0010
0011
0010
0100
,
1000
1100
0000
0110
0000
0011
0000
0001
,
1100
0010
0100
0101
0100
0010
1010
1000
,
0100
0110
0011
1001
1000
0010
1000
0100
,
0010
0001
0011
0001
0100
0101
0010
1000
,
0001
0011
0000
1001
0000
1100
0000
1000
,
0010
1000
M002
0M00
00M0
0M00
M000
0M00
,
00M0
0000
0M00
0000
M000
0000
0M00
00M0
0000
0000
0M10
0000
M000
0000
0M00
0000
,
0013
0100
1100
1000
0010
1010
1000
0001
,
0010
0011
0000
0110
0000
1100
0000
1000
,
0010
0100
0001
0010
0001
0100
0010
1000
,
0000
0001
0000
0100
0000
0010
0000
1000
,
0100
0010
0001
0100
0010
0001
1000
0100
,
0010
2000
0000
3020
0000
0230
0000
0301
,
0010
0001
0200
0000
0000
0000
0000
0000
,
0300
0000
0001
0100
0010
0000
1000
0100
0010
0000
0001
0000
0010
0000
0100
0000
,
1001
0000
0000
0000
;
