#TITLE:Karma;
#SUBTITLE:;
#ARTIST:TaQ;
#TITLETRANSLIT:;
#SUBTITLETRANSLIT:;
#ARTISTTRANSLIT:;
#CREDIT:;
#BANNER:karma.png;
#BACKGROUND:KARMAbg.png;
#LYRICSPATH:;
#CDTITLE:2kM Spread.png;
#MUSIC:Karma.mp3;
#OFFSET:-1.060;
#SAMPLESTART:37.060;
#SAMPLELENGTH:12.000;
#SELECTABLE:YES;
#BPMS:0.000=200.040;
#STOPS:;
#BGCHANGES:;
// cache tags:
#FIRSTBEAT:0.000;
#LASTBEAT:372.000;
#SONGFILENAME:Songs/Fresh Flock of Fantastic Files F4/(2kM) Karma/karma.sm;
#HASMUSIC:1;
#HASBANNER:1;
#MUSICLENGTH:113.640;
// end cache tags

//---------------dance-single - ----------------
#NOTES:
     dance-single:
     :
     Hard:
     11:
     1.000,1.000,1.000,0.150,0.317,712.000,149.000,17.000,0.000,0.000:
0002
0000
0000
0000
,
0000
0000
0000
0000
,
0000
0000
0000
0000
,
0000
0000
0000
0000
,
0000
0000
0000
0000
,
0000
0000
0000
0003
,
1000
0100
0010
0001
0000
0100
0010
1000
,
0001
0010
0100
0010
0100
1000
0001
0010
,
0100
1000
0010
0100
0000
0001
1000
0100
,
0010
0001
0100
0001
1000
0100
0010
0100
,
1001
0100
1000
0110
0000
0011
0100
1000
,
0011
0100
0010
1000
0001
1010
1010
0100
,
1001
0100
0010
1100
0000
0110
0001
0010
,
1001
0100
0001
0010
0100
1000
0100
0010
,
1001
0000
1010
0001
0000
0001
1010
0000
,
1001
0000
0011
1000
0000
1000
0011
0000
,
1001
0000
1100
0001
0000
0001
1100
0000
,
1001
0000
0101
1000
0000
1000
0101
0000
,
1001
0000
1001
0110
0000
0110
1001
0000
,
1001
0000
0110
1001
0000
1001
0110
0000
,
1001
0000
1100
0011
0000
0011
1100
0000
,
1001
0000
0101
1010
0110
1100
0011
0000
,
1001
0100
0011
1100
0010
0101
1010
0100
,
1001
0100
1010
0101
0010
0101
1010
0100
,
1001
0010
1001
0110
0001
0110
1001
0100
,
1001
0010
1100
0011
0100
0011
1100
0010
,
1001
0010
0101
1010
0100
1010
0101
0010
,
1001
0100
1010
0101
0010
0101
1010
0100
,
1001
0010
1001
0110
1000
0110
1001
0010
,
1001
0010
1100
0011
1010
0101
1001
0100
,
0020
0030
1001
1001
0010
0001
1000
0100
,
0010
0000
0001
0000
0100
0000
0010
0000
1000
0000
0001
0000
0010
0100
1000
0010
,
0200
0300
0011
0011
1000
0001
0010
0100
,
1000
0000
0010
0000
0100
0000
0001
0000
1000
0000
0100
0000
0010
0001
0010
0100
,
2000
3000
0110
0110
0001
1000
0100
0010
,
0001
0000
1000
0000
0001
0000
0100
0000
0010
0000
1000
0000
0010
0100
0001
0010
,
0200
0300
1000
0001
0100
0010
1000
0001
,
0100
0000
0010
0000
1000
0000
0100
0000
0001
0000
0100
0000
1000
0100
0010
0001
,
0200
0310
1001
1001
0110
1000
0101
0010
,
1001
0000
0100
0000
0011
0000
0100
0000
1010
0000
0001
0000
1000
0100
0010
0001
,
0020
0031
1100
1100
0110
0001
1010
0001
,
1100
0000
0010
0000
1001
0000
0100
0000
0011
0000
0100
0000
1000
0100
0010
0001
,
0200
0310
1001
1001
0110
1000
0110
0001
,
0110
0000
1000
0000
0011
0000
0100
0000
1001
0000
0010
0000
0100
1000
0100
0010
,
0002
0103
1010
1010
0110
0001
1010
0100
,
1001
0010
1100
0001
1010
0100
1010
0100
,
1001
0010
0001
0010
0100
1000
0100
0010
,
0000
0001
0100
0010
1000
0100
0010
0001
,
1000
0001
0010
0100
1000
0001
0010
0100
,
0000
1000
0001
1000
0010
0100
0001
0010
,
0100
1000
0100
0010
0001
0010
0001
0100
,
0000
0010
0100
0001
1000
0001
0010
0100
,
1000
0100
0010
0100
0010
0001
0100
0010
,
0000
1000
0100
0010
0001
1000
0010
0100
,
0020
0030
0100
0100
0000
0000
0000
0010
,
0100
0000
1000
0000
0010
0000
0100
0000
0001
0000
0010
0000
0100
1000
0100
0010
,
0002
0003
1000
1000
0000
0000
0000
0100
,
0010
0000
0001
0000
1000
0000
0001
0000
0100
0000
0010
0000
1000
0001
0010
0100
,
2000
3000
0010
0010
0000
0000
0000
0100
,
0010
0000
0001
0000
1000
0000
0001
0000
0100
0000
0010
0000
1000
0010
0100
0001
,
0020
0030
0101
0101
0000
0000
0000
1001
,
0000
1100
1010
0011
0101
1001
0000
0000
,
1000
0100
1001
0010
0100
1001
0010
1001
,
0100
0010
0100
1001
0010
1000
0100
0010
,
0001
0100
1010
0100
0001
1010
0100
1010
,
0001
1000
0100
1010
0100
0001
1000
0100
,
0010
0100
0011
1000
0100
0011
1000
0011
,
0100
0001
1000
0011
1000
0100
0010
0001
,
0100
0010
1001
0100
0010
1001
0100
1001
,
0010
0001
0100
1001
0100
0010
0001
0100
,
0001
0000
0010
0000
0001
0010
0100
0000
1000
0000
0001
0100
0010
0000
1000
0000
,
0010
0100
0001
0000
1000
0000
0100
0010
0001
0000
1000
0000
0010
0000
0100
0000
,
0001
0000
0010
0000
0100
1000
0010
0000
1000
0000
0001
1000
0010
0000
0100
0000
,
0001
1000
0100
0000
0010
0000
0100
1000
0010
0000
1000
0000
0001
0000
0010
0000
,
0100
0000
0010
0000
0100
1000
0001
0000
0010
0000
0100
0010
0001
0000
1000
0000
,
0001
0100
0010
0000
1000
0000
0100
0010
0001
0000
0100
0000
0010
0000
1000
0000
,
0010
0000
0100
0000
0001
1000
0010
0000
0100
0000
0001
0100
0010
0000
1000
0100
,
0010
0000
0001
0000
1000
0000
0010
0100
0001
0000
1000
0000
0010
0000
0100
0000
,
1001
0000
0100
0000
0001
0010
0100
0000
0010
0000
0001
1000
0100
0000
0010
0000
,
0100
1000
0001
0000
0010
0000
0001
1000
0010
0000
1000
0000
0010
0000
0100
0000
,
1001
0000
0100
0000
0010
1000
0001
0000
1000
0000
0001
0100
0010
0000
1000
0000
,
0100
0010
0001
0000
0010
0000
0100
1000
0001
0000
1000
0000
0100
0000
0010
0000
,
1001
0000
0100
0000
0001
1000
0010
0000
1000
0000
0100
0010
0001
0000
1000
0000
,
0001
1000
0100
0000
1000
0000
0100
0010
0001
0000
0100
0000
0010
0000
0100
0000
,
1001
0000
0100
0000
0001
0010
0100
0000
1000
0000
0001
0100
0010
0000
1000
0100
,
0010
0000
0001
0000
0100
0000
0001
0010
0100
0000
1000
0000
0010
1000
0100
0010
,
0002
0000
0103
0000
0001
0000
0100
0010
0100
0000
0010
0000
1000
0000
0100
0000
,
0000
0000
1000
0100
0010
0000
0010
0100
1000
0000
1000
0100
0010
0001
0010
0100
,
2000
0000
3100
0000
0010
0000
0001
0100
0001
0000
1000
0000
0100
0000
0010
0000
,
0000
0000
0001
0010
0100
0000
0100
0010
0001
0000
0001
0010
0100
1000
0100
0010
,
0002
0000
0103
0000
0010
0000
1000
0001
1000
0000
0100
0000
0010
0000
0001
0000
,
0000
0000
1000
0100
0010
0000
0100
0010
0001
0000
1000
0010
0100
0001
0010
0100
,
2000
3000
0001
0100
0010
1000
0100
0010
,
1001
0000
0000
0000
;
