#TITLE:For Wasabi;
#SUBTITLE:;
#ARTIST:Milk and Donkey;
#TITLETRANSLIT:;
#SUBTITLETRANSLIT:;
#ARTISTTRANSLIT:;
#CREDIT:;
#BANNER:wasabi.png;
#BACKGROUND:wasabi-bg.png;
#LYRICSPATH:For Wasabi.lrc;
#CDTITLE:;
#MUSIC:Wasabi.mp3;
#OFFSET:3.000;
#SAMPLESTART:34.317;
#SAMPLELENGTH:12.000;
#SELECTABLE:YES;
#BPMS:0.000=160.100;
#STOPS:;
#BGCHANGES:;
// cache tags:
#FIRSTBEAT:8.000;
#LASTBEAT:270.000;
#SONGFILENAME:Songs/IzzySM Keyboard Mega Pack/For Wasabi/For Wasabi.sm;
#HASMUSIC:1;
#HASBANNER:1;
#MUSICLENGTH:97.936;
// end cache tags

//---------------dance-single - SMANIAC----------------
#NOTES:
     dance-single:
     SMANIAC:
     Challenge:
     10:
     1.000,1.000,0.031,0.051,1.000,897.000,3.000,5.000,0.000,0.000:
0000
0000
0000
0000
,
0000
0000
0000
0000
,
1000
0001
0010
0100
0010
0001
1000
0001
1000
0100
0010
0001
1000
0010
0100
0010
,
0100
0001
1000
0100
0010
0001
0010
0100
1000
0010
0100
0001
1000
0001
0100
0010
,
1000
0001
0100
0010
0100
0001
0100
0010
1000
0010
0100
0001
1000
0001
1000
0100
,
0010
0001
1000
0100
1000
0001
0100
0001
0010
0100
1000
0001
1000
0010
0100
0010
,
1000
0100
0010
0001
0010
0100
1000
0001
1000
0010
0100
0010
1000
0001
1000
0001
,
0000
0000
0000
0000
,
0000
0000
0000
0000
,
0000
0000
0000
0000
,
0000
0000
0000
0000
,
1000
0001
1000
0010
0100
0010
1000
0001
1000
0100
0010
0100
1000
0001
0010
0100
,
0010
0001
1000
0100
0010
0001
1000
0001
1000
0100
0010
0001
0100
0010
1000
0100
,
0001
0100
1000
0010
0100
0001
1000
0100
0010
0100
1000
0001
0010
0001
0100
0010
,
1000
0001
0010
0100
1000
0100
0010
0001
0010
0100
1000
0100
0001
0100
1000
0010
,
0001
0010
1000
0001
1000
0100
0010
0001
0010
0100
1000
0001
1000
0100
0010
0001
,
0100
0010
0100
0001
1000
0100
0010
0001
1000
0100
0010
0001
1000
0100
0010
0001
,
0010
0100
1000
0010
0100
0010
1000
0001
1000
0100
0001
0100
0010
0100
1000
0001
,
1000
0001
0100
0010
1000
0010
0100
0001
0010
0001
1000
0100
1000
0100
0010
0001
,
0010
0100
1000
0001
1000
0100
0010
0100
1000
0001
0010
0100
1000
0100
0010
0100
,
1000
0001
0100
0001
0010
0100
1000
0001
0010
0100
0010
0100
1000
0001
1000
0001
,
1000
0100
0010
0001
0010
0100
1000
0001
1000
0100
0010
0001
0010
0100
1000
0001
,
0010
0100
0010
0100
1000
0001
0100
0010
1000
0100
1000
0100
1000
0001
1000
0100
,
0010
0001
1000
0100
0010
0100
1000
0010
0100
0001
0010
0001
1000
0100
0001
0100
,
1000
0001
0100
0010
1000
0001
0010
0100
1000
0100
0010
0100
1000
0001
1000
0001
,
1000
0001
0100
0001
0100
0001
1000
0100
0010
0001
0010
0100
1000
0100
1000
0100
,
1000
0001
0010
0001
0010
0001
1000
0001
1000
0100
0010
0001
0100
0001
0100
0010
,
0001
0010
1000
0100
0001
0100
1000
0001
0100
0001
0010
0001
0100
0001
0100
0001
,
1000
0001
1000
0100
1000
0010
1000
0100
1000
0010
1000
0100
0010
0001
0100
0001
,
0010
0001
0100
0001
1000
0100
0010
0001
0010
0100
1000
0100
0010
0001
0010
0001
,
0010
0001
1000
0010
1000
0010
1000
0001
1000
0100
1000
0100
0010
0001
0010
0100
,
0010
0100
0010
0001
0100
0010
0100
0010
1000
0001
1000
0100
1000
0100
1000
0010
,
0100
0001
0100
0010
1000
0001
1000
0001
0010
0100
0010
1000
0010
0100
0010
0001
,
0010
0100
1000
0001
1000
0100
0010
0001
0010
0100
0010
0100
1000
0100
1000
0001
,
0100
0001
0100
0001
1000
0100
0010
0001
0100
0010
1000
0100
0010
0001
0100
0010
,
1000
0100
0010
0001
0100
0010
1000
0100
0010
0001
1000
0010
0100
0001
1000
0001
,
1000
0100
0010
0100
0010
0100
1000
0100
1000
0100
1000
0001
0010
0100
1000
0010
,
0100
0001
0010
0100
1000
0010
0100
0001
0010
0100
1000
0001
0010
0001
0010
0001
,
1000
0100
0010
0001
0010
0100
1000
0001
1000
0100
0010
0001
0100
0010
1000
0100
,
0010
0100
0010
0001
0010
0001
0010
0001
1000
0001
1000
0001
1000
0001
1000
0001
,
1000
0001
0010
0001
0010
0100
1000
0010
0100
0010
0001
0010
0100
0010
0001
0010
,
0100
0010
0001
0010
0100
0010
0100
0001
1000
0010
0100
0001
0100
0010
0100
0001
,
0010
0100
1000
0100
1000
0001
0010
0001
1000
0100
1000
0001
0010
0001
1000
0100
,
1000
0001
0010
0001
1000
0100
1000
0001
0010
0001
1000
0100
1000
0001
1000
0001
,
1000
0001
1000
0001
1000
0001
1000
0001
1000
0010
0100
0010
1000
0100
1000
0010
,
0100
0010
1000
0100
1000
0001
0010
0001
0010
0100
1000
0001
1000
0100
0010
0001
,
1000
0010
0100
0010
1000
0001
0010
0100
1000
0100
0010
0001
0010
0100
1000
0100
,
0010
0001
0010
0100
1000
0001
1000
0001
1000
0100
1000
0100
1000
0001
0100
0001
,
0100
0001
0100
0010
0100
0001
1000
0100
0010
0001
0100
0010
1000
0010
0100
0001
,
1000
0100
0010
0001
1000
0001
1000
0001
1000
0001
1000
0001
1000
0100
1000
0100
1000
0100
1000
0100
1000
0100
1000
0100
,
1000
0100
1000
0100
0010
0001
1000
0001
1000
0100
0010
0100
1000
0001
0010
0100
,
1000
0001
0100
0001
1000
0001
1000
0010
0100
0001
0100
0010
1000
0010
0100
0001
,
0100
0001
0010
0001
0010
0100
1000
0100
0010
0001
0010
0100
1000
0100
1000
0001
,
0100
0001
0010
0100
1000
0001
1000
0100
0010
0001
0010
0100
1000
0010
0100
0010
,
0100
0001
0010
0100
1000
0100
1000
0100
1000
0001
0100
0001
0100
0001
0010
0100
,
1000
0100
0010
0100
0010
0100
1000
0001
0010
0100
0010
0001
0010
0100
1000
0100
,
1000
0001
1000
0001
1000
0010
1000
0010
1000
0100
0010
0001
0010
0100
1000
0010
,
0100
0001
0010
0100
1000
0010
0100
0001
0010
0100
1000
0001
0010
0100
1000
0001
,
0010
0100
1000
0001
1000
0001
1000
0100
0010
0001
1000
0100
0010
0001
1000
0100
,
0010
0001
0010
0100
0010
0100
1000
0001
1000
0010
0100
0001
0100
0001
1000
0010
,
1000
0001
0100
0001
1000
0010
1000
0001
0100
0001
1000
0010
1000
0001
0100
0001
,
0002
0000
0000
0000
,
0003
2000
0000
0000
0000
0000
0001
0000
0000
0000
0000
0000
0000
0000
0000
0000
,
0000
3000
0002
0000
0000
0000
0000
0000
0000
0000
0000
0000
0000
0000
0000
0000
,
0000
0003
2000
0000
0000
0000
0000
0000
0000
0000
0000
0000
0000
0000
0000
0000
,
0000
3000
0002
0000
0000
0000
0000
0000
0000
0000
0000
0000
0000
0000
0000
0000
,
0003
1001
0000
0000
0000
0000
1001
0000
0000
0000
0000
0000
1001
0000
0000
0000
;

//---------------dance-single - Easy----------------
#NOTES:
     dance-single:
     Easy:
     Easy:
     3:
     0.166,0.310,0.153,0.143,0.015,85.000,15.000,14.000,0.000,0.000:

0000
0000
0000
0000
,
0000
0000
0000
0000
,
2000
0000
0000
0000
,
3002
0000
0000
0000
,
0203
0000
0000
0000
,
0320
0000
0000
0000
,
2030
0000
0000
0000
,
3002
0000
0000
0000
,
0203
0000
0000
0000
,
0320
0000
0000
0000
,
0030
0000
0000
0000
,
1000
0000
0010
0000
,
1000
0000
0000
0000
,
0001
0000
0010
0000
,
0001
0000
0000
0000
,
1000
0000
0010
0000
,
1000
0000
0000
0000
,
0001
0000
0010
0000
,
0001
0000
0000
0000
,
1000
0000
0100
0000
,
1000
0000
0100
0000
,
0001
0000
0100
0000
,
0001
0000
0100
0000
,
1000
0000
0100
0000
,
1000
0000
0100
0000
,
0001
0000
0100
0000
,
0001
0000
0100
0000
,
1000
0000
1001
0000
,
1000
0000
1100
0000
,
1000
0000
1010
0000
,
0001
0000
1001
0000
,
0001
0000
0011
0000
,
0001
0000
0101
0000
,
1001
0000
0110
0000
,
1100
0000
0011
0000
,
2002
0000
0000
0000
,
0000
0000
0000
0000
,
0000
0000
0000
0000
,
0000
0000
0000
0000
,
0000
0000
0000
0000
,
0000
0000
3003
0000
,
1000
0000
0100
0000
,
1000
0000
0000
0000
,
0001
0000
0100
0000
,
0001
0000
0000
0000
,
1000
0000
0010
0000
,
1000
0000
0000
0000
,
1000
0000
0010
0000
,
1000
0000
0000
0000
,
1000
0000
0100
0000
,
0010
0000
0001
0000
,
0010
0000
0100
0000
,
1000
0000
0010
0000
,
0100
0000
0001
0000
,
0010
0000
0100
0000
,
0010
0000
0001
0000
,
0100
0000
0010
0000
,
2002
0000
0000
0000
,
0000
0000
0000
0000
,
0000
0000
0000
0000
,
0000
0000
0000
0000
,
0000
0000
0000
0000
,
0000
0000
0000
0000
,
0000
0000
0000
0000
,
0000
0000
0000
0000
,
0000
0000
3003
0000
,
0000
1001
0000
0000
0000
0000
0000
0000
0000
0000
1001
0000
0000
0000
0000
0000
0000
0000
0000
2002
0000
0000
0000
0000
,
0000
0000
3003
0000
;

//---------------dance-single - Hard----------------
#NOTES:
     dance-single:
     Hard:
     Hard:
     9:
     0.617,0.579,0.133,0.204,0.015,390.000,13.000,20.000,0.000,0.000:
0000
0000
0000
0000
,
0000
0000
0000
0000
,
1000
0001
0000
0001
1000
0000
0010
0100
,
0010
1000
0000
0001
0010
0000
1000
0000
,
0010
0100
0000
0001
1000
0000
0100
0010
,
0001
1000
0000
1000
1000
0000
0001
0000
,
0001
0010
0000
0100
1000
0000
0100
0010
,
0100
1000
0000
1000
0100
0000
0100
0000
,
0100
0100
0000
0001
0010
0000
0100
1000
,
1000
0001
0000
0001
0010
0000
1000
0000
,
0000
0000
0000
0000
,
1000
0100
1000
0100
1000
0100
1000
0100
,
1000
0001
0010
0001
0010
0001
0010
0001
,
1000
0010
0100
0010
0100
0010
0100
0010
,
1000
0001
1000
1000
0100
0010
0001
1000
,
0001
0001
0010
0100
1000
0100
1000
0001
,
0010
0100
0010
0100
0010
0100
0010
0100
,
1000
0100
0010
0001
0100
0010
1000
0100
,
0010
0001
1000
0001
1000
0100
0010
0100
,
1000
0001
1000
0001
1000
0001
1000
0001
,
0001
0010
0001
1000
0001
0100
0001
0010
,
0100
0100
1000
0100
1000
0010
1000
0001
,
1000
1000
0100
0010
0001
0010
0100
1000
,
1000
0001
1000
0010
1000
0100
0000
0100
,
1000
0100
1000
0100
0010
0010
0100
1000
,
0001
1000
0010
0100
0010
1000
0001
1000
,
0001
1000
0001
1000
0000
0001
0001
0000
,
1000
0100
0010
0001
0010
0100
1000
0001
,
1000
0001
0010
0001
0010
0001
0010
0100
,
1000
0100
1000
0100
1000
0010
0100
0010
,
1000
0001
0010
0100
0010
0001
1000
0100
,
1000
1000
0100
0010
0001
0010
0000
0100
,
1000
0001
0010
0100
1000
0010
0100
0010
,
1000
0001
0010
0100
1000
0010
0100
0010
,
1000
1000
1000
1000
0000
0100
1000
0000
,
0000
0000
0000
0000
0000
0000
0000
2002
0000
0000
0000
0000
0000
0000
3003
0000
,
0000
0000
0000
0000
,
1000
0100
1000
0000
1000
0100
1000
0000
,
1000
0100
1000
0000
1000
0100
1000
0000
,
0001
0010
0001
0000
0001
0010
0001
0000
,
0001
0010
0001
0000
0001
0010
0001
0000
,
1000
0100
0010
0001
0010
0100
1000
0100
,
0010
0001
1000
0001
1000
0010
0100
0010
,
0100
0001
0010
0001
0010
0100
1000
0010
,
0100
0000
0010
0000
1000
0000
0000
0100
1000
0000
0010
0000
0010
0000
0000
0000
,
0001
1000
0001
0010
0100
1000
0010
0100
,
0010
1000
0010
0001
0010
1000
0001
0100
,
1000
0100
0001
0100
0001
1000
0100
0010
,
0100
0000
1000
0000
0010
0000
0000
0100
0001
0000
0010
0000
0010
0000
0000
0000
,
1000
0001
1000
0001
1000
0001
1000
0001
,
1000
1000
0100
1000
0010
1000
0100
1000
,
0010
0010
0001
0010
1000
0010
0001
0010
,
1000
1000
0100
1000
0100
0001
0100
1000
,
0100
0001
0100
1000
0001
0100
0000
0100
,
0001
0100
0010
1000
0010
0100
0001
0100
,
0001
1000
0010
1000
0010
1000
0001
0010
,
0100
1000
0100
0010
0000
0001
0001
0000
,
2002
0000
0000
0000
0000
0000
0000
3003
,
0202
0000
0000
0000
0000
0000
0000
0303
,
2200
0000
0000
0000
0000
0000
0000
3300
,
0022
0000
0000
0000
0000
0000
0000
0033
,
2020
0000
0000
0000
0000
0000
0000
3030
,
0202
0000
0000
0000
0000
0000
0000
0303
,
0220
0000
0000
0000
0000
0000
0000
0330
,
2002
0000
0000
0000
0000
0000
0000
3003
,
2200
0000
0000
0000
0000
0000
0000
3300
,
1001
0000
0000
0101
0000
0000
0110
0000
;

//---------------dance-single - ----------------
#NOTES:
     dance-single:
     :
     Medium:
     7:
     0.521,0.613,0.388,0.123,0.000,307.000,38.000,12.000,0.000,0.000:
0000
0000
0000
0000
,
0000
0000
0000
0000
,
1000
0001
1000
0100
0010
0001
0000
0001
,
0010
0100
1000
0100
0010
0001
0000
0001
,
0010
0100
1000
0100
0010
0001
1000
0100
,
0010
0001
0010
0100
1000
0100
0000
0000
,
0001
1000
0000
0001
1000
0000
0001
1000
,
0000
1000
0001
0000
1000
0001
1000
0000
,
0010
0100
0000
0010
0100
0000
1000
0100
,
0000
1000
0100
0000
0100
1000
0100
0000
,
0000
0000
0000
0000
,
1000
0100
0010
0001
0000
1001
0000
0001
,
0010
0100
1000
0000
1001
0000
1001
0000
,
1000
0100
0010
0001
0000
0001
0010
0100
,
1000
0010
0100
0000
0110
0000
0110
0000
,
1000
0001
1000
0100
0000
0110
0000
0010
,
0100
0010
0100
0000
1010
0000
0101
0000
,
1000
0100
1000
0001
0000
1100
0000
0001
,
0100
0010
1000
0000
1100
0000
0011
0000
,
1000
0100
0010
0001
0000
1000
0100
0010
,
0001
0001
0001
0001
,
0001
0010
0100
1000
0000
0001
0010
0100
,
1000
1000
1000
1000
,
0100
0010
0001
0100
0010
0100
0000
1000
,
0100
0010
0001
0010
0100
0100
0000
1000
,
0001
1000
0001
1000
0001
1000
0001
1000
,
0001
0000
0001
0000
0001
1000
0001
0000
,
1000
0100
1000
0100
1000
0100
0000
0001
,
0010
0001
0010
0001
0010
0001
0000
0100
,
0010
0100
0010
0100
0010
0100
0000
0001
,
1000
0010
0100
0001
1000
0100
0001
0000
,
1000
0100
0010
0001
0010
0100
0000
1000
,
0100
0010
0001
0010
0100
0000
1001
0000
,
1000
0100
0010
0001
0010
0100
1000
0100
,
0000
0010
0100
0010
0000
1001
0101
0000
,
0000
0000
0000
0000
,
0000
0000
0000
0000
,
1000
1000
1000
0000
0001
0001
0001
0000
,
0100
0100
0100
0000
1000
0100
0010
0000
,
0001
0010
0100
0000
1000
0100
0010
0000
,
0001
1000
0001
0000
0100
0010
0100
0000
,
0001
0001
0001
0001
,
1000
1000
1000
1000
,
0100
0100
0100
0100
,
0010
0010
0010
0010
,
1000
1000
1000
1000
,
0001
0001
0001
0001
,
0010
0010
0010
0010
,
0100
0100
0100
0100
,
1001
0101
1010
0011
,
1100
0011
0110
1100
,
0011
1010
0011
1010
,
0101
0110
0110
1001
,
1000
0100
0010
0001
0010
0100
0000
1000
,
0100
0010
0001
0010
0100
0000
0110
0000
,
0001
0100
0010
1000
0100
1000
0100
0010
,
0001
0000
1001
0000
0000
1001
0110
0000
,
0200
0000
0000
0000
0000
0000
0000
0300
,
0020
0000
0000
0000
0000
0000
0000
0030
,
2000
0000
0000
0000
0000
0000
0000
3000
,
0002
0000
0000
0000
0000
0000
0000
0003
,
2002
0000
0000
0000
0000
0000
0000
3003
,
0220
0000
0000
0000
0000
0000
0000
0330
,
0002
0000
0000
0000
0000
0000
0000
0003
,
2000
0000
0000
0000
0000
0000
0000
3000
,
0202
0000
0000
0000
0000
0000
0000
0303
,
0001
0000
0000
0001
0000
0000
1001
0000
;
