#TITLE:Asator;
#SUBTITLE:;
#ARTIST:Amon Amarth;
#TITLETRANSLIT:;
#SUBTITLETRANSLIT:;
#ARTISTTRANSLIT:;
#CREDIT:;
#BANNER:asator-bn.png;
#BACKGROUND:asator-bg.png;
#LYRICSPATH:;
#CDTITLE:mootz cdtitle 2.png;
#MUSIC:Asator.ogg;
#OFFSET:-0.232;
#SAMPLESTART:37.483;
#SAMPLELENGTH:12.000;
#SELECTABLE:YES;
#BPMS:0.000=180.000;
#STOPS:;
#BGCHANGES:;
// cache tags:
#FIRSTBEAT:5.500;
#LASTBEAT:543.000;
#SONGFILENAME:Songs/SSSC Pack 2/Asator - [Mootz]/Asator.sm;
#HASMUSIC:1;
#HASBANNER:1;
#MUSICLENGTH:184.111;
// end cache tags

//---------------dance-single - Mootz----------------
#NOTES:
     dance-single:
     Mootz:
     Challenge:
     14:
     1.000,1.000,0.299,0.125,1.000,1588.000,55.000,23.000,16.000,0.000:




0000
0000
0000
0000
,
0000
0000
0000
1001
1010
1001
0012
0000
,
1003
0000
0001
0100
0001
0000
1000
0000
0001
0100
0001
0000
1000
0100
1000
0100
,
0010
0000
0001
0010
0001
0000
1000
0000
0010
0000
0010
0000
0100
0000
0100
0000
,
0001
0000
1000
0100
1000
0000
0001
0000
1000
0100
1000
0000
0001
0100
0001
0100
,
0010
0000
1000
0010
1000
0000
0001
0000
0010
0000
0010
0000
0100
0000
0100
0000
,
1000
0000
0001
0010
0100
0000
1000
0000
0001
0100
0010
0000
1000
0010
1000
0010
,
0100
0000
0001
1000
0001
0000
1000
0000
0100
0000
0100
0000
0010
0000
0010
0000
,
0001
0000
1000
0100
0010
0000
0001
0000
1000
0010
0100
0000
0001
0100
0001
0100
,
0010
1000
0010
1000
0001
1000
0001
1000
0100
0010
0001
0010
0100
1000
0001
1000
,
0010
0000
0100
0010
1000
0000
1010
0000
0010
0000
1000
0001
0010
0100
0010
0100
,
1000
0000
0100
1000
0100
0000
1000
0000
0001
1000
0001
1000
0010
1000
0010
1000
,
0001
0000
1000
0001
0100
0000
0101
0000
0001
0000
0100
0010
1000
0001
1000
0001
,
0010
0000
0001
0010
0001
0000
0010
0000
0100
1000
0100
1000
0001
0100
0001
0100
,
0010
0000
0100
0001
1000
0000
1010
0000
0010
0000
0100
0001
1000
0100
1000
0100
,
0010
0000
0001
0010
0001
0000
0010
0000
0001
1000
0001
1000
0010
0100
0010
0100
,
0001
0000
1000
0100
0010
0000
0011
0000
0001
0000
1000
0010
0100
0001
0100
0001
,
1000
0100
0010
0001
1000
0001
1000
0010
0100
0001
0100
0010
1000
0100
1000
0001
,
0100
0101
1010
0011
,
1100
0000
0000
0000
1001
0000
0000
0000
1000
0010
1000
0010
0100
0010
0100
0010
,
1000
0001
0010
0001
0100
0010
1000
0010
0100
0001
0100
0001
1000
0100
1000
0100
,
0010
0001
1000
0001
0010
0100
1000
0100
0010
0001
1000
0001
0100
0010
0100
0001
,
1000
0100
1000
0001
0100
0010
0100
0010
1000
0001
0010
0100
1000
0001
1000
0100
,
0010
0001
0010
0001
0010
0001
1000
0001
0100
0010
0100
0010
0100
0001
0100
0001
,
1000
0100
1000
0001
0100
0010
0100
0001
1000
0100
0010
0001
1000
0010
0100
0001
,
1000
0010
1000
0010
0100
0001
0100
0001
1000
0100
0010
0100
1000
0001
0100
0010
,
1000
0001
1000
0001
0010
0001
1000
0001
0100
0001
1000
0001
0010
0100
1000
0010
,
0100
0001
0100
0001
0100
0001
1000
0001
0010
0100
0010
0100
1000
0100
1000
0100
,
1000
0001
0100
0001
0010
0100
1000
0100
0010
0001
0010
0001
1000
0010
1000
0010
,
0100
0001
1000
0001
0100
0010
1000
0010
0100
0001
1000
0001
0010
0100
0010
0001
,
1000
0010
1000
0001
0010
0100
0010
0100
1000
0001
0100
0010
1000
0001
1000
0010
,
0100
0001
0100
0001
0100
0001
1000
0001
0010
0100
0010
0100
0010
0001
0010
0001
,
1000
0010
1000
0001
0010
0100
0010
0001
1000
0010
0100
0001
1000
0100
0010
0001
,
1000
0100
1000
0100
0010
0001
0010
0001
1000
0010
0100
0010
1000
0001
0010
0100
,
1000
0001
1000
0001
0100
0001
1000
0001
0010
0001
1000
0001
0100
0010
1000
0100
,
0010
0001
0010
0001
0010
0001
1000
0001
0100
0010
0100
0010
1000
0010
1000
0010
,
0100
0000
0001
1000
0001
0000
0010
0000
0001
1000
0001
0000
1000
0010
1000
0010
,
0100
0000
0001
0100
0001
0000
1000
0000
0100
0000
0100
0000
0010
0000
0010
0000
,
0001
0000
1000
0010
1000
0000
0100
0000
1000
0010
1000
0000
0001
0010
0001
0010
,
0100
0000
1000
0100
1000
0000
0001
0000
0100
0000
0100
0000
0010
0000
0010
0000
,
1000
0000
0001
0100
0010
0000
1000
0000
0001
0010
0100
0000
1000
0100
1000
0100
,
0010
0000
0001
1000
0001
0000
1000
0000
0010
0000
0010
0000
0100
0000
0100
0000
,
0001
0000
1000
0010
0100
0000
0001
0000
1000
0100
0010
0000
0001
0010
0001
0010
,
0100
0000
0100
1000
0001
1000
0001
1000
0010
0100
0001
0100
0010
1000
0001
1000
,
0100
0000
0010
0100
1000
0000
1100
0000
0100
0000
1000
0001
0100
0010
0100
0010
,
1000
0000
0010
1000
0010
0000
1000
0000
0001
1000
0001
1000
0100
1000
0100
1000
,
0001
0000
1000
0001
0010
0000
0011
0000
0001
0000
0010
0100
1000
0001
1000
0001
,
0100
0000
0001
0100
0001
0000
0100
0000
0010
1000
0010
1000
0001
0010
0001
0010
,
0100
0000
0010
0001
1000
0000
1100
0000
0100
0000
0010
0001
1000
0010
1000
0010
,
0100
0000
0001
0100
0001
0000
0100
0000
0001
1000
0001
1000
0100
0010
0100
0010
,
0001
0000
1000
0010
0100
0000
0101
0000
0001
0000
1000
0100
0010
0001
0010
0001
,
1000
0000
0010
1000
0001
0100
0001
0100
0001
1000
0001
1000
0100
0010
0100
0010
,
0001
1000
0001
1000
0010
0100
0001
1000
0001
0010
0001
1000
0100
0010
0100
0010
,
0001
1000
0100
1000
0010
0100
0001
0100
0010
1000
0010
1000
0001
1000
0001
1000
,
0100
0010
0100
1000
0001
1000
0010
0100
0001
1000
0001
1000
0010
1000
0010
1000
,
0001
0100
0010
0100
0001
1000
0100
1000
0001
0100
0010
0100
0001
1000
0100
1000
,
0001
1000
0001
1000
0100
0010
0001
1000
0001
0100
0001
1000
0010
0100
0010
0100
,
0001
1000
0010
1000
0100
0010
0001
0010
0100
1000
0100
1000
0001
1000
0001
1000
,
0010
0100
0010
1000
0001
1000
0100
0010
0001
1000
0001
1000
0100
1000
0100
1000
,
0001
0010
0100
0010
0001
1000
0010
1000
0001
0010
0100
0010
0001
1000
0010
1000
,
0002
0000
0103
0010
1010
0000
1020
0000
,
2030
3200
0301
0200
0310
0001
1000
0010
,
0110
0000
0100
0001
1001
0000
1002
0000
,
1003
0100
0001
0100
1000
0010
0001
0010
,
2000
0000
3010
0100
0101
0000
0201
0000
,
0302
0023
1030
0020
0130
1000
0001
0100
,
0110
0000
0010
1000
1001
0000
2001
0000
,
3001
0000
0010
0100
1000
0001
1000
0010
0100
0001
0100
0001
1000
0100
1000
0100
,
M01M
0000
1000
0010
0000
0001
0000
0001
,
0100
0000
1000
0100
0000
0001
1MM1
0000
,
11MM
0000
0100
0010
0000
0001
0000
0001
,
1MM1
0000
1000
0000
0001
0010
0100
1000
0001
0100
0001
0100
0001
1000
0001
1000
,
01MM
0000
0001
0100
0000
1000
0000
1000
,
0010
0000
0001
0010
0000
1000
1MM1
0000
,
MM11
0000
0010
0100
0000
1000
0000
1000
,
1MM1
0000
0001
0000
1000
0100
0010
0001
1000
0010
1000
0010
1000
0010
1000
0010
,
0100
0100
0100
0001
0010
0010
0010
0010
,
0010
0010
0010
0100
1000
1000
0001
0001
,
0100
0100
0100
0010
1000
1000
1000
1000
,
0001
0010
0001
0010
0001
0010
0001
0010
0100
1000
0100
1000
0100
1000
0100
1000
,
0010
0010
0010
1000
0100
0100
0100
0100
,
0100
0100
0100
0010
0001
0001
1000
1000
,
0010
0010
0010
0100
0001
0001
0001
0001
,
1000
0010
1000
0010
1000
0010
1000
0010
0100
0001
0100
0001
0100
0001
0100
0001
,
1000
0001
1000
1100
0110
0100
0010
0001
,
0100
0100
0100
0110
1010
1000
1001
0001
,
0011
0010
0100
0110
0011
0001
1000
0010
,
0100
0001
0100
0001
0100
0001
0100
0001
1000
0010
1000
0010
1000
0010
1000
0010
,
0100
0001
1000
1010
0110
0100
0001
1000
,
0100
0100
0100
0110
0011
0001
1001
1000
,
1010
0010
0100
0101
1001
1000
0100
0010
,
0001
1000
0001
1000
0001
1000
0001
1000
0010
0100
0010
0100
0010
0100
0010
0100
,
0002
0000
0000
0000
,
0000
0000
0000
1003
1010
0001
0012
0000
,
0013
0100
0010
0100
1000
0100
1000
0100
1000
0001
1000
0001
0100
0001
0100
0001
,
0100
0010
0100
0010
1000
0010
1000
0010
0100
0010
0100
0010
0100
0001
0100
0001
,
1000
0100
0010
0001
1000
0100
0010
0001
1000
0100
0010
0001
1000
0100
0010
0001
,
4000
0000
0000
0000
0000
0000
0000
3010
,
0200
0000
0000
0000
0000
0000
0000
0300
0200
0000
0302
0000
0000
0000
0000
0000
,
0013
0000
0000
0100
0000
0000
1000
0000
0010
0000
0000
0100
0000
0000
0001
0000
,
1000
0000
0000
0100
0000
0000
1000
0000
0001
0000
0000
0100
0000
0000
0010
0000
,
4000
0040
0000
0000
0000
0000
0000
0000
0000
0000
0000
0000
0000
0000
0000
3000
,
0130
0001
0100
0001
1000
0001
1000
0001
1000
0100
1000
0100
0010
0100
0010
0100
,
1000
0000
0000
0001
0000
0000
0100
0000
0002
0000
0000
0000
0000
0000
1003
0000
,
0100
0000
0000
0010
0000
0000
0001
0000
0100
0000
0000
0010
0000
0000
1000
0000
,
0002
0000
0000
0000
0000
0003
0002
0000
0000
0000
0000
0000
0000
0000
1003
0000
,
0100
1000
0001
1000
0001
1000
0100
1000
0001
1000
0001
1000
0100
1000
0001
1000
,
0010
1000
0001
1000
0001
1000
0010
1000
0001
1000
0001
1000
0010
1000
0001
1000
,
0100
0010
0100
0010
0001
0010
0001
0010
0001
1000
0001
1000
0010
1000
0010
1000
,
0002
0000
0000
0000
0000
0003
0002
0000
0000
0000
0000
0000
0000
0000
0000
0000
,
1003
0010
1000
0010
0100
0001
1000
0001
0010
0100
0010
0100
1000
0001
1000
0001
,
0100
0010
1000
0010
0100
0001
1000
0001
0010
0000
0000
0010
0000
0000
0010
0000
,
0001
1000
0100
1000
0010
0100
0001
0100
0010
1000
0010
1000
0001
0010
0001
0010
,
0100
1000
0001
1000
0100
0010
0001
0010
0100
1000
0001
1000
0010
0100
0010
1000
,
0001
0010
0001
1000
0010
0100
0010
0100
0001
1000
0100
0010
0001
1000
0001
0010
,
0100
1000
0100
1000
0100
1000
0001
1000
0010
0100
0010
0100
0010
1000
0010
1000
,
0001
0010
0001
1000
0010
0100
0010
1000
0001
0010
0100
1000
0001
0100
0010
1000
,
0001
0100
0001
0100
0010
1000
0010
1000
0001
0010
0100
0010
0001
1000
0010
0100
,
0001
1000
0001
1000
0100
1000
0001
1000
0010
1000
0001
1000
0100
0010
0001
0100
,
0010
1000
0010
1000
0010
1000
0001
1000
0100
0010
0100
0010
0001
0010
0001
0010
,
0001
1000
0010
1000
0100
0010
0001
0010
0100
1000
0100
1000
0001
0100
0001
0100
,
0010
1000
0001
1000
0010
0100
0001
0100
0010
1000
0001
1000
0100
0010
0100
1000
,
0001
0100
0001
1000
0100
0010
0100
0010
0001
1000
0010
0100
0001
1000
0001
0100
,
0010
1000
0010
1000
0010
1000
0001
1000
0100
0010
0100
0010
0100
1000
0100
1000
,
0001
0100
0001
1000
0100
0010
0100
1000
0001
0100
0010
1000
0001
0010
0100
1000
,
0001
0010
0001
0010
0100
1000
0100
1000
0001
0100
0010
0100
0001
1000
0100
0010
,
0001
1000
0001
1000
0010
1000
0001
1000
0100
1000
0001
1000
0010
0100
0001
0010
,
0100
1000
0100
1000
0100
1000
0001
1000
0010
0100
0010
0100
0001
0100
0001
0100
,
0010
0000
1000
0001
1000
0000
0100
0000
1000
0001
1000
0000
0001
0100
0001
0100
,
0010
0000
1000
0010
1000
0000
0001
0000
0010
0000
0010
0000
0100
0000
0100
0000
,
1000
0000
0001
0100
0001
0000
1000
0000
0001
0100
0001
0000
1000
0100
1000
0100
,
0010
0000
0001
0010
0001
0000
1000
0000
0010
0000
0010
0000
0100
0000
0100
0000
,
0001
0000
1000
0010
0100
0000
0001
0000
1000
0100
0010
0000
0001
0010
0001
0010
,
0100
0000
1000
0001
1000
0000
0001
0000
0100
0000
0100
0000
0010
0000
0010
0000
,
1000
0000
0001
0010
0100
1000
0100
1000
0001
0100
0001
0100
0010
0100
0010
0100
,
0001
1000
0001
1000
0001
1000
0001
1000
0001
1000
0000
0000
0010
0000
0000
0110
0000
0000
1001
0000
0000
0000
0000
0000
;
