#TITLE:Pederastia;
#SUBTITLE:LOLIPO Remix;
#ARTIST:Amethys;
#TITLETRANSLIT:;
#SUBTITLETRANSLIT:;
#ARTISTTRANSLIT:;
#CREDIT:Rynker;
#BANNER:pederastia bn.png;
#BACKGROUND:pederastia bg.png;
#LYRICSPATH:;
#CDTITLE:;
#MUSIC:Amethys - Pederastia (LOLIPO Remix).ogg;
#OFFSET:-0.159;
#SAMPLESTART:101.841;
#SAMPLELENGTH:12.000;
#SELECTABLE:YES;
#BPMS:0.000=250.000;
#STOPS:;
#BGCHANGES:;
// cache tags:
#FIRSTBEAT:10.000;
#LASTBEAT:633.000;
#SONGFILENAME:Songs/SPEEEDCOOOORE 3/Pederastia - [Rynker]/pederastia.sm;
#HASMUSIC:1;
#HASBANNER:1;
#MUSICLENGTH:153.863;
// end cache tags

//---------------dance-single - Rynker----------------
#NOTES:
     dance-single:
     Rynker:
     Challenge:
     13:
     0.918,1.000,0.240,0.123,0.455,929.000,37.000,19.000,47.000,0.000:

0000
0000
0000
0000
,
0000
0000
0000
0000
,
0000
0000
0000
0000
0000
0000
0000
0000
1001
0000
0000
0000
0001
1000
0001
1000
,
0001
0000
1000
0000
0100
0000
0040
0030
0001
0000
1000
0000
0001
0100
0001
0000
,
1000
0010
1000
0001
1000
0000
0000
0000
0001
0000
0010
0000
0100
0000
0000
0000
,
1000
0000
0400
0000
0310
0000
0004
0000
1003
0000
0100
1000
0100
1000
0000
0000
,
0001
0000
0100
0000
0010
1000
0001
1000
0001
0100
0010
0100
0001
0000
1000
0000
,
0100
1000
0100
1000
0001
0000
0010
0000
0001
0000
0000
0000
1000
0000
0000
0000
,
0010
0000
0100
0000
0001
0040
0130
4000
,
3001
0000
0100
0001
0100
0000
0010
0000
1000
0000
0000
0000
0001
0000
0000
0000
,
1010
0000
0001
0000
0100
0001
0010
0100
,
1000
0100
0010
0001
1000
0001
0100
0010
,
0100
0001
0010
0100
1000
0010
1000
0100
,
0010
0001
1000
0010
0100
0001
1000
0100
,
0010
0100
1000
0100
1000
0000
0001
0000
0100
0000
0010
0000
0100
0000
0001
0000
,
0010
0100
1000
0010
0100
0001
1000
0100
,
0010
0001
0010
0001
0000
0000
0000
0000
,
0000
0000
0000
0000
,
0000
0000
0000
0000
0001
0100
0010
0100
,
0001
1000
0100
0010
0001
0100
0010
1000
,
0001
0000
0010
0000
0100
1000
0100
1000
0001
0000
0010
0000
0100
0000
1000
0000
,
0001
0100
0010
0100
0001
4000
3100
0040
,
0031
4000
3010
0400
0301
0000
0000
0000
,
0000
0000
0000
0000
,
0000
0000
0000
0000
,
0000
0000
0000
0000
,
0000
0000
0000
0000
0001
0010
0100
1000
,
0001
0100
0010
0100
0001
1000
0100
0010
,
0100
1000
0001
0100
0010
0100
0001
1000
,
0100
0010
0100
1000
0001
0100
0010
0100
,
0001
1000
0001
0000
0000
0000
0000
0000
1000
0000
0100
0000
0010
0000
0001
0000
,
0100
0010
0100
0001
1000
0100
0010
0100
,
1000
0001
0100
0010
0100
0000
0110
0000
,
0010
0000
1000
0000
0100
0000
0010
0000
0001
0000
1000
0100
1000
0000
0001
0010
,
0001
2000
0000
3000
0001
0100
0010
0100
,
0001
1000
0100
0010
0100
1000
0010
0100
,
0001
0010
0001
0100
0010
1000
0100
1000
,
0001
0010
0001
1000
0010
0100
0001
0010
,
0100
1000
0100
0000
0010
0000
0001
0000
2000
0000
0000
0000
0000
0000
0000
0000
,
3001
0000
1001
0000
1000
0040
0130
0004
,
0013
0000
0100
0000
1000
0000
0100
0000
0010
0100
0010
0001
1000
0000
0001
0010
,
0100
1000
0001
0100
0010
0100
0000
0000
0001
0000
1000
0100
1000
0000
0010
0000
,
1000
0010
0100
0001
1000
0100
0010
0100
1000
0001
0010
0000
0000
0000
0000
0000
,
0000
0000
0000
0000
0000
0000
0000
0000
0001
0100
0010
1000
0001
1000
0100
0010
,
0001
0000
1000
0000
0010
0100
0001
0010
,
0100
1000
0100
1000
0001
0010
0001
1000
0000
0000
0000
0000
0000
0000
0000
0000
,
0000
0000
0000
0000
0001
1000
0010
0100
,
0000
0000
0000
0000
0001
0100
0000
0000
,
0010
0000
1000
0000
0000
0000
0000
0000
0001
0100
0001
0000
1000
0000
0100
0000
,
0010
0001
1000
0100
1000
0001
0010
0000
0001
0000
0000
0000
0100
0000
0000
0000
,
0010
0100
0004
0000
0003
0000
0000
0000
,
0000
0000
0000
0000
1000
0100
0000
0000
,
0010
0001
1000
0001
1000
0000
0000
0000
0000
0000
0000
0000
0000
0000
0000
0000
,
0000
0000
0000
0000
,
0001
0000
1000
0000
0001
1000
0010
1000
,
0001
1000
0010
1000
0001
0010
0100
0010
,
0001
0000
0010
0000
0100
1000
0100
1000
0001
0000
0100
0000
0010
0000
1000
0000
,
0010
0000
0100
0000
0010
0000
1000
0000
0010
0100
0010
0000
0100
0001
0100
0000
,
0001
1000
0100
0000
1000
0000
0000
0000
0001
0100
0010
1000
0001
0010
0100
0010
,
0001
1000
0100
0000
1000
0000
0100
0010
0001
1000
0001
0100
0010
0100
0001
1000
,
0010
0100
0001
0100
0010
1000
0001
1000
0001
0000
0000
0000
0000
0000
1000
0000
,
0000
1000
0100
0000
0010
0000
0000
0001
,
0100
0000
0010
0000
1010
0000
0000
1000
,
0000
0100
0010
0000
0011
0000
0000
0000
,
0001
1000
0000
0000
0000
0000
0000
0010
0000
0000
0000
0000
0000
0000
0000
0000
,
4000
0000
3000
0000
0001
0100
0001
0100
,
0001
0000
M000
0000
,
0000
M000
0000
0000
,
0000
M000
0000
0000
,
0000
0000
M000
0000
,
0000
0000
0000
0000
,
0000
0000
0000
0000
,
M000
0000
0000
0000
0000
0000
0000
0000
0000
0000
0000
0000
000M
000M
000M
000M
,
000M
000M
000M
000M
00M0
00M0
00M0
00M0
00M0
0000
0000
0000
0M00
0000
0M00
0000
,
0M00
0M00
0M00
0M00
0M00
0000
0000
0000
0000
0000
0000
0000
0000
0000
0000
0000
,
M000
0000
0000
0000
00M0
00M0
0M00
0000
000M
000M
000M
000M
000M
0000
0000
0000
,
0000
0000
0000
0000
0000
0000
0000
0000
00M0
00M0
00M0
00M0
00M0
0000
0000
0000
,
0000
0000
0000
0000
,
100M
010M
0010
0000
1000
0100
0010
0000
,
1000
0100
0010
0001
0010
0001
0100
0010
,
1000
0001
0010
0001
0010
0100
1000
0001
,
1000
0000
0010
0000
0100
0000
0001
0000
M010
M000
M000
M000
M000
0000
0000
0000
,
0100
1000
0001
0000
1000
0010
0100
0001
,
1000
0010
0100
0001
2000
0000
3200
0000
,
1300
0001
0100
0000
1000
0001
0100
0001
,
0010
0001
1000
0001
0200
0000
0320
0000
,
1030
0001
0100
0000
1000
0001
0100
0000
,
1000
0001
0100
0000
0100
0010
1000
0010
,
0100
0001
1000
0100
1000
0100
0010
0001
,
1000
0010
0100
0001
0100
0001
1000
0100
,
0110
0010
0001
0000
0100
0010
1000
0010
,
0100
0000
0001
0000
1000
0000
0100
0000
0020
0000
0000
0000
0032
0000
0000
0003
,
1001
1000
0010
0000
0100
0001
1000
0100
,
0010
0000
0001
0000
1000
0000
0100
0000
0020
0000
0000
0000
0230
0000
0000
0300
,
1100
1000
0001
0000
0100
0001
1000
0010
,
0100
0000
0001
0000
0010
0000
0100
0000
2000
0000
0000
0000
3002
0000
0000
0003
,
0101
0001
1000
0000
0001
0010
0100
1000
,
0001
0000
0010
0000
0100
0000
1000
0000
0002
0000
0000
0000
0203
0000
0000
0300
,
2010
0000
3001
0000
,
1200
0000
1300
0000
,
0012
0000
1003
0000
,
0201
0000
0301
0000
,
1001
1000
0011
1000
,
0101
0001
1010
0001
,
1100
0110
0011
1001
,
1001
0000
0000
0000
,
1000
0000
0100
0000
0010
0000
0001
0000
1000
0001
0010
0001
1000
0000
0010
0000
,
0100
0000
0001
0100
0010
0000
1000
0010
0100
0000
0010
0000
0100
0000
0001
0000
,
1000
0000
0000
0000
0001
0000
0010
0000
0100
1000
0100
0000
0010
0000
0001
1000
,
0001
1000
0000
0000
0001
0010
0001
0010
,
0100
1000
0001
0100
0001
1000
0010
0100
0001
0000
0000
0000
1000
0000
0100
0000
,
0010
0000
0000
0000
0001
0010
0100
1000
0001
0000
1000
0000
0000
0000
0001
0000
,
0000
0000
0100
0000
0010
0000
1000
0000
0100
0010
0001
0010
0100
0000
0000
0000
,
1000
0100
0010
0000
0001
0010
0100
0000
,
1000
0000
0000
0000
0001
0100
0001
1000
0010
0100
0001
1000
0001
0000
1000
0000
,
0000
0000
0000
0000
0001
0000
0000
0000
0010
0001
1000
0100
1000
0000
0001
0000
,
0100
0000
0000
0000
0010
0000
1000
0000
0001
0100
0001
1000
0001
0000
0000
0000
,
0100
0010
0100
0010
0200
0000
0300
0000
,
0010
1000
0001
0000
0010
0001
1000
0100
1000
0000
0001
0000
0010
0000
0001
0000
,
0100
0000
0010
1000
0010
0000
0100
0001
0100
0000
0001
0000
1000
0000
0100
0000
,
0010
0001
0010
0000
0100
1000
0001
0100
,
0000
0000
0000
0000
,
1001
0000
0000
0000
0001
1000
0001
1000
0100
0000
1000
0000
0100
0010
0001
1000
,
0001
0000
1000
0010
4000
0000
3001
0000
0010
0000
0000
0000
0100
0000
1000
0001
,
1000
0000
0001
0100
0001
0000
1000
0100
0040
0000
0000
0000
0031
0000
0000
0000
,
1000
0000
0001
0100
0001
0000
1000
0100
1000
0000
0001
0000
0010
0000
0100
0000
,
1000
0000
0000
0000
0001
0000
0100
0010
0100
0000
0010
0000
1000
0000
0000
0000
,
0001
0000
1000
0010
0400
0000
0000
0000
0304
0000
0000
0000
0013
0000
0000
0000
,
0100
1000
0100
0010
0001
0000
1000
0000
0001
0000
0100
0000
0010
0000
1000
0000
,
0001
0000
0000
0000
,
1000
0000
0100
0000
1000
0000
0100
0000
1000
0001
0100
0010
0100
0000
0000
0000
,
0001
0000
0010
0000
0100
0000
0000
0000
1000
0000
0001
0010
0100
0000
1000
0000
,
0001
0100
0001
0000
1000
0010
1000
0000
0001
0000
0010
0000
0100
0000
0010
0000
,
0001
1000
0010
0100
,
0001
0010
0100
0010
0001
1000
0001
0000
,
0010
0100
1000
0001
0100
0010
0100
0001
1000
0010
0100
0001
0100
0001
0000
0000
,
1000
0000
0000
0000
,
0001
0000
0000
0000
1000
0100
1000
0100
1000
0000
0001
0000
0100
0000
0000
0000
,
0001
0100
0010
1000
0100
0010
0001
1000
,
0001
0100
0010
0100
0001
0010
0100
1000
,
0010
0100
0001
1000
0100
1000
0001
0010
,
0001
1000
0010
0100
0001
0010
0100
1000
,
0100
0010
0001
1000
0001
0100
0010
0100
,
0010
1000
0010
0100
0001
1000
0100
0010
,
0001
1000
0001
0100
0010
0100
0001
1000
,
0000
0000
0000
0000
,
0001
0010
0100
1000
0001
0100
0010
0100
,
0001
1000
0100
0010
0100
1000
0010
0100
,
0001
0010
0001
0100
0010
1000
0100
1000
,
0001
0010
0001
0100
0010
0100
0010
1000
,
0001
0010
0100
0010
0001
1000
0010
0100
,
0001
0010
0001
0100
0010
1000
0100
1000
,
0001
0010
0001
1000
0010
0100
0001
0100
,
0000
0000
0000
0000
,
0000
0000
0000
0000
,
0000
0000
0000
0000
,
0000
0000
0000
0000
,
0000
0000
0000
0000
,
0000
M000
0000
0000
;
