#TITLE:Black Horizon;
#SUBTITLE:GF 9th | DM 8th;
#ARTIST:Trick Trap;
#TITLETRANSLIT:;
#SUBTITLETRANSLIT:;
#ARTISTTRANSLIT:;
#CREDIT:;
#BANNER:blackhorizon.png;
#BACKGROUND:blackhorizon-bg.png;
#LYRICSPATH:;
#CDTITLE:!12title!.png;
#MUSIC:blackhorizon.mp3;
#OFFSET:-0.460;
#SAMPLESTART:31.180;
#SAMPLELENGTH:12.000;
#SELECTABLE:YES;
#BPMS:0.000=125.000;
#STOPS:;
#BGCHANGES:;
// cache tags:
#FIRSTBEAT:0.000;
#LASTBEAT:186.333;
#SONGFILENAME:Songs/Astronomic Metal Collection 2/(Twelve) Black Horizon/black horizon.sm;
#HASMUSIC:1;
#HASBANNER:1;
#MUSICLENGTH:96.862;
// end cache tags

//---------------dance-single - ----------------
#NOTES:
     dance-single:
     :
     Hard:
     11:
     1.000,1.000,1.000,0.413,1.000,618.000,163.000,40.000,0.000,2.000:
1001
0100
1001
0000
0100
1000
0100
0010
1001
0100
1001
0000
0010
1000
1000
1000
,
1000
0010
0001
0000
0100
1001
0100
0010
1001
0000
0100
0001
0000
1000
0100
0010
,
0101
0010
0101
0000
0010
0100
1000
0010
0101
0010
0101
0000
0010
0000
0000
0000
,
0011
0100
0010
0000
0110
0001
1000
0100
1020
0000
0000
0000
0030
1000
0100
0010
,
0001
0000
0000
0000
0010
0000
0100
1000
0011
0000
1000
0000
0100
0000
0010
0000
0001
0000
0000
0000
0010
0000
0100
0001
0110
0000
1000
0000
0100
0000
0010
0000
,
0001
0000
0000
0010
0100
0000
1000
0000
0101
0000
0000
0010
0000
0000
0100
0000
0001
0000
0000
0000
0010
0000
0100
0000
0011
0000
1000
0000
0010
0000
0100
0000
,
0011
0000
0000
0000
0011
0000
0100
0000
0001
0000
1000
0000
0010
0000
0100
0000
0012
0003
0000
0000
0000
0000
0012
0003
0000
0000
0000
0000
0012
0003
0000
0000
,
1000
0000
0000
0000
0001
0000
0100
0000
0001
0000
0100
0000
1002
0003
0000
0000
0001
0000
0010
0000
0001
0000
0010
0000
0100
0000
2010
3000
0201
0300
1020
0030
,
0001
0000
0000
0000
0010
0000
1000
0000
0011
0000
0100
1000
0001
0000
0010
0000
0001
0000
0000
0000
0001
0000
0010
0000
0101
0000
1000
0000
0100
0000
0010
0000
,
0001
0000
0010
0100
1010
0000
0100
1000
0100
0000
0100
1000
0101
0010
1000
0010
,
0101
0000
0000
0000
0011
0000
0100
0000
0010
0000
0100
0000
0000
0000
0001
0000
0012
0003
0100
0000
1000
0000
0012
0003
0100
0000
1000
0000
0012
0003
1000
0000
,
0110
0000
0001
0100
0001
0100
0010
1000
0000
1200
0300
1020
0030
1002
0003
0000
,
0100
1001
0100
0010
1001
0100
0010
0001
0000
0000
0000
0010
1001
0010
0100
1000
,
0000
0000
0000
0000
0000
0000
0000
0000
0101
0000
0000
0000
0000
0000
0000
0000
1010
0000
0000
0000
0100
0000
0000
0000
1000
0000
0000
0000
0100
0000
0000
0000
0010
0000
0000
0000
0000
0000
0000
0000
0001
0000
0000
0000
2000
0000
0000
0000
0010
0000
0000
0000
0000
0000
0000
0000
0010
0000
0000
0000
0000
0000
0000
3000
,
0000
0000
0000
1000
0000
0000
0100
0000
0010
0000
0100
0000
0001
0000
0000
0000
0000
0000
0010
0000
0000
0000
0000
0000
0100
0000
0000
1000
0000
0000
0000
0000
0000
0001
0000
0000
0010
0000
0000
0100
0000
0000
1000
0000
0000
0000
0000
0000
,
1001
0000
0000
0000
0000
0000
0000
0000
0100
0000
0000
0000
0000
0000
0000
0000
1000
0000
0000
0000
0000
0000
0000
0000
0010
0000
0000
0000
0000
0000
0000
0000
0000
0000
0000
0000
0000
0000
0000
0000
0000
0000
0000
0000
0000
0000
0000
0000
0000
0000
0000
0000
0000
0000
0000
0000
0000
0000
0000
0000
0000
0000
0000
0000
0000
0000
0000
0000
0000
0000
0000
0000
1100
0000
0000
0000
0000
0000
0000
0000
0010
0000
0000
0000
0000
0000
0000
0000
0100
0000
0000
0000
0000
0000
0000
0000
0002
0000
0000
0000
0000
0000
0000
0000
0000
0000
0000
0000
0000
0000
0000
0000
0000
0000
0000
0000
0000
0000
0000
0000
0000
0000
0000
0000
0000
0000
0000
0000
0000
0000
0000
0000
0000
0000
0000
0000
0000
0000
0000
0000
0000
0000
0000
0000
1110
0000
0000
0000
0000
0000
0000
0000
0000
0000
0000
0000
0000
0000
0000
0000
0000
0000
0000
0000
0000
0000
0000
0000
0000
0000
0000
0003
0000
0000
0000
0000
0000
0000
0000
0000
0000
0000
0000
0000
0000
0000
0000
0000
0000
0000
0000
0000
,
0010
0000
0000
0000
0100
0000
1000
0000
0101
0000
0010
1000
0100
0000
0010
0000
0001
0000
0000
0000
0010
0000
1000
0000
0101
0000
1000
0000
0100
0000
0010
0000
,
0001
0000
0010
0100
0011
0000
0100
1000
0100
0000
0100
1000
0101
0010
1000
0010
,
0101
0000
0000
0000
0011
0000
0100
0000
0001
0000
0010
0000
0100
0000
1000
0000
0012
0003
0100
0000
1000
0000
0012
0003
0100
0000
1000
0000
0012
0003
1000
0000
,
0110
0000
0000
0000
0001
0000
0100
0000
0001
0000
0010
0000
0100
0000
1000
0000
0100
0000
0012
0000
0003
0000
0120
0000
0030
0000
1200
0000
0300
0000
2010
3000
,
0001
1010
0100
0001
1000
0010
0100
1000
0100
1000
0010
1000
0101
1000
0010
1000
,
0100
0000
0012
0003
1000
0000
0000
0000
0110
0000
0000
0000
0000
0000
0001
0000
0000
0000
0000
0000
0001
0000
0100
0000
0001
0000
0100
0000
1010
0000
0101
0000
,
0010
0000
0001
0000
0000
0000
0000
0000
0000
0010
0000
0000
0010
0000
0000
0000
0000
0000
0100
0000
0000
0100
0000
0000
0010
0000
0000
1000
0000
0000
0010
0000
0000
0100
0000
0000
0001
0000
0000
0000
0000
0000
0010
0000
0000
1000
0000
0000
,
0001
0000
0021
0030
0000
0000
0010
0000
0210
0300
0000
0000
0100
0000
2100
3000
0000
0000
1000
0000
0012
0003
2100
3000
0021
0030
1200
0300
0010
0000
1000
0000
,
0101
0000
1000
0000
0120
0030
0001
0000
0100
0000
0010
0000
0101
0000
1000
0000
0110
0000
1000
0000
0011
0000
1000
0000
0101
0000
1000
0000
0011
0000
1000
0000
,
0100
0000
0010
0000
0002
0003
0000
0000
0210
0000
0300
0000
0000
0000
0001
0000
0000
0000
0000
0000
0010
0000
0100
0000
0001
0000
0010
0000
1000
0000
0100
0000
,
0011
1000
0011
0000
0101
0000
0011
1000
0011
0001
0000
1000
1000
0100
0010
0001
,
1000
0000
0100
0000
0001
0000
1000
0000
0100
0000
0010
0000
0001
0000
0000
0100
0000
0000
0001
0000
0000
0100
0000
0000
1001
0000
0000
0010
0000
0000
0100
0000
0000
1001
0000
0000
0010
0000
0000
1000
0000
0000
0101
0000
0000
0010
0000
0000
,
0001
1010
0100
1000
0101
0010
0001
1010
0100
0001
1100
0010
0001
1010
0100
0010
,
1001
0000
0000
0000
0000
0000
0000
0000
0000
0000
0000
0000
0000
0000
0000
0000
0000
0000
0000
0000
0000
0000
0000
0000
0000
0000
1000
0000
0100
0000
0010
0100
,
0001
0000
0000
0000
0010
0000
1000
0000
0010
0000
1000
0000
0100
0000
0010
0100
0001
0000
0000
0000
0010
0000
0100
0000
1000
0000
0000
0000
0000
0000
0000
0000
,
0000
0000
0000
0000
0000
0000
0000
0000
0000
0000
0000
0000
0001
0000
0010
0000
0001
0100
0001
0000
0010
0000
0100
0000
1000
0000
0000
0000
0000
0000
0001
0000
,
1100
1010
1001
0110
0101
0011
0000
0000
0011
0100
1000
0210
0300
1020
0030
0102
,
0003
0001
0010
0100
1000
0100
1000
0010
1100
0000
1010
0101
0000
0000
1100
0000
,
0110
1001
0000
0000
0011
0110
1100
0110
0011
0010
1000
0210
0300
0120
0030
0102
,
0003
0001
0100
0010
1000
0010
0100
0010
0101
0000
0110
1001
0000
0000
1100
0000
,
0101
0000
0000
1010
0000
0000
0000
0000
0000
0000
0000
0000
1001
0000
0000
0000
0100
0000
0001
0000
0010
0000
0100
0000
0001
0000
0010
0000
1000
0000
0001
0000
0100
0000
1000
0000
0010
0000
0100
0000
0010
0000
1000
0000
0100
0000
0010
0000
,
0001
0000
0000
0000
0000
0000
0000
0000
0000
0000
0000
0000
0000
0000
0000
0000
0001
0000
0000
0000
0000
0000
0000
0000
0000
0000
0000
0000
0000
0000
0000
0000
0000
0000
0000
0000
0000
0000
0000
0000
0000
0000
0000
0000
0000
0000
0000
0000
0000
0000
0000
0000
0000
0000
0000
0000
0000
0000
0000
0000
1000
0000
0000
0000
0000
0000
0000
0000
0000
0000
0000
0000
0100
0000
0000
0000
0000
0000
0000
0000
0000
0000
0000
0000
0010
0000
0000
0000
0000
0000
0000
0000
0000
0000
0000
0000
0001
0000
0000
0000
0000
0000
0000
0000
0000
0000
0000
0000
0000
0000
0000
0000
0000
0000
0000
0000
0000
0000
0000
0000
0010
0000
0000
0000
0000
0000
0000
0000
0000
0000
0000
0000
0100
0000
0000
0000
0000
0000
1000
0000
0000
0000
0000
0000
0011
0000
0000
0000
0000
0000
0000
0000
0000
0000
0000
0000
1000
0000
0000
0000
0000
0000
0000
0000
0000
0000
0000
0000
0100
0000
0000
0000
0000
0000
0000
0000
0000
0000
0000
0000
0010
0000
0000
0000
0000
0000
0000
0000
0000
0000
0000
0000
,
0001
0000
0000
0000
0010
0000
0100
0001
0110
0000
1000
0000
0100
0000
0010
0000
0001
0000
0000
0000
0010
0000
0100
0000
0011
0000
0000
0000
0100
0000
1000
0000
,
0100
0000
0000
0000
0100
0000
1000
0000
0011
0000
1100
0000
0110
0000
0101
0000
0011
0000
0000
0000
0110
0000
0100
1000
0011
0000
1000
0000
0100
0000
0010
0000
,
0001
0000
0000
0000
0010
0000
0100
0001
0110
0000
1000
0000
0100
0000
0010
0000
0001
0000
0000
0000
0010
0000
0100
0000
0011
0000
0000
0000
0100
0000
1000
0000
,
0100
0000
0000
0000
0100
0000
1000
0000
0011
0000
1100
0000
0110
0000
0101
0000
0011
0000
0000
0000
0110
0000
0100
1000
0011
0000
1000
0000
0100
0000
0010
0000
,
0001
0000
0000
0000
0010
0000
0100
0001
0110
0000
1000
0000
0100
0000
0010
0000
0001
0000
0000
0000
0010
0000
0100
0000
0011
0000
1000
0000
0100
0000
0010
0000
,
0001
0000
0010
1000
0110
1000
0100
0010
0101
0000
0011
0100
0011
1000
0100
0010
,
0101
0000
0010
1001
0100
1000
0100
0010
0101
0000
0011
0100
0011
1000
0101
0010
,
0001
0000
0000
0100
0000
0000
0010
0000
0000
1001
0000
0000
0100
0000
0000
1001
0000
0000
0010
0000
0000
0100
0000
0000
1001
0000
0000
0000
0000
0000
0010
0000
0100
0000
1000
0000
0001
0000
0010
0000
1000
0000
0001
0000
0010
0000
1000
0000
,
0010
1000
0010
0001
1000
0100
0010
1000
0100
0010
0100
0010
1001
0000
1101
0000
0000
0000
0000
0000
0000
0000
0000
0000
;
