#TITLE:Temple of Boom;
#SUBTITLE:;
#ARTIST:Yanis Kamarinos;
#TITLETRANSLIT:;
#SUBTITLETRANSLIT:;
#ARTISTTRANSLIT:;
#CREDIT:;
#BANNER:banner.png;
#BACKGROUND:bg.png;
#LYRICSPATH:;
#CDTITLE:;
#MUSIC:temple_of_boom.mp3;
#OFFSET:-0.159;
#SAMPLESTART:86.119;
#SAMPLELENGTH:15.000;
#SELECTABLE:YES;
#BPMS:0.000=145.100;
#STOPS:;
#BGCHANGES:;
// cache tags:
#FIRSTBEAT:4.000;
#LASTBEAT:258.000;
#SONGFILENAME:Songs/In The Groove 2 (Official)/Temple Of Boom/temple_of_boom.sm;
#HASMUSIC:1;
#HASBANNER:1;
#MUSICLENGTH:109.662;
// end cache tags

//---------------dance-single - Inc Steps----------------
#NOTES:
     dance-single:
     Inc Steps:
     Hard:
     11:
     0.987,1.000,0.064,0.711,1.000,673.000,7.000,78.000,0.000,0.000:
0000
0000
0000
0000
,
0010
0100
0001
1000
0100
0010
0002
0000
0103
0010
1000
0001
0010
0100
2000
0000
,
3001
1000
0010
1000
0001
1000
0100
0000
1000
0001
0100
0001
1000
0000
1100
0000
,
1000
0010
0100
0010
1000
0100
0010
0001
0100
0010
0100
0001
1000
0001
1010
0100
,
2002
0000
0000
0000
,
0000
0000
0000
0000
,
0000
0000
0000
0000
,
0000
0000
0000
0003
,
3100
0000
0000
0010
0000
0000
0001
0000
0000
0100
0000
0000
0000
0000
0000
0100
0000
0000
0010
0000
0000
0000
0000
0000
1000
0000
0100
0000
1000
0000
0100
0000
0000
0000
0000
0000
0000
0000
0000
0000
0000
0000
1000
0000
0000
0000
0000
0000
,
0010
0000
0000
0000
0000
0000
0100
0000
0000
0001
0000
0000
0000
0000
0000
0001
0000
0000
0100
0000
0000
0000
0000
0000
0010
0000
1000
0000
0010
0000
1000
0000
0000
0000
0000
0000
1000
0000
0000
0001
0000
0000
0010
0000
0000
0001
0000
0000
,
0100
0000
0000
0000
0000
0000
0100
0000
0000
0010
0000
0000
0000
0000
0000
0010
0000
0000
1000
0000
0000
0000
0000
0000
0001
0000
1000
0000
0001
0000
1000
0000
0000
0000
0000
0000
0000
0000
0000
0000
0000
0000
1000
0000
0000
0000
0000
0000
,
0100
0000
0000
0100
0000
0100
0000
0000
1000
0000
0000
0100
0010
0100
0010
0100
,
0010
0000
0000
0000
0000
0000
0001
0000
0000
1000
0000
0000
0000
0000
0000
1000
0000
0000
0001
0000
0000
0000
0000
0000
0100
0000
0001
0000
0100
0000
0001
0000
0000
0000
0000
0000
0000
0000
0000
0000
0000
0000
0001
0000
0000
0000
0000
0000
,
0010
0000
0000
0000
0000
0000
0010
0000
0000
0100
0000
0000
0000
0000
0000
0100
0000
0000
1000
0000
0000
0000
0000
0000
1000
0000
0010
0000
1000
0000
0010
0000
0000
0000
0000
0000
1000
0000
0000
0010
0000
0000
0100
0000
0000
0001
0000
0000
,
0010
0000
0000
0000
0000
0000
0010
0000
0000
0100
0000
0000
0000
0000
0000
0100
0000
0000
0010
0000
0000
0000
0000
0000
0010
0000
0001
0000
0010
0000
0001
0000
0000
0000
0000
0000
0000
0000
0000
0000
0000
0000
0001
0000
0000
0000
0000
0000
,
0100
0000
0000
0000
0000
0000
0001
0000
0010
0000
0100
0000
1000
0000
0001
0000
0010
0000
0100
0000
0000
1000
0000
0000
0100
0000
0000
1000
0000
0000
0100
0000
0000
1000
0000
0000
0100
0000
0000
1000
0000
0000
0100
0000
0000
1000
0000
0000
,
0100
0000
0000
0000
0000
0000
1000
0000
0000
0100
0000
0000
0000
0000
0000
0100
0000
0000
0010
0000
0000
0000
0000
0000
0100
0000
1000
0000
0100
0000
1000
0000
0000
0000
0000
0000
0000
0000
0000
0000
0000
0000
0001
0000
0000
0000
0000
0000
,
0010
0000
0000
0000
0000
0000
0001
0000
0000
0010
0000
0000
0000
0000
0000
0010
0000
0000
0100
0000
0000
0000
0000
0000
1000
0000
0001
0000
1000
0000
0001
0000
0000
0000
0000
0000
1000
0000
0000
0001
0000
0000
0010
0000
0000
0100
0000
0000
,
0010
0000
0000
0000
0000
0000
0010
0000
0000
0001
0000
0000
0000
0000
0000
0001
0000
0000
1000
0000
0000
0000
0000
0000
1000
0000
0001
0000
1000
0000
0001
0000
0000
0000
0000
0000
0000
0000
0000
0000
0000
0000
1000
0000
0000
0000
0000
0000
,
0010
0000
0010
0100
0000
0100
0001
0000
0010
0000
0100
0000
1000
0001
1000
0001
,
1000
0000
0000
0000
0000
0000
1000
0000
0000
0001
0000
0000
0000
0000
0000
0001
0000
0000
0100
0000
0000
0000
0000
0000
0100
0000
0010
0000
0100
0000
0010
0000
0000
0000
0000
0000
0000
0000
0000
0000
0000
0000
1000
0000
0000
0000
0000
0000
,
0001
0000
0000
0000
0000
0000
0001
0000
0000
0100
0000
0000
0000
0000
0000
0100
0000
0000
0010
0000
0000
0000
0000
0000
1000
0000
0010
0000
1000
0000
0010
0000
0000
0000
0000
0000
1000
0000
0000
0001
0000
0000
0010
0000
0000
0001
0000
0000
,
1000
0000
0000
0000
0000
0000
1000
0000
0000
0001
0000
0000
0000
0000
0000
0001
0000
0000
0100
0000
0000
0000
0000
0000
1000
0000
0010
0000
1000
0000
0010
0000
0000
0000
0000
0000
0000
0000
0000
0000
0000
0000
1000
0000
0000
0000
0000
0000
,
0001
0000
0001
1000
0000
1000
0001
0000
1000
0010
1000
0000
1000
0100
1000
0100
,
0020
0000
0100
0000
0032
0000
1000
0000
1000
0000
0013
0100
1000
0100
0020
0000
,
0230
0010
0302
0010
1000
0023
0230
2300
,
0100
0000
0010
0000
3002
0000
0100
0000
0100
0000
0013
0001
0010
0100
2000
0000
,
0100
0000
0010
0000
3020
0000
0100
0000
0001
0000
0230
0000
0002
0300
2003
0000
,
3001
0010
0001
0010
0100
1000
0100
1000
0010
1000
0010
1000
0001
0100
0001
0100
,
0010
1000
0010
1000
0100
1000
0100
1000
0001
1000
0001
1000
0100
0010
0100
0010
,
0001
0100
0001
0100
0010
1000
0010
1000
0001
1000
0001
1000
0010
0100
0010
0100
,
0001
0010
0001
0010
0100
1000
0100
1000
0010
0100
0010
0100
0001
0100
0001
0100
,
0010
1000
0100
0010
0001
0010
0100
1000
0010
0100
0010
1000
0001
1000
0001
0010
,
0100
0010
0001
1000
0100
1000
0001
0010
0001
0010
0100
1000
0001
0100
0010
0100
,
0001
0010
0100
1000
0010
0100
0010
0001
0010
0100
0010
1000
0100
0010
0001
1000
,
0100
0000
0100
0000
0000
0100
0000
0100
0010
0000
0010
0001
0000
1000
0100
1000
,
0001
0010
0000
0010
0100
0000
0010
0100
0000
0010
0100
0000
0100
0010
0000
0010
,
0100
0010
0200
0000
0000
0010
0310
0000
,
1000
0001
0000
1000
0001
0000
1000
0001
0000
1000
0001
0000
0001
1000
0000
1000
,
0001
1000
0002
0000
0000
0010
0013
0100
,
0100
1000
0000
0100
1000
0000
0100
1000
0000
0100
1000
0000
1000
0100
0000
0100
,
1000
0100
2000
0000
0000
0100
3100
0000
,
0010
0001
0000
0010
0001
0000
0010
0001
0000
0010
0001
0000
0001
0010
0000
0010
,
0001
0010
0002
0000
0000
0010
0013
0100
,
2000
0000
3200
0000
0000
0000
2300
0000
0000
3020
0230
0000
0302
0000
0023
0000
,
0230
0000
0320
0230
0000
0000
2300
0000
3002
0000
0203
0320
2030
0000
0000
0000
,
3020
0000
0230
0000
0000
0000
0320
0000
0000
2030
3200
0000
0320
0000
0032
0000
,
2003
0000
3200
0320
0000
0000
0230
0000
2300
0000
3020
0230
0302
0000
0000
0000
,
0023
0000
0230
0000
0000
0000
2300
0000
0000
3200
0320
0000
0230
0000
2300
0000
,
3200
0000
0320
0032
0000
0000
0203
0000
0320
0000
0230
0320
0230
0000
0000
0000
,
0320
0000
2030
0000
0000
0000
3020
0000
0000
0230
0302
0000
2003
0000
3200
0000
,
0310
0000
0001
0000
1000
0001
0000
1000
0001
0000
0100
0010
0100
0010
0100
0010
,
0100
0000
0000
0000
0000
0000
0100
0000
0000
0001
0000
0000
0000
0000
0000
1000
0000
0000
0010
0000
0000
0000
0000
0000
0100
0000
0010
0000
1000
0000
0001
0000
1000
0000
0100
0000
1000
0000
0000
0000
0000
0000
1000
0000
0000
0000
0000
0000
,
1000
0000
0000
0000
0000
0000
1000
0000
0000
0010
0000
0000
0000
0000
0000
0100
0000
0000
0001
0000
0000
0000
0000
0000
0001
0000
0010
0000
0100
0000
1000
0000
0000
0000
0000
0000
0100
0000
0000
0010
0000
0000
0001
0000
0000
0010
0000
0000
,
0100
0000
0000
0000
0000
0000
0100
0000
0000
1000
0000
0000
0000
0000
0000
0001
0000
0000
0010
0000
0000
0000
0000
0000
0010
0000
0100
0000
1000
0000
0100
0000
0010
0000
0001
0000
1000
0000
0000
0000
0000
0000
0001
0000
0000
0000
0000
0000
,
0100
0000
0010
1000
0000
1000
0001
0000
0100
0000
0010
0000
1000
0100
0010
0100
,
1000
0000
0000
0000
0000
0000
1000
0000
0000
0100
0000
0000
0000
0000
0000
0010
0000
0000
0001
0000
0000
0000
0000
0000
0001
0000
1000
0000
0010
0000
1000
0000
0001
0000
1000
0000
0100
0000
0000
0000
0000
0000
1000
0000
0000
0000
0000
0000
,
0001
0000
0000
0000
0000
0000
0001
0000
0000
0010
0000
0000
0000
0000
0000
0100
0000
0000
1000
0000
0000
0000
0000
0000
1000
0000
0100
0000
0010
0000
0001
0000
0000
0000
0000
0000
0100
0000
0000
0001
0000
0000
1000
0000
0000
0010
0000
0000
,
0100
0000
0000
0000
0000
0000
0100
0000
0000
0010
0000
0000
0000
0000
0000
1000
0000
0000
0001
0000
0000
0000
0000
0000
0001
0000
1000
0000
0100
0000
0010
0000
0100
0000
1000
0000
0001
0000
0000
0000
0000
0000
0001
0000
0000
0000
0000
0000
,
0010
0000
0100
0000
1000
0100
0000
0100
0010
0001
0010
0100
1000
0001
0010
0001
,
1000
0100
1000
0000
0001
0010
0001
0000
1000
0010
0100
0001
0010
0100
1000
0000
,
0001
0100
0010
1000
0001
0100
0020
0000
1030
0001
1000
0100
1000
0100
0020
0000
,
0031
1000
0100
1000
0010
1000
0100
0000
0100
0010
0001
0010
0100
0000
0110
0000
,
1100
1000
0001
1000
0100
0010
0100
1000
0010
0100
0001
1000
0001
0010
1001
0100
,
2002
0000
3003
0000
;
