#TITLE:Empire State Glory;
#SUBTITLE:;
#ARTIST:Dirty Androids;
#TITLETRANSLIT:;
#SUBTITLETRANSLIT:;
#ARTISTTRANSLIT:;
#CREDIT:;
#BANNER:empire bn.png;
#BACKGROUND:empire bg.png;
#LYRICSPATH:;
#CDTITLE:;
#MUSIC:Empire State Glory.ogg;
#OFFSET:-0.035;
#SAMPLESTART:56.910;
#SAMPLELENGTH:12.000;
#SELECTABLE:YES;
#DISPLAYBPM:173.000;
#BPMS:0.000=173.000,32.000=86.500,34.000=173.000,161.000=129.750,161.500=259.500,162.000=173.000,198.000=129.750,198.500=259.500,199.000=173.000,214.000=129.750,214.500=259.500,215.000=173.000;
#STOPS:;
#BGCHANGES:;
// cache tags:
#FIRSTBEAT:16.000;
#LASTBEAT:321.833;
#SONGFILENAME:Songs/SSSC Pack 2/Empire State Glory - [Zimlord]/Empire State Glory.sm;
#HASMUSIC:1;
#HASBANNER:1;
#MUSICLENGTH:115.234;
// end cache tags

//---------------dance-single - zimlord----------------
#NOTES:
     dance-single:
     zimlord:
     Challenge:
     13:
     1.000,1.000,0.451,0.095,1.000,917.000,52.000,11.000,16.000,0.000:

0000
0000
0000
0000
,
0000
0000
0000
0000
,
0000
0000
0000
0000
,
0000
0000
0000
0000
,
0001
0000
0001
0000
1001
0000
1000
0100
0010
0001
1000
0000
0001
0000
0101
0000
,
0100
0000
0010
0000
1010
0000
1000
0001
0010
0100
1000
0000
1100
0000
0100
0000
,
1000
0000
0000
1000
0000
0000
0011
0000
0000
0001
0000
0000
0001
0000
0000
1010
0000
0000
0001
0100
0001
1000
0000
0000
,
0001
0000
0000
0000
0000
0000
1000
0000
0000
0100
0000
0000
0010
0000
0000
0000
0000
0000
0001
0000
0000
0100
0000
0000
0000
0000
0000
0001
0000
0000
1000
0000
0001
0000
1000
0000
0001
0000
0000
0000
0000
0000
1000
0000
0000
0000
0000
0000
,
0MM1
0000
0000
0000
0000
0000
0000
M00M
0000
0000
0000
0000
1MM1
0000
0000
1000
0000
0000
0100
0000
0000
1000
0000
0000
,
0010
0100
1000
0100
0010
1000
0001
0010
,
1000
0010
0001
1000
0001
0100
0010
1000
,
0010
0100
1000
0100
0010
1000
0001
0010
,
1000
0010
0001
0001
1000
0001
0100
0001
,
0010
0100
0001
0100
1000
0010
0100
0010
,
0001
0010
0100
0100
0001
0001
1000
1000
,
0001
0000
0001
0100
0001
0100
0010
1000
0001
0100
0001
1000
0100
1000
0001
0010
,
0001
1000
0010
1000
0002
0000
2003
0000
3001
0000
0010
0000
1100
0000
1000
0100
,
1000
0100
0010
0000
0001
0000
0100
0001
1000
0000
0001
0000
0101
0000
0100
0001
,
0100
0001
1000
0000
0010
0000
1000
0100
0010
0000
0001
0000
0011
0000
0010
0001
,
0010
0001
1000
0000
0100
0000
1000
0001
0100
0000
0010
0000
1010
0000
1000
0010
,
1000
0010
0100
0000
0001
0000
1000
0001
0010
0000
0001
0000
1100
0000
1000
0001
,
1000
0001
0100
0000
0001
0000
0100
0001
0010
0000
0100
0000
0011
0000
0001
1000
,
0001
1000
0010
0000
1000
0000
0010
0100
0001
0000
0100
0000
0110
0000
0010
0100
,
0010
0100
0001
0000
1000
0000
0001
0010
0100
0000
1000
0100
0000
1000
0001
0000
,
1000
0100
0010
0000
0001
0000
1000
0000
0001
0000
1000
0000
1010
0000
0010
1000
,
0100
0010
0001
0000
0010
0000
0001
1000
0010
0000
0100
0000
0101
0000
0001
0010
,
0100
0010
0001
0000
1000
0000
0100
1000
0010
0000
1000
0000
1010
0000
0010
0100
,
0001
0100
0010
0000
1000
0000
0100
0010
0001
0000
0010
0000
1100
0000
1000
0001
,
0010
0001
1000
0000
0001
0000
0100
0001
0010
0000
0100
0000
0110
0000
0010
0001
,
1000
0100
0010
0000
0001
0000
0100
0001
1000
0000
0010
0000
0101
0000
0001
0100
,
0010
1000
0010
0000
1000
0000
0100
1000
0001
0000
0001
0000
1000
0000
1000
0000
,
0100
0000
0100
0000
0010
0000
0010
0000
0001
1000
0001
1000
0010
0100
0001
1000
,
0100
0010
0001
0000
1001
0000
0000
0000
1000
0000
1000
0000
0011
0000
0001
0100
,
0001
1000
0010
0000
1000
0000
1001
0000
0001
0000
0001
0000
1100
0000
1000
0001
,
0010
0001
1000
0000
1001
0000
0001
0000
0100
0000
0100
0000
0110
0000
0010
1000
,
0010
0100
0001
0000
1000
0000
1001
0000
0001
0000
0010
0000
0110
0000
0100
1000
,
0100
0010
0001
0000
0101
0000
0000
0000
0100
0000
0100
0000
0101
0000
0001
0010
,
0100
0010
0001
0000
1000
0000
1100
0000
0100
0000
0100
0000
1001
0000
0001
0100
,
0010
1000
0001
0000
0101
0000
0000
0000
0100
0000
0100
0000
1010
0000
0001
0000
,
0001
0000
0000
0000
0000
0000
1001
0000
0000
0000
0000
0000
1000
0000
0100
0000
1000
0000
0001
0000
0000
0000
0000
0000
1000
0000
0000
0000
0000
0000
0001
0000
0000
0100
0000
0000
0001
0000
0000
0000
0000
0000
0000
0000
0000
1001
0000
0000
,
0000
0000
0000
0000
0000
0000
0001
0000
0100
0000
0001
0000
1000
0000
0000
0000
0000
0000
0MM0
0000
0000
0000
0000
0000
0001
0000
0000
1000
0000
0000
0100
0000
0000
0010
0000
0000
0001
0000
0000
0100
0000
0000
0001
0000
0000
0100
0000
0000
,
0010
1000
0010
1000
0001
0010
0100
1000
0001
1000
0100
0010
0001
0100
0001
0100
,
0010
1000
0010
1000
0001
0010
0100
0010
0001
0010
0100
1000
0010
0100
0010
0100
,
0001
1000
0001
1000
0100
0010
0100
1000
0001
0010
0100
1000
0010
0100
0010
0100
,
0001
1000
0001
0010
0100
1000
0100
1000
0001
0100
0010
1000
0001
0010
0001
0010
,
0100
1000
0100
1000
0001
0010
0100
1000
0001
0100
0010
1000
0001
0010
0001
0010
,
0100
1000
0100
1000
0001
0010
0100
0010
0001
1000
0100
0010
0001
1000
0001
1000
,
0100
0010
0100
0010
0001
0100
0010
1000
0001
1000
0100
0010
0001
0100
0001
1000
,
0001
0000
1000
0000
0001
0000
1000
0000
0001
0000
1000
0000
0001
0000
1000
0000
0001
0000
1000
0000
0001
0000
1000
0000
0001
0000
0000
0000
0000
0000
1000
0000
0000
0000
0000
0000
1010
0000
0000
0000
0000
0000
0010
0000
0000
1000
0000
0000
,
0100
0010
0001
0000
0020
0000
0032
0000
1003
0000
0000
0000
1M1M
0000
0020
0000
,
0000
0030
1001
0000
0000
0000
1000
0000
1010
0000
0000
0000
1001
0000
0001
0100
,
0010
0000
0000
1000
0000
0000
0001
0000
0000
0000
0000
0000
1001
0000
0000
0000
0000
0000
1000
0000
0000
0000
0000
0000
0001
0000
1000
0000
0001
0000
1000
0000
0001
0000
1000
0000
0001
0000
0000
0000
0000
0000
1000
0000
0000
0000
0000
0000
,
0001
0100
0010
0000
1000
0000
1000
0000
0100
0000
0010
0000
0011
0000
0001
1000
,
0010
1000
0001
0000
2000
0000
3002
0000
0013
0000
0000
0000
11MM
0000
0200
0000
,
0000
0300
0011
0000
0000
0000
0001
0000
0101
0000
0001
0010
0000
0001
1000
0000
,
0001
0100
0000
0001
1000
0000
1000
0100
0010
0000
0010
0100
1000
0000
0001
0000
,
1000
0000
M100
0000
0M10
0000
00M1
0000
100M
0000
0100
0000
0011
0000
0001
1000
,
0001
1000
0010
0000
1000
0000
0010
1000
0100
0000
0010
0000
0110
0000
0100
1000
,
0100
1000
0001
0000
0010
0000
0100
1000
0001
0000
1000
0000
1001
0000
0001
0100
,
0001
0100
0010
0000
0100
0000
0001
0010
0100
0000
0010
0000
1001
0000
1000
0001
,
1000
0001
0010
0000
0001
0000
1000
0001
0100
0000
0001
0000
0101
0000
0100
0010
,
0100
0010
1000
0000
0010
0000
1000
0100
0010
0000
0001
0000
0011
0000
0010
0001
,
0010
0001
0100
0000
0001
0000
0100
0001
0010
0000
0010
0000
0001
0000
0001
0000
,
1000
0000
1000
0000
0001
0000
0001
0000
0100
0001
0100
0001
1000
0001
1000
0100
,
0010
0001
0010
0100
2000
0000
3020
0000
1030
0001
0010
0100
1000
0010
1000
0010
,
0100
0001
0100
0001
1000
0100
0010
0001
1000
0001
0010
0100
1000
0010
1000
0010
,
0100
0001
0100
0001
1000
0100
0010
0100
1000
0100
0010
0001
0100
0010
0100
0010
,
1000
0001
1000
0001
0010
0100
0010
0001
1000
0100
0010
0001
0100
0010
0100
0010
,
1000
0001
1000
0100
0010
0001
0010
0001
1000
0010
0100
0001
1000
0100
1000
0100
,
0010
0001
0010
0001
1000
0100
0010
0001
1000
0010
0100
0001
1000
0100
1000
0100
,
0010
0001
0010
0001
1000
0100
0010
0100
1000
0001
0010
0100
1000
0001
1000
0001
,
0010
0100
0010
0100
1000
0010
0100
0001
1000
0001
0010
0100
1000
0010
1000
0001
,
0100
0010
0100
0010
1000
0001
0200
0000
0301
1000
0010
0100
0001
0010
0001
0010
,
0100
1000
0100
1000
0001
0100
0010
1000
0001
1000
0010
0100
0001
0010
0001
0010
,
0100
1000
0100
1000
0001
0100
0010
0100
0001
0100
0010
1000
0100
0010
0100
0010
,
0001
1000
0001
1000
0010
0100
0010
1000
0001
0100
0010
1000
0100
0010
0100
0010
,
0001
1000
0001
0100
0010
1000
0010
1000
0001
0010
0100
1000
0001
0100
0001
0100
,
0010
1000
0010
1000
0001
0100
0010
1000
0001
0010
0100
1000
0001
0100
0001
0100
,
0010
1000
0010
1000
0001
0100
0010
0100
0001
1000
0010
0100
0001
1000
0001
1000
,
0010
0100
0010
0100
0001
0010
0100
1000
0001
1000
0010
0100
0001
0010
0100
1000
,
0001
1000
0001
1000
0001
1000
0001
1000
0001
1000
0001
1000
0000
0000
0000
0000
0000
0000
0000
0000
0000
0000
0000
0000
;
