#TITLE:Never Say Die;
#SUBTITLE:;
#ARTIST:Renard;
#TITLETRANSLIT:;
#SUBTITLETRANSLIT:;
#ARTISTTRANSLIT:;
#CREDIT:Mad Matt;
#BANNER:../Tachyon Spectrum-bn.png;
#BACKGROUND:../Tachyon Spectrum-bg.png;
#LYRICSPATH:;
#CDTITLE:;
#MUSIC:Never Say Die.ogg;
#OFFSET:-0.050;
#SAMPLESTART:28.346;
#SAMPLELENGTH:12.000;
#SELECTABLE:YES;
#DISPLAYBPM:250.000;
#BPMS:0.000=250.000;
#STOPS:;
#BGCHANGES:;
// cache tags:
#FIRSTBEAT:0.000;
#LASTBEAT:368.000;
#SONGFILENAME:Songs/Tachyon Spectrum/Never Say Die - [Mad Matt]/Never Say Die.sm;
#HASMUSIC:1;
#HASBANNER:1;
#MUSICLENGTH:94.164;
// end cache tags

//---------------dance-single - Mad Matt----------------
#NOTES:
     dance-single:
     Mad Matt:
     Challenge:
     18:
     1.000,1.000,0.096,0.499,1.000,711.000,9.000,47.000,0.000,0.000:


2002
0000
0000
0000
,
0000
0000
0000
0000
0000
0000
3000
0000
1003
0010
0100
0001
0010
0100
1000
0001
,
0100
0000
0001
0100
0000
0001
0100
0000
,
0001
0000
0200
0000
0320
0000
1030
0100
,
0010
0000
0100
0010
0000
0100
0010
0000
,
0100
0000
0000
0000
0000
0000
0000
0000
0000
0000
0000
0000
0000
0000
0000
0000
2000
0000
0000
0000
0000
0000
0000
0000
0000
0000
0000
0000
0000
0000
0000
3000
0002
0000
0000
0000
0000
0000
0000
0000
0000
0000
0000
0000
0000
0000
0000
0000
0003
0000
0000
0000
0000
0000
0000
0000
0000
0000
0000
0000
0000
0000
0000
0000
,
0010
0000
0100
1000
0000
0100
1000
0000
,
0100
0000
0020
0000
0032
0000
1003
0010
,
0100
0000
0010
0100
0000
0010
0100
0001
,
1100
0010
1100
0001
1100
0010
1100
0000
,
0002
0103
0020
1030
,
0001
0010
0100
1000
0001
0100
0001
1000
,
0100
0010
0001
0100
0001
1000
0010
0100
,
0001
1000
0100
0010
0001
0010
0100
1000
,
0020
0000
0000
0000
,
0000
0000
0000
0000
,
1030
0100
0010
0001
0000
0010
0001
0000
,
1000
0020
0230
0301
,
1000
0000
0001
0100
0000
0001
0100
0000
,
0001
0000
2000
0000
3200
0000
1300
0001
,
0010
0000
0001
0010
0000
0001
0010
0000
,
0001
0000
0100
0010
1000
0001
0010
0100
,
2000
3020
2030
3200
,
1300
0001
0010
0001
0100
0010
0100
0001
,
2000
3100
2000
3100
,
1000
0001
0100
0001
2000
0000
3100
0000
,
1000
0010
0100
0010
1000
0100
0010
0100
1000
0020
0000
0000
,
1030
0001
0010
0100
0010
0001
1000
0010
,
0200
0301
0200
0301
,
0010
0001
0010
0001
0010
0001
1000
0100
,
0010
0001
0100
0010
0100
0001
0010
0100
1000
0100
0010
0001
,
0100
0010
0100
0001
0010
0001
1000
0010
0100
0001
0100
0010
,
1000
0100
1000
0010
0100
0010
1000
0100
0010
0100
1000
0001
,
0010
0001
0100
0010
1000
0100
1000
0001
0100
0010
0100
0001
,
2000
0000
0000
0000
,
3000
0000
0000
0010
,
0200
0000
0000
0000
,
0300
0000
0000
0000
1000
0000
0100
1000
0100
0000
1000
0100
1000
0000
0001
0000
,
1000
0100
1000
0001
0100
0001
1000
0010
1000
0001
0010
0001
,
1000
0010
0100
0001
0010
0001
0100
0001
1000
0001
0100
0001
,
1000
0100
1000
0001
0100
0001
1000
0010
1000
0001
0010
0001
,
0100
0010
1000
0100
1000
0010
1000
0001
1000
0010
0100
0001
,
1000
0100
1000
0010
0100
0001
1000
0100
1000
0001
0100
0010
1000
0001
1000
0100
,
0010
0100
1000
0010
0100
0001
1000
0100
0010
0100
1000
0010
0100
0001
1000
0100
,
0010
0001
0100
0001
1000
0010
0100
0001
1000
0100
0010
0001
1000
0001
0100
0010
,
1000
0100
0010
0001
0100
0010
1000
0001
0020
0000
0000
0000
0030
0000
0000
0000
,
0001
0100
0010
1000
0100
0010
0100
1000
0001
0100
0010
1000
0001
1000
0100
0010
,
0001
0100
0010
1000
0001
0010
0100
0010
0001
0100
0010
1000
0001
0010
0100
0010
,
0001
1000
0001
0100
0010
1000
0100
1000
0001
0100
0010
1000
0100
1000
0001
0100
,
0010
1000
0001
1000
0100
0010
0100
1000
0010
0100
0001
1000
0001
0010
0100
1000
,
0020
0000
0000
0000
,
0030
0000
0000
0000
0000
0000
0100
0001
,
2000
0000
0000
0000
,
0000
0000
0000
0000
3001
0000
0100
0001
0100
0000
0001
0100
0001
0000
0100
0000
,
0002
0000
2003
0000
,
3001
0010
0100
1000
0001
0100
0001
1000
,
0100
0010
0001
0100
0001
1000
0010
0100
,
0001
1000
0100
0010
0001
0010
0100
1000
,
0020
0000
0000
0000
,
0000
0000
0000
0000
,
1030
0100
0010
0001
0000
0010
0001
0000
,
1000
0020
0230
0301
,
2000
0000
3002
0000
,
1003
0100
0010
0001
1000
0010
1000
0001
,
0010
0100
1000
0010
1000
0001
0100
0010
,
1000
0001
0010
0100
1000
0100
0010
0001
,
0200
0000
0000
0000
,
0000
0000
0000
0000
,
0301
0010
0100
1000
0000
0100
1000
0000
,
0100
2000
3002
0103
,
0010
0000
1000
0010
0000
1000
0010
0000
,
1000
0000
0002
0000
2003
0000
3001
0100
,
0010
0000
0100
0010
0000
0100
0010
0000
,
0100
0002
2003
3000
,
0100
0000
1000
0100
0000
1000
0100
0000
,
1000
0000
0002
0000
0203
0000
0310
1000
,
0001
0000
0100
0001
0000
0100
0001
0000
,
1100
0010
1100
0001
1100
0010
1100
0001
,
1000
0100
1000
0010
0100
0001
1000
0100
1000
0010
0100
0001
1000
0100
0010
0100
,
1000
0001
0100
0010
0100
0001
1000
0100
0010
0001
1000
0001
0100
0010
1000
0001
,
1000
0010
1000
0001
0010
0100
1000
0010
1000
0001
0010
0100
1000
0010
0100
0010
,
1000
0001
0010
0100
0010
0001
1000
0010
0100
0001
1000
0001
0010
0100
1000
0001
,
0100
0001
0010
0100
1000
0001
1000
0010
0100
0010
1000
0100
0010
0001
1000
0001
,
0100
0010
1000
0100
1000
0001
0100
0010
0100
0001
0010
0100
1000
0001
1000
0010
,
1000
0100
0010
0001
0100
0010
0100
0001
1000
0100
0010
0001
0100
0010
0100
0001
,
1000
0100
1000
0010
0100
0001
1000
0100
1000
0010
0100
0001
1000
0100
0010
0100
,
1000
0001
0100
0010
0100
0001
1000
0100
1000
0001
0100
0010
1000
0001
1000
0100
,
0010
0100
1000
0001
1000
0010
0100
0001
0100
0010
1000
0001
1000
0100
0010
0100
,
1000
0001
0100
0010
1000
0100
1000
0001
0100
0010
1000
0100
1000
0001
0010
0001
,
1000
0010
0100
0001
0010
0001
1000
0010
0100
0001
1000
0001
0010
0100
1000
0001
,
0200
0000
0000
0000
,
0000
0000
0000
0000
,
0300
0000
0000
0000
;

//---------------dance-single - Tachyon Alpha----------------
#NOTES:
     dance-single:
     Tachyon Alpha:
     Easy:
     17:
     1.000,1.000,0.202,0.563,1.000,746.000,19.000,53.000,0.000,4.000:

2020
0000
0000
0000
,
0000
0000
0000
0000
0030
0000
0000
0000
3010
0100
0001
1000
0010
0100
0001
1000
,
0010
0000
0100
0001
0000
0010
0001
0000
,
0010
0000
0200
0000
0320
0000
0031
0100
,
0010
0000
1000
0010
0000
1000
0010
0000
,
0100
0000
0000
0000
0000
0000
0000
0000
0000
0000
0000
0000
0000
0000
0000
0000
2020
0000
0000
0000
0000
0000
0000
0000
0000
0000
0000
0000
0000
0000
0000
3030
0202
0000
0000
0000
0000
0000
0000
0000
0000
0000
0000
0000
0000
0000
0000
0000
0303
0000
0000
0000
0000
0000
0000
0000
0000
0000
0000
0000
0000
0000
0000
0000
,
0010
0000
0100
1000
0000
0100
1000
0000
,
0100
0000
0020
0000
0032
0000
1003
0010
,
0100
0000
0001
0100
0000
0010
1000
0001
,
0101
0100
0110
0010
1010
1000
1001
0000
,
0002
0203
0320
2030
,
3100
0010
0001
0100
0010
1000
0100
1000
,
0010
0100
0001
0010
0100
0010
0001
1000
,
0010
0100
0001
1000
0100
0010
0001
1000
,
0020
0100
1000
0100
,
1000
0100
1000
0100
,
1030
0100
0010
0001
0000
0000
1000
0000
,
0100
0101
1010
0001
,
1000
0000
0001
0100
0000
0001
0100
0000
,
0010
0000
2000
0000
3200
0000
1300
0010
,
0100
0000
0001
0100
0000
0001
0100
0000
,
0010
0000
0100
0001
0100
0010
1000
0000
,
0002
0023
0230
2300
,
3100
0000
0010
0000
0100
0000
1000
0000
0000
0001
0000
0000
0100
0000
0000
0010
0000
0000
0100
0000
0000
0001
0000
0000
,
2000
3002
2003
3002
,
0013
0100
1000
0100
0020
0000
0032
0000
,
0013
0001
0100
0010
1000
0100
1000
0010
0100
0002
0000
0000
,
1003
0010
0100
0001
0100
0010
1000
0001
,
0200
0320
0230
0320
,
0230
0001
0001
0001
0301
1000
0100
1000
,
0001
0100
0010
1000
0001
0010
0100
0010
0001
1000
0010
0100
,
0001
0100
0010
1000
0001
1000
0100
0010
0100
1000
0001
0010
,
0100
0010
0001
1000
0010
0100
0001
0100
0010
1000
0001
0100
,
0010
0100
0001
1000
0100
0010
0001
0010
0100
1000
0100
0010
,
0002
0010
0010
0100
,
0100
1000
1000
0100
,
2003
0001
0001
0100
,
3100
0000
0000
0000
0100
1000
0100
0000
1000
0100
1000
0000
0100
1000
0100
0000
,
1000
0100
0010
0100
1000
0100
0010
0001
0010
0100
0010
0001
,
1000
0010
1000
0001
1000
0010
0100
0001
1000
0001
0100
0001
,
1000
0010
0100
0010
1000
0010
0100
0001
0100
0010
0100
0001
,
1000
0100
0010
0001
1000
0100
0010
0100
1000
0001
0010
0001
,
1000
0100
1000
0001
0100
0001
1000
0010
1000
0001
0010
0001
1000
0100
0010
0001
,
1000
0100
0010
0001
1000
0100
1000
0001
0100
0001
1000
0010
1000
0001
0010
0001
,
1000
0100
0010
0001
1000
0100
0010
0001
1000
0100
0010
0100
1000
0001
0010
0100
,
1000
0001
0100
0010
1000
0001
0100
0010
2000
0000
0000
0000
3000
0000
0000
0000
,
0001
0100
0010
1000
0001
0100
0010
1000
0001
0010
0100
1000
0001
0010
0100
1000
,
0100
0010
0001
1000
0100
0010
0001
1000
0100
1000
0001
0100
0001
1000
0010
1000
,
0001
0010
0100
1000
0001
0010
0001
1000
0100
1000
0001
0010
0001
1000
0010
0100
,
0001
1000
0010
0100
0001
1000
0100
0010
0001
1000
0100
0010
0001
1000
0010
0100
,
0002
0100
0100
0010
,
0010
0000
1000
0000
1000
0000
0013
0100
,
2000
0010
0010
0100
,
0100
0000
0000
0000
3001
0100
0001
0000
0100
0001
0100
0000
0001
0000
0001
0000
,
2000
0000
3200
0000
,
1300
0010
0100
0001
0010
0001
1000
0010
,
0100
0001
1000
0100
0010
0100
1000
0001
,
0010
0100
0010
0001
1000
0010
0100
0001
,
0020
0001
0100
0001
,
0100
0001
0100
0001
,
0130
1000
0001
0100
0000
0000
0010
0000
,
0100
1001
0101
1000
,
0020
0000
0230
0000
,
0301
0010
0100
0010
0001
1000
0100
0010
,
0001
1000
0010
0100
0001
0100
0010
1000
,
0001
0100
0010
1000
0001
0010
0100
1000
,
0200
1000
0010
1000
,
0010
1000
0010
1000
,
0310
0001
0100
0010
0000
0000
0100
0000
,
0001
1100
0011
0100
,
1000
0000
0001
0100
0000
0001
0100
0000
,
0010
0000
0200
0000
0302
0000
1003
0010
,
0100
0000
0001
0100
0000
0001
0100
0000
,
0010
0000
0000
0000
0000
0000
0000
0000
0000
0000
0000
0000
0000
0000
0000
0000
2200
0000
0000
0000
0000
0000
0000
0000
0000
0000
0000
0000
0000
0000
0000
3300
0022
0000
0000
0000
0000
0000
0000
0000
0000
0000
0000
0000
0000
0000
0000
0000
0033
0000
0000
0000
0000
0000
0000
0000
0000
0000
0000
0000
0000
0000
0000
0000
,
0100
0000
1000
0100
0000
1000
0100
0000
,
0010
0000
0002
0000
0203
0000
0310
1000
,
0001
0000
0100
0001
0000
0100
0001
0000
,
0111
0111
0111
0111
,
1000
0010
0100
0001
1000
0010
0100
0001
1000
0010
1000
0001
0100
0001
1000
0100
,
0010
0001
1000
0100
0010
0001
1000
0100
0010
0100
1000
0001
0010
0100
1000
0001
,
0100
0010
1000
0001
0100
0010
1000
0010
0100
0001
1000
0010
0100
0001
1000
0001
,
0010
0100
1000
0001
0010
0100
1000
0100
0010
0001
1000
0100
0010
0100
1000
0001
,
1000
0010
0100
0001
1000
0010
0100
0010
1000
0001
0100
0010
1000
0001
0100
0010
,
1000
0001
0010
0100
1000
0001
0010
0100
1000
0001
0010
0100
0010
0001
1000
0100
,
1000
0001
0010
0001
1000
0010
1000
0001
0100
0001
1000
0100
1000
0001
0010
0001
,
1000
0100
0010
0001
1000
0100
0010
0100
1000
0001
0010
0100
1000
0001
0010
0001
,
1000
0010
1000
0001
0100
0010
1000
0001
0100
0010
1000
0010
0100
0001
1000
0010
,
1000
0001
0010
0100
1000
0001
0010
0100
1000
0001
0010
0001
1000
0100
1000
0001
,
0100
0010
1000
0010
0100
0001
1000
0010
1000
0001
0010
0001
1000
0100
1000
0001
,
0010
0001
1000
0100
0010
0001
1000
0100
0010
0001
0010
0100
1000
0001
0010
0100
,
2000
0000
0000
0000
,
0000
0000
0000
0000
,
3000
0000
0000
0000
;

//---------------dance-single - Mad Matt----------------
#NOTES:
     dance-single:
     Mad Matt:
     Hard:
     17:
     1.000,1.000,0.096,0.499,1.000,711.000,9.000,47.000,0.000,0.000:

2002
0000
0000
0000
,
0000
0000
0000
0000
0000
0000
3000
0000
1003
0010
1000
0001
0010
0100
1000
0001
,
0100
0000
0001
0100
0000
0001
0100
0000
,
0001
0000
0200
0000
0320
0000
1030
0100
,
0010
0000
0100
0010
0000
0100
0010
0000
,
0100
0000
0000
0000
0000
0000
0000
0000
0000
0000
0000
0000
0000
0000
0000
0000
2000
0000
0000
0000
0000
0000
0000
0000
0000
0000
0000
0000
0000
0000
0000
3000
0002
0000
0000
0000
0000
0000
0000
0000
0000
0000
0000
0000
0000
0000
0000
0000
0003
0000
0000
0000
0000
0000
0000
0000
0000
0000
0000
0000
0000
0000
0000
0000
,
0010
0000
0100
1000
0000
0100
1000
0000
,
0100
0000
0020
0000
0032
0000
1003
0010
,
0100
0000
0010
0100
0000
0010
0100
0001
,
1100
0010
1100
0001
1100
0010
1100
0000
,
0002
0103
0020
1030
,
0001
0010
0100
1000
0001
0100
0001
1000
,
0100
0010
0001
0100
0001
1000
0010
0100
,
0001
1000
0100
0010
0001
0010
0100
1000
,
0020
0000
0000
0000
,
0000
0000
0000
0000
,
1030
0100
0010
0001
0000
0010
0001
0000
,
1000
0020
0230
0301
,
1000
0000
0001
0100
0000
0001
0100
0000
,
0001
0000
2000
0000
3200
0000
1300
0001
,
0010
0000
0001
0010
0000
0001
0010
0000
,
0001
0000
0100
0010
1000
0001
0010
0100
,
2000
3020
2030
3200
,
1300
0001
0010
0001
0100
0010
0100
0001
,
2000
3100
2000
3100
,
1000
0001
0100
0001
2000
0000
3100
0000
,
1000
0010
0100
0010
1000
0100
0010
0100
1000
0020
0000
0000
,
1030
0001
0010
0100
0010
0001
1000
0010
,
0200
0301
0200
0301
,
0010
0001
0010
0001
0010
0001
1000
0100
,
0010
0001
0100
0010
0100
0001
0010
0100
1000
0100
0010
0001
,
0100
0010
0100
0001
0010
0001
1000
0010
0100
0001
0100
0010
,
1000
0100
1000
0010
0100
0010
1000
0100
0010
0100
1000
0001
,
0010
0001
0100
0010
1000
0100
1000
0001
0100
0010
0100
0001
,
2000
0000
0000
0000
,
3000
0000
0000
0010
,
0200
0000
0000
0000
,
0300
0000
0000
0000
1000
0000
0100
1000
0100
0000
1000
0100
1000
0000
0001
0000
,
1000
0100
1000
0001
0100
0001
1000
0010
1000
0001
0010
0001
,
1000
0010
0100
0001
0010
0001
0100
0001
1000
0001
0100
0001
,
1000
0100
1000
0001
0100
0001
1000
0010
1000
0001
0010
0001
,
0100
0010
1000
0100
1000
0010
1000
0001
1000
0010
0100
0001
,
1000
0100
1000
0001
0010
0001
1000
0010
1000
0001
1000
0100
0010
0001
1000
0001
,
0100
0001
1000
0010
0100
0001
1000
0100
1000
0001
1000
0010
0100
0001
1000
0100
,
0010
0001
1000
0001
0100
0010
0100
0001
1000
0100
0010
0100
1000
0001
0100
0010
,
1000
0100
1000
0001
0100
0010
0100
0001
2000
0000
0000
0000
3000
0000
0000
0000
,
0001
0100
0001
1000
0001
0010
0100
1000
0010
0100
0001
1000
0001
0010
0100
1000
,
0010
1000
0001
1000
0100
1000
0001
0100
0001
1000
0010
0100
0001
1000
0100
1000
,
0010
0100
0001
1000
0100
1000
0001
0010
0100
1000
0001
0100
0001
1000
0010
0100
,
0001
1000
0010
1000
0001
1000
0100
0010
0100
1000
0001
0100
0010
1000
0100
1000
,
0002
0000
0000
0000
,
0003
0000
0000
0000
0000
0000
0010
0100
,
2000
0000
0000
0000
,
0000
0000
0000
0000
3001
0000
0100
0001
0100
0000
0001
0100
0001
0000
0100
0000
,
0002
0000
2003
0000
,
3001
0010
0100
1000
0001
0100
0001
1000
,
0100
0010
0001
0100
0001
1000
0010
0100
,
0001
1000
0100
0010
0001
0010
0100
1000
,
0020
0000
0000
0000
,
0000
0000
0000
0000
,
1030
0100
0010
0001
0000
0010
0001
0000
,
1000
0020
0230
0301
,
2000
0000
3002
0000
,
1003
0100
0010
0001
1000
0010
1000
0001
,
0010
0100
1000
0010
1000
0001
0100
0010
,
1000
0001
0010
0100
1000
0100
0010
0001
,
0200
0000
0000
0000
,
0000
0000
0000
0000
,
0301
0010
0100
1000
0000
0100
1000
0000
,
0100
2000
3002
0103
,
0010
0000
1000
0010
0000
1000
0010
0000
,
1000
0000
0002
0000
2003
0000
3001
0100
,
0010
0000
0100
0010
0000
0100
0010
0000
,
0100
0002
2003
3000
,
0100
0000
1000
0100
0000
1000
0100
0000
,
1000
0000
0002
0000
0203
0000
0310
1000
,
0001
0000
0100
0001
0000
0100
0001
0000
,
1100
0010
1100
0001
1100
0010
1100
0001
,
1000
0100
1000
0001
0100
0010
1000
0001
0010
0001
1000
0010
0100
0001
1000
0100
,
0010
0001
0010
0100
1000
0001
0100
0010
0100
0001
1000
0100
0010
0001
1000
0010
,
0100
0010
1000
0001
0010
0100
1000
0001
0100
0001
1000
0100
0010
0001
1000
0010
,
0100
0001
0100
0010
1000
0001
0010
0100
0010
0001
1000
0010
0100
0001
1000
0100
,
1000
0010
0100
0001
1000
0100
0010
0100
1000
0001
0100
0010
0100
0001
1000
0100
,
1000
0001
0100
0001
1000
0001
0010
0100
1000
0001
1000
0010
1000
0001
0100
0010
,
1000
0001
0010
0001
1000
0010
0100
0001
1000
0100
1000
0001
0100
0010
1000
0001
,
0010
0001
1000
0010
1000
0001
1000
0100
0010
0001
1000
0010
0100
0001
1000
0001
,
0010
0001
1000
0010
0100
0010
1000
0001
0100
0001
1000
0100
1000
0001
0100
0010
,
0100
0001
1000
0100
1000
0001
0100
0010
1000
0001
0010
0001
1000
0010
0100
0001
,
1000
0010
0100
0010
1000
0001
0010
0100
1000
0001
1000
0010
0100
0010
1000
0001
,
0010
0100
1000
0001
1000
0010
0100
0001
1000
0001
0010
0100
1000
0001
1000
0010
,
0200
0000
0000
0000
,
0000
0000
0000
0000
,
0300
0000
0000
0000
;

//---------------dance-single - Mad Matt----------------
#NOTES:
     dance-single:
     Mad Matt:
     Medium:
     17:
     1.000,1.000,0.096,0.499,1.000,711.000,9.000,47.000,0.000,0.000:




2002
0000
0000
0000
,
0000
0000
0000
0000
0000
0000
3000
0000
1003
0100
0010
0100
1000
0001
1000
0010
,
0100
0000
0001
0100
0000
0001
0100
0000
,
0001
0000
0200
0000
0320
0000
1030
0100
,
0010
0000
0100
0010
0000
0100
0010
0000
,
0100
0000
0000
0000
0000
0000
0000
0000
0000
0000
0000
0000
0000
0000
0000
0000
2000
0000
0000
0000
0000
0000
0000
0000
0000
0000
0000
0000
0000
0000
0000
3000
0002
0000
0000
0000
0000
0000
0000
0000
0000
0000
0000
0000
0000
0000
0000
0000
0003
0000
0000
0000
0000
0000
0000
0000
0000
0000
0000
0000
0000
0000
0000
0000
,
0010
0000
0100
1000
0000
0100
1000
0000
,
0100
0000
0020
0000
0032
0000
1003
0010
,
0100
0000
0010
0100
0000
0010
0100
0001
,
1100
0010
1100
0001
1100
0010
1100
0000
,
0002
0103
0020
1030
,
0001
0010
0100
1000
0001
0100
0001
1000
,
0100
0010
0001
0100
0001
1000
0010
0100
,
0001
1000
0100
0010
0001
0010
0100
1000
,
0020
0000
0000
0000
,
0000
0000
0000
0000
,
1030
0100
0010
0001
0000
0010
0001
0000
,
1000
0020
0230
0301
,
1000
0000
0001
0100
0000
0001
0100
0000
,
0001
0000
2000
0000
3200
0000
1300
0001
,
0010
0000
0001
0010
0000
0001
0010
0000
,
0001
0000
0100
0010
1000
0001
0010
0100
,
2000
3020
2030
3200
,
1300
0001
0010
0001
0100
0010
0100
0001
,
2000
3100
2000
3100
,
1000
0001
0100
0001
2000
0000
3100
0000
,
1000
0010
0100
0010
1000
0100
0010
0100
1000
0020
0000
0000
,
1030
0001
0010
0100
0010
0001
1000
0010
,
0200
0301
0200
0301
,
0010
0001
0010
0001
0010
0001
1000
0100
,
0010
0001
0100
0010
0100
0001
0010
0100
1000
0100
0010
0001
,
0100
0010
0100
0001
0010
0001
1000
0010
0100
0001
0100
0010
,
1000
0100
1000
0010
0100
0010
1000
0100
0010
0100
1000
0001
,
0010
0001
0100
0010
1000
0100
1000
0001
0100
0010
0100
0001
,
2000
0000
0000
0000
,
3000
0000
0000
0010
,
0200
0000
0000
0000
,
0300
0000
0000
0000
1000
0000
0100
1000
0100
0000
1000
0100
1000
0000
0001
0000
,
1000
0100
1000
0001
0100
0001
1000
0010
1000
0001
0010
0001
,
1000
0010
0100
0001
0010
0001
0100
0001
1000
0001
0100
0001
,
1000
0100
1000
0001
0100
0001
1000
0010
1000
0001
0010
0001
,
0100
0010
1000
0100
1000
0010
1000
0001
1000
0010
0100
0001
,
1000
0100
0010
0100
1000
0001
1000
0010
0100
0001
0100
0001
1000
0010
1000
0001
,
0010
0001
1000
0010
1000
0010
0100
0001
1000
0001
0010
0100
1000
0001
0010
0100
,
0010
0001
1000
0010
0100
0001
1000
0100
1000
0001
0100
0001
0100
0010
1000
0100
,
1000
0001
0100
0010
1000
0001
0010
0100
2000
0000
0000
0000
3000
0000
0000
0000
,
0001
0100
0001
1000
0001
0010
0100
1000
0100
1000
0001
1000
0010
0100
0010
1000
,
0001
0100
0010
0100
0001
1000
0001
0010
0001
1000
0100
0010
0100
1000
0001
0100
,
0001
1000
0001
0010
0100
0010
0001
1000
0001
0100
0010
1000
0010
1000
0001
1000
,
0010
0100
0001
1000
0001
0010
0001
1000
0010
0100
0001
0100
0001
1000
0100
1000
,
0002
0000
0000
0000
,
0003
0000
0000
0000
0000
0000
0010
0100
,
2000
0000
0000
0000
,
0000
0000
0000
0000
3001
0000
0100
0001
0100
0000
0001
0100
0001
0000
0100
0000
,
0002
0000
2003
0000
,
3001
0010
0100
1000
0001
0100
0001
1000
,
0100
0010
0001
0100
0001
1000
0010
0100
,
0001
1000
0100
0010
0001
0010
0100
1000
,
0020
0000
0000
0000
,
0000
0000
0000
0000
,
1030
0100
0010
0001
0000
0010
0001
0000
,
1000
0020
0230
0301
,
2000
0000
3002
0000
,
1003
0100
0010
0001
1000
0010
1000
0001
,
0010
0100
1000
0010
1000
0001
0100
0010
,
1000
0001
0010
0100
1000
0100
0010
0001
,
0200
0000
0000
0000
,
0000
0000
0000
0000
,
0301
0010
0100
1000
0000
0100
1000
0000
,
0100
2000
3002
0103
,
0010
0000
1000
0010
0000
1000
0010
0000
,
1000
0000
0002
0000
2003
0000
3001
0100
,
0010
0000
0100
0010
0000
0100
0010
0000
,
0100
0002
2003
3000
,
0100
0000
1000
0100
0000
1000
0100
0000
,
1000
0000
0002
0000
0203
0000
0310
1000
,
0001
0000
0100
0001
0000
0100
0001
0000
,
1100
0010
1100
0001
1100
0010
1100
0001
,
1000
0100
1000
0100
0010
0100
1000
0001
0100
0001
1000
0010
0100
0001
0100
0010
,
1000
0001
1000
0100
1000
0001
0100
0010
0100
0001
1000
0010
1000
0001
0010
0100
,
1000
0100
1000
0001
1000
0010
1000
0001
0100
0010
1000
0001
1000
0100
0010
0100
,
1000
0001
0010
0001
1000
0010
0100
0001
1000
0010
0100
0010
1000
0001
1000
0100
,
1000
0001
0100
0010
0100
0001
0100
0001
1000
0010
1000
0001
1000
0100
0010
0100
,
1000
0001
0010
0001
0010
0100
1000
0001
1000
0010
0100
0010
1000
0001
0100
0001
,
1000
0001
0010
0100
1000
0100
1000
0001
1000
0010
0100
0001
0100
0010
0100
0001
,
1000
0010
1000
0001
1000
0100
0010
0100
1000
0001
0010
0100
1000
0001
1000
0010
,
0100
0010
1000
0001
0100
0010
1000
0010
1000
0001
0100
0001
1000
0001
0010
0100
,
0010
0001
1000
0100
0010
0100
1000
0001
1000
0010
1000
0001
0100
0010
0100
0001
,
1000
0100
1000
0001
0100
0010
0100
0001
1000
0001
0100
0001
0100
0010
1000
0001
,
1000
0100
1000
0001
0100
0010
0100
0001
1000
0100
1000
0001
1000
0010
0100
0001
,
2000
0000
0000
0000
,
0000
0000
0000
0000
,
3000
0000
0000
0000
;
