#TITLE:Zamknij Morde Tepa Kurwo;
#SUBTITLE:EXoduz Violation II;
#ARTIST:Loffciamcore;
#TITLETRANSLIT:;
#SUBTITLETRANSLIT:;
#ARTISTTRANSLIT:;
#CREDIT:;
#BANNER:../Banner.png;
#BACKGROUND:../Background.png;
#LYRICSPATH:;
#CDTITLE:;
#MUSIC:Loffciamcore.ogg;
#OFFSET:1.700;
#SAMPLESTART:15.390;
#SAMPLELENGTH:11.860;
#SELECTABLE:YES;
#DISPLAYBPM:240.000;
#BPMS:0.000=120.000,28.000=240.000,236.000=255.750,304.000=262.250,339.000=238.000,369.000=235.000,370.500=240.000,780.500=75.000,794.000=3000.000;
#STOPS:680.000=4.800
;
#BGCHANGES:;
// cache tags:
#FIRSTBEAT:4.000;
#LASTBEAT:559.000;
#SONGFILENAME:Songs/EXoduz Violation II/Zamknij Morde Tepa Kurwo - [Ov3rHell3XoduZ]/SM.sm;
#HASMUSIC:1;
#HASBANNER:1;
#MUSICLENGTH:147.050;
// end cache tags

//---------------dance-single - ----------------
#NOTES:
     dance-single:
     :
     Beginner:
     14:
     1.000,1.000,0.211,0.972,1.000,1223.000,31.000,143.000,4.000,3.000:

0000
0000
0000
0000
,
1000
0100
0010
0001
1000
0010
0100
0001
,
1000
0001
0010
0001
1000
0100
0010
0001
,
1000
0010
0100
0001
1000
0100
1000
0001
,
0100
0000
0001
0000
0010
0100
1000
0001
0010
0000
0100
0000
1000
0000
0001
0000
,
0100
0001
1000
0100
0010
0001
1000
0010
,
0100
0001
1000
0100
1000
0001
0100
0001
1000
0010
1000
0001
0010
0001
1000
0100
,
0010
0001
1000
0010
0100
0001
1000
0100
,
0010
0001
1000
0010
0100
0001
1000
0100
1000
0001
0100
0001
,
0010
0100
1000
0001
0100
0001
1000
0010
,
0100
0001
1000
0100
1000
0010
0100
0001
0010
0100
1000
0001
,
1000
0100
1000
0010
0100
0001
0010
0100
,
1000
0000
0001
0000
0100
0000
0001
0000
0010
0100
1000
0001
1000
0010
1000
0010
,
0100
0001
1000
0001
1000
0000
0100
0000
0010
0001
1000
0010
1000
0010
0100
0001
,
1000
0100
0010
0100
0010
0000
0001
0000
1000
0000
0010
0000
0100
0000
0001
0000
,
1000
0100
0010
0001
1000
0010
0100
0001
1000
0100
1000
0010
,
0100
0001
0010
0100
1000
0001
0100
0001
1000
0010
0100
0001
,
2000
0000
0000
3200
0000
0000
0310
0001
1000
0010
0100
0001
,
1000
0000
0000
0100
0000
0000
1000
0000
0000
0100
0000
0000
1000
0000
0000
0000
0100
0000
0000
0000
0010
0000
0000
0000
0001
0000
0000
0000
1000
0000
0000
0000
0010
0000
0000
0000
0100
0000
0000
0000
0001
0000
0000
0000
1000
0000
0000
0000
,
0200
0000
0000
0320
0000
0000
0031
1000
0001
0100
0001
0010
,
0100
0000
0000
1000
0000
0000
0010
0000
0000
0100
0000
0000
0001
0000
0000
0000
1000
0000
0000
0000
0100
0000
0000
0000
1000
0000
0000
0100
0000
0000
0010
0000
0000
0001
0000
0000
1000
0000
0000
0001
0000
0000
0100
0000
0000
0001
0000
0000
,
2000
0000
3002
0000
0103
0100
0100
0100
,
0020
0000
0000
0000
1030
1000
1000
1000
,
0100
0010
0001
1000
0100
1000
0010
0100
0001
0010
0100
1000
,
0001
0100
0001
1000
0010
0100
0001
0010
0100
1000
0001
0100
,
0001
1000
0100
0010
0100
1000
0010
0100
0001
1000
0001
0010
,
0001
1000
0100
0010
0001
1000
1001
0000
0000
0110
0000
0000
,
1001
0000
1000
0010
0100
0001
1000
0100
1000
0100
0010
0001
1000
0010
0100
0001
,
1000
0100
0010
0001
1000
0001
0100
0001
1000
0100
0010
0001
,
2000
3020
0230
0302
,
1003
0100
0010
0001
1000
0001
0200
0300
0000
0020
0030
0000
,
1000
0100
0010
0001
1000
0010
1000
0010
0100
0001
1000
0001
1000
0100
0010
0001
,
2000
3200
0320
0230
,
1300
0010
0100
0001
1000
0100
1000
0001
0100
0001
0010
0100
,
2000
0000
3200
0000
2300
3002
2003
3002
,
1003
0100
0010
0001
1000
0001
0100
0001
0010
0100
1000
0010
,
0100
0000
0000
0000
0001
0000
0000
0000
1000
0000
0000
0000
0100
0000
0000
0000
1000
0000
0000
0000
0010
0000
0000
0000
1000
0000
0000
0100
0000
0000
1000
0000
0000
0100
0000
0000
0010
0000
0000
0001
0000
0000
0010
0000
0000
0001
0000
0000
,
1000
0100
0020
0000
0032
0000
2003
0000
,
3200
0000
2300
0000
3010
0100
0001
1000
,
0200
0320
0032
2003
,
3002
0203
0302
0003
,
2111
3200
0320
0032
,
2003
3020
0230
0000
,
0301
0000
0000
0000
1000
0100
0010
0000
0001
0100
0010
1000
0100
0000
0010
0001
,
1000
0000
0010
0100
0001
0000
0001
0010
0100
1000
0001
1000
0100
0000
0010
0001
,
0100
0000
0000
0000
0010
0000
1000
0000
0100
0010
0001
0100
0010
1000
0000
0100
,
0010
0001
1000
0100
1000
0000
0001
0000
0010
0000
0011
0000
0010
0000
0110
0000
,
0200
0000
0000
0000
,
2300
0000
0000
0000
,
3020
0230
0302
2003
,
3200
0000
0000
0000
0320
0000
0000
0000
0031
1000
0100
1000
0001
0100
0001
1000
,
0001
1000
0100
1000
0010
0100
0001
0010
0100
1000
0001
0100
,
0001
1000
0100
0010
0001
1000
0010
0100
0001
1000
0001
1000
,
0100
1000
0010
0100
0001
0010
0001
0010
0100
1000
0001
0100
,
0001
1000
0010
0100
0001
0010
0001
1000
0100
1000
0010
0100
,
0001
1000
0001
1000
0100
1000
0010
0100
0001
0010
0001
0010
,
0100
1000
0001
0100
0001
1000
0010
0100
0001
1000
0100
0010
,
0100
1000
0010
0100
0001
1000
0001
0010
0001
1000
0100
0010
,
0002
0203
0320
0000
,
1030
0100
0010
0100
1000
0001
0100
0001
0100
0010
1000
0100
,
0010
0001
1000
0001
0010
0001
1000
0100
0010
0001
1000
0010
,
1000
0010
0100
0001
1000
0100
1000
0010
0100
0001
1000
0001
,
0010
0100
1000
0001
0100
0001
1000
0010
0100
0004
0000
0000
,
0013
0100
1000
0001
0100
0001
1000
0100
0010
0002
0000
0000
,
2003
0000
0000
3100
0010
0100
1000
0001
0100
0001
0100
0010
,
1000
0100
0010
0001
0100
0001
0100
0010
1000
0001
1000
0100
,
0020
0000
0000
0032
0000
0000
1003
0100
0010
0100
1000
0001
,
1000
0001
0100
0010
1000
0100
1000
0100
0010
0001
1000
0001
,
0100
0001
0100
0010
1000
0100
1000
0001
1000
0100
1000
0010
,
0100
0001
0010
0001
0010
0100
1000
0001
0100
0001
1000
0100
,
0010
0001
1000
0001
0100
0001
0100
0010
1000
0100
0010
0001
,
1000
0010
1000
0010
0100
0001
1000
0100
1000
0010
0100
0001
,
1000
0001
0010
0001
1000
0100
0010
0001
0010
0001
1000
0010
,
0100
0001
1000
0100
1000
0010
0100
0001
0100
0001
0010
0100
,
1000
0001
0100
0001
0100
0010
1000
0100
1000
0100
0010
0001
,
0200
0320
2030
0000
,
3100
0010
0001
0100
0001
1000
0001
1000
0100
1000
0010
0100
,
0001
0010
0001
0010
0100
1000
0001
0100
0001
1000
0010
0100
,
0001
1000
0001
1000
0100
1000
0010
0100
0001
0010
0001
0010
,
0100
1000
0010
0100
0001
1000
0001
0010
0001
1000
0100
0010
,
0001
1000
0010
1000
0010
0100
0001
1000
0100
1000
0010
0100
,
0001
0010
0001
0010
0100
1000
0001
0100
0001
1000
0010
1000
,
0010
0100
0001
1000
0100
1000
0001
0100
0001
0010
0100
1000
,
0010
0100
0001
1000
0100
1000
0010
0100
0001
2000
0000
0000
,
3020
0230
0000
0302
,
0023
0230
2300
3002
,
0203
0000
0301
0010
0100
1000
0002
0000
,
2003
3200
2300
3020
,
0230
0302
0000
0023
,
0230
0000
2300
0000
3002
0000
0103
0001
,
0100
0001
0200
0000
0000
0000
0320
0000
,
2030
3200
2300
3002
,
0203
0000
0302
0000
0000
1003
0100
0010
,
0001
1000
0001
0100
0001
1000
0010
0100
,
0001
0000
0010
0000
0100
0000
1000
0000
0001
0000
0100
0000
0001
1000
0100
1000
,
0010
0100
0001
1000
0001
0040
0000
0000
0000
0430
0000
0000
0000
0000
0000
0000
,
0000
4300
3400
0340
,
0000
0000
0000
0000
,
0000
0000
0000
0031
,
0000
0000
0000
0000
,
0000
0000
0000
0000
0000
0000
0000
0000
0000
1000
0100
1000
,
0100
0010
0001
1000
0010
1000
0010
0100
0001
1000
0100
1000
,
0100
0010
0001
1000
0010
0100
0001
0010
0001
0010
0100
1000
,
0001
1000
0010
0100
0001
0010
0001
0010
0100
1000
0010
0100
,
0001
1000
0100
0010
0001
1000
0100
1000
0010
0100
0001
0010
,
0001
1000
0100
1000
0010
1000
0010
0100
0001
0010
0001
0010
,
0100
1000
0001
0100
0001
0100
0010
1000
0100
0010
0001
1000
,
0020
0000
0230
0000
0302
0000
0023
0000
0130
1000
0100
1000
0010
0100
0001
0010
,
0001
1000
0100
1000
0010
0000
0100
0000
0001
0000
0010
0000
0200
0000
0000
0000
,
2300
0000
0000
0000
0000
0000
3010
0000
0000
0400
0000
0000
0000
0000
0000
0304
0000
0000
0000
0000
0000
0013
0000
0100
,
0000
1000
0000
0001
0000
0100
0000
0010
0000
4000
0000
0000
0000
0000
0000
3400
0000
0000
0311
0000
0000
0000
0000
0000
,
1001
0000
0000
1000
0010
0100
0001
1000
0100
1000
0001
0100
,
0001
0010
0100
1000
0001
1000
0010
0100
0001
1001
0000
0000
,
1020
0000
0000
0130
0001
1000
0100
1000
0010
0100
0001
0010
,
0001
0000
1000
0000
0010
0000
0100
0000
0000
0004
0000
0000
0000
0000
0000
4003
0000
0000
0000
0000
0000
3000
0000
0000
,
0000
0000
0110
0101
0011
0110
1100
0000
,
0000
0000
0000
0000
0000
0000
1010
0000
0000
1001
0000
0000
0101
0000
0000
0011
0000
0000
0010
0000
0100
0000
1000
0000
,
0001
0100
0001
1000
0010
0100
0001
0010
0001
1000
0100
0010
,
0100
1000
0010
0100
0001
0010
0001
1000
0010
1000
0001
0100
,
0001
0000
0010
0000
0100
0000
1000
0000
0010
0000
0100
0000
0001
0000
1000
0000
0001
0000
0220
0000
0000
0330
0000
0000
,
2200
0000
0000
3300
0000
0000
2020
0000
0000
3030
0000
0000
0220
0000
0000
0330
0000
0000
0100
0000
0001
0000
1000
0000
,
0100
1000
0010
0100
0001
0010
0001
1000
0010
0100
0001
1000
,
0100
1000
0100
0010
0001
1000
0010
0100
0001
0100
0001
0010
,
0100
1000
0010
0100
0001
1000
0001
1000
0010
0100
0001
0010
,
0100
0000
0000
0000
1000
0000
0000
0000
0001
0000
0000
0000
2002
0000
0000
0000
0000
0000
3003
0000
0000
0000
0000
0000
2002
0000
0000
0000
0000
0000
3003
0000
0000
0000
0000
0000
0010
0000
0000
0100
0000
0000
0001
0000
0000
1000
0000
0000
,
0100
1000
0100
0010
0001
1000
0010
1000
0001
1000
0100
1000
0001
0100
0001
0010
,
0100
0010
0001
0100
0010
0100
0001
0010
0100
1000
0100
1000
0010
1000
0001
1000
,
0100
1000
0100
0010
0001
1000
0001
0100
0001
0010
0001
1000
0010
0100
0001
1000
,
0100
0000
0000
1000
0000
0000
0001
0000
0000
0100
0000
0000
0020
0000
0000
0000
0000
0000
2030
0000
0000
0000
0000
0000
3200
0000
0000
0000
0000
0000
0320
0000
0000
0000
0000
0000
0031
0000
0000
0000
1000
0000
0000
0000
0100
0000
0000
0000
,
1000
0010
0100
0001
0010
0001
1000
0100
1000
0100
0010
0001
,
1000
0010
0100
0001
0100
0001
0010
0100
1000
0002
0000
0000
,
0203
0320
2030
3200
,
2300
0000
3020
0230
0302
0203
0320
0000
,
2030
3200
2300
3020
,
0230
0302
0023
0230
,
2300
3002
0203
0302
,
2003
3220
0330
0220
,
0330
0000
0000
0000
,
0000
0000
0000
2222
,
0000
0000
3333
MMMM
;

//---------------dance-single - ----------------
#NOTES:
     dance-single:
     :
     Easy:
     15:
     1.000,1.000,0.211,0.925,1.000,1301.000,31.000,136.000,4.000,3.000:

0000
0000
0000
0000
,
1000
0100
0010
0001
1000
0010
1000
0100
0010
0001
1000
0001
0100
0001
0010
0100
,
1000
0100
1000
0010
0100
0001
1000
0010
0100
0001
1000
0100
1000
0010
0100
0001
,
0010
0001
1000
0100
0010
0001
1000
0010
0100
0001
1000
0100
1000
0001
0100
0001
,
0010
0100
1000
0001
0020
0230
2300
3002
0023
0130
1000
0010
0100
0001
1000
0100
,
1000
0100
0010
0001
1000
0010
0100
0001
1000
0100
1000
0001
0100
0001
0010
0100
,
1000
0001
1000
0100
1000
0001
0100
0001
1000
0010
1000
0001
0010
0001
1000
0100
,
0010
0001
1000
0100
1000
0010
0100
0001
0100
0001
1000
0100
,
1000
0001
1000
0010
0100
0001
1000
0100
1000
0001
0100
0001
,
0010
0100
1000
0001
0100
0001
1000
0010
1000
0100
0010
0001
,
1000
0001
1000
0100
1000
0010
0100
0001
0010
0100
1000
0001
,
1000
0100
1000
0010
0100
0001
0010
0001
1000
0100
0010
0001
,
1000
0000
0001
0000
0100
0000
0001
0000
0010
0100
1000
0001
1000
0010
1000
0010
,
0100
0001
1000
0001
1000
0000
0100
0000
0010
0001
1000
0010
1000
0010
0100
0001
,
1000
0100
0010
0100
0010
0000
0001
0000
1000
0000
0010
0000
0100
0000
0001
0000
,
1000
0100
0010
0001
1000
0010
0100
0001
1000
0100
1000
0010
,
0100
0001
0010
0100
1000
0001
0100
0001
1000
0010
0100
0001
,
2000
0000
0000
3200
0000
0000
0310
0001
1000
0010
0100
0001
,
1000
0000
0000
0100
0000
0000
1000
0000
0000
0100
0000
0000
1000
0000
0000
0000
0100
0000
0000
0000
0010
0000
0000
0000
0001
0000
0000
0000
1000
0000
0000
0000
0010
0000
0000
0000
0100
0000
0000
0000
0001
0000
0000
0000
1000
0000
0000
0000
,
0200
0000
0000
0320
0000
0000
0031
1000
0001
0100
0001
0010
,
0100
0000
0000
1000
0000
0000
0010
0000
0000
0100
0000
0000
0001
0000
0000
0000
1000
0000
0000
0000
0100
0000
0000
0000
1000
0000
0000
0100
0000
0000
0010
0000
0000
0001
0000
0000
1000
0000
0000
0001
0000
0000
0100
0000
0000
0001
0000
0000
,
2000
0000
3002
0000
0103
0100
0100
0100
,
0020
0000
0000
0000
1030
1000
1000
1000
,
0100
0010
0001
1000
0100
1000
0010
0100
0001
0010
0100
1000
,
0001
0100
0001
1000
0010
0100
0001
0010
0100
1000
0001
0100
,
0001
1000
0100
0010
0100
1000
0010
0100
0001
1000
0001
0010
,
0001
1000
0100
0010
0001
1000
1001
0000
0000
0110
0000
0000
,
1001
0000
1000
0010
0100
0001
1000
0100
1000
0100
0010
0001
1000
0010
0100
0001
,
1000
0100
0010
0001
1000
0001
0100
0001
1000
0100
0010
0001
,
1000
0100
1000
0010
0100
0001
0010
0001
1000
0100
0010
0001
,
1000
0100
0010
0001
1000
0001
0200
0300
0000
0020
0030
0000
,
1000
0100
0010
0001
1000
0010
1000
0010
0100
0001
1000
0001
1000
0100
0010
0001
,
1000
0100
1000
0001
0100
0001
1000
0010
1000
0001
0100
0001
,
1000
0010
0100
0001
1000
0100
1000
0001
0100
0001
0010
0100
,
2000
0000
3200
0000
2300
3002
2003
3002
,
1003
0100
0010
0001
1000
0001
0100
0001
0010
0100
1000
0010
,
0100
0000
0000
0000
0001
0000
0000
0000
1000
0000
0000
0000
0100
0000
0000
0000
1000
0000
0000
0000
0010
0000
0000
0000
1000
0000
0000
0100
0000
0000
1000
0000
0000
0100
0000
0000
0010
0000
0000
0001
0000
0000
0010
0000
0000
0001
0000
0000
,
1000
0100
0020
0000
0032
0000
2003
0000
,
3200
0000
2300
0000
3010
0100
0001
1000
,
0200
0320
0032
2003
,
3002
0203
0302
0003
,
2111
3200
0320
0032
,
2003
3020
0230
0000
,
0301
0000
0000
0000
1000
0100
0010
0000
0001
0100
0010
1000
0100
0000
0010
0001
,
1000
0000
0010
0100
0001
0000
0001
0010
0100
1000
0001
1000
0100
0000
0010
0001
,
0100
0000
0000
0000
0010
0000
1000
0000
0100
0010
0001
0100
0010
1000
0000
0100
,
0010
0001
1000
0100
1000
0000
0001
0000
0010
0000
0011
0000
0010
0000
0110
0000
,
0200
0000
0000
0000
,
2300
0000
0000
0000
,
3020
0230
0302
2003
,
3200
0000
0000
0000
0320
0000
0000
0000
0031
1000
0100
1000
0001
0100
0001
1000
,
0001
1000
0100
1000
0010
0100
0001
0010
0100
1000
0001
0100
,
0001
1000
0100
0010
0001
1000
0010
0100
0001
1000
0001
1000
,
0100
1000
0010
0100
0001
0010
0001
0010
0100
1000
0001
0100
,
0001
1000
0010
0100
0001
0010
0001
1000
0100
1000
0010
0100
,
0001
1000
0001
1000
0100
1000
0010
0100
0001
0010
0001
0010
,
0100
1000
0001
0100
0001
1000
0010
0100
0001
1000
0100
0010
,
0100
1000
0010
0100
0001
1000
0001
0010
0001
1000
0100
0010
,
0002
0203
0320
0000
,
1030
0100
0010
0100
1000
0001
0100
0001
0100
0010
1000
0100
,
0010
0001
1000
0001
0010
0001
1000
0100
0010
0001
1000
0010
,
1000
0010
0100
0001
1000
0100
1000
0010
0100
0001
1000
0001
,
0010
0100
1000
0001
0100
0001
1000
0010
0100
0004
0000
0000
,
0013
0100
1000
0001
0100
0001
1000
0100
0010
0002
0000
0000
,
2003
0000
0000
3100
0010
0100
1000
0001
0100
0001
0100
0010
,
1000
0100
0010
0001
0100
0001
0100
0010
1000
0001
1000
0100
,
0020
0000
0000
0032
0000
0000
1003
0100
0010
0100
1000
0001
,
1000
0001
0100
0010
1000
0100
1000
0100
0010
0001
1000
0001
,
0100
0001
0100
0010
1000
0100
1000
0001
1000
0100
1000
0010
,
0100
0001
0010
0001
0010
0100
1000
0001
0100
0001
1000
0100
,
0010
0001
1000
0001
0100
0001
0100
0010
1000
0100
0010
0001
,
1000
0010
1000
0010
0100
0001
1000
0100
1000
0010
0100
0001
,
1000
0001
0010
0001
1000
0100
0010
0001
0010
0001
1000
0010
,
0100
0001
1000
0100
1000
0010
0100
0001
0100
0001
0010
0100
,
1000
0001
0100
0001
0100
0010
1000
0100
1000
0100
0010
0001
,
0200
0320
2030
0000
,
3100
0010
0001
0100
0001
1000
0001
1000
0100
1000
0010
0100
,
0001
0010
0001
0010
0100
1000
0001
0100
0001
1000
0010
0100
,
0001
1000
0001
1000
0100
1000
0010
0100
0001
0010
0001
0010
,
0100
1000
0010
0100
0001
1000
0001
0010
0001
1000
0100
0010
,
0001
1000
0010
1000
0010
0100
0001
1000
0100
1000
0010
0100
,
0001
0010
0001
0010
0100
1000
0001
0100
0001
1000
0010
1000
,
0010
0100
0001
1000
0100
1000
0001
0100
0001
0010
0100
1000
,
0010
0100
0001
1000
0100
1000
0010
0100
0001
2000
0000
0000
,
3020
0230
0000
0302
,
0023
0230
2300
3002
,
0203
0000
0301
0010
0100
1000
0002
0000
,
2003
3200
2300
3020
,
0230
0302
0000
0023
,
0230
0000
2300
0000
3002
0000
0103
0001
,
0100
0001
0200
0000
0000
0000
0320
0000
,
2030
3200
2300
3002
,
0203
0000
0302
0000
0000
1003
0100
0010
,
0001
1000
0001
0100
0001
1000
0010
0100
,
0001
0000
0010
0000
0100
0000
1000
0000
0001
0000
0100
0000
0001
1000
0100
1000
,
0010
0100
0001
1000
0001
0040
0000
0000
0000
0430
0000
0000
0000
0000
0000
0000
,
0000
4300
3400
0340
,
0000
0000
0000
0000
,
0000
0000
0000
0031
,
0000
0000
0000
0000
,
0000
0000
0000
0000
0000
0000
0000
0000
0000
1000
0100
1000
,
0100
0010
0001
1000
0010
1000
0010
0100
0001
1000
0100
1000
,
0100
0010
0001
1000
0010
0100
0001
0010
0001
0010
0100
1000
,
0001
1000
0010
0100
0001
0010
0001
0010
0100
1000
0010
0100
,
0001
1000
0100
0010
0001
1000
0100
1000
0010
0100
0001
0010
,
0001
1000
0100
1000
0010
1000
0010
0100
0001
0010
0001
0010
,
0100
1000
0001
0100
0001
0100
0010
1000
0100
0010
0001
1000
,
0020
0000
0230
0000
0302
0000
0023
0000
0130
1000
0100
1000
0010
0100
0001
0010
,
0001
1000
0100
1000
0010
0000
0100
0000
0001
0000
0010
0000
0200
0000
0000
0000
,
2300
0000
0000
0000
0000
0000
3010
0000
0000
0400
0000
0000
0000
0000
0000
0304
0000
0000
0000
0000
0000
0013
0000
0100
,
0000
1000
0000
0001
0000
0100
0000
0010
0000
4000
0000
0000
0000
0000
0000
3400
0000
0000
0311
0000
0000
0000
0000
0000
,
1001
0000
0000
1000
0010
0100
0001
1000
0100
1000
0001
0100
,
0001
0010
0100
1000
0001
1000
0010
0100
0001
1001
0000
0000
,
1020
0000
0000
0130
0001
1000
0100
1000
0010
0100
0001
0010
,
0001
0000
1000
0000
0010
0000
0100
0000
0000
0004
0000
0000
0000
0000
0000
4003
0000
0000
0000
0000
0000
3000
0000
0000
,
0000
0000
0110
0101
0011
0110
1100
0000
,
0000
0000
0000
0000
0000
0000
1010
0000
0000
1001
0000
0000
0101
0000
0000
0011
0000
0000
0010
0000
0100
0000
1000
0000
,
0001
0100
0001
1000
0010
0100
0001
0010
0001
1000
0100
0010
,
0100
1000
0010
0100
0001
0010
0001
1000
0010
1000
0001
0100
,
0001
0000
0010
0000
0100
0000
1000
0000
0010
0000
0100
0000
0001
0000
1000
0000
0001
0000
0220
0000
0000
0330
0000
0000
,
2200
0000
0000
3300
0000
0000
2020
0000
0000
3030
0000
0000
0220
0000
0000
0330
0000
0000
0100
0000
0001
0000
1000
0000
,
0100
1000
0010
0100
0001
0010
0001
1000
0010
0100
0001
1000
,
0100
1000
0100
0010
0001
1000
0010
0100
0001
0100
0001
0010
,
0100
1000
0010
0100
0001
1000
0001
1000
0010
0100
0001
0010
,
0100
0000
0000
0000
1000
0000
0000
0000
0001
0000
0000
0000
2002
0000
0000
0000
0000
0000
3003
0000
0000
0000
0000
0000
2002
0000
0000
0000
0000
0000
3003
0000
0000
0000
0000
0000
0010
0000
0000
0100
0000
0000
0001
0000
0000
1000
0000
0000
,
0100
1000
0100
0010
0001
1000
0010
1000
0001
1000
0100
1000
0001
0100
0001
0010
,
0100
0010
0001
0100
0010
0100
0001
0010
0100
1000
0100
1000
0010
1000
0001
1000
,
0100
1000
0100
0010
0001
1000
0001
0100
0001
0010
0001
1000
0010
0100
0001
1000
,
0100
1000
0001
0100
0010
1000
0100
1000
0010
0100
0001
0010
0100
1000
0001
1000
,
0010
0100
0001
1000
0100
1000
0010
0100
0001
0010
0001
1000
0100
1000
0001
0100
,
0001
1000
0010
1000
0001
0100
0001
0010
0100
1000
0001
1000
0002
0000
0000
0000
,
0203
0320
2030
3200
,
2300
0000
3020
0230
0302
0203
0320
0000
,
2030
3200
2300
3020
,
0230
0302
0023
0230
,
2300
3002
0203
0302
,
2003
3220
0330
0220
,
0330
0000
0000
0000
,
0000
0000
0000
2222
,
0000
0000
3333
MMMM
;

//---------------dance-single - ----------------
#NOTES:
     dance-single:
     :
     Medium:
     16:
     1.000,1.000,0.211,0.911,1.000,1368.000,31.000,134.000,4.000,3.000:
0000
0000
0000
0000
,
1000
0100
0010
0001
1000
0010
1000
0100
0010
0001
1000
0001
0100
0001
0010
0100
,
1000
0100
1000
0010
0100
0001
1000
0010
0100
0001
1000
0100
1000
0010
0100
0001
,
0010
0001
1000
0100
0010
0001
1000
0010
0100
0001
1000
0100
1000
0001
0100
0001
,
0010
0100
1000
0001
0020
0230
2300
3002
0023
0130
1000
0010
0100
0001
1000
0100
,
1000
0100
0010
0001
1000
0010
0100
0001
1000
0100
1000
0001
0100
0001
0010
0100
,
1000
0001
1000
0100
1000
0001
0100
0001
1000
0010
1000
0001
0010
0001
1000
0100
,
0010
0001
1000
0100
1000
0010
0100
0001
0010
0001
1000
0010
1000
0001
0100
0001
,
1000
0100
1000
0010
0100
0001
0010
0100
1000
0010
0100
0001
1000
0100
1000
0001
,
1000
0100
1000
0010
0100
0001
0010
0001
1000
0100
0010
0001
0100
0001
1000
0100
,
0010
0001
1000
0001
0100
0001
0010
0100
1000
0010
0100
0001
1000
0100
1000
0001
,
0100
0010
1000
0100
1000
0001
0100
0010
1000
0100
0010
0001
1000
0100
0010
0001
,
1000
0000
0001
0000
0100
0000
0001
0000
0010
0100
1000
0001
1000
0010
1000
0010
,
0100
0001
1000
0001
1000
0000
0100
0000
0010
0001
1000
0010
1000
0010
0100
0001
,
1000
0100
0010
0100
0010
0000
0001
0000
1000
0000
0010
0000
0100
0000
0001
0000
,
1000
0100
0010
0001
1000
0010
0100
0001
1000
0100
1000
0010
,
0100
0001
0010
0100
1000
0001
0100
0001
1000
0010
0100
0001
,
2000
0000
0000
3200
0000
0000
0310
0001
1000
0010
0100
0001
,
1000
0000
0000
0100
0000
0000
1000
0000
0000
0100
0000
0000
1000
0000
0000
0000
0100
0000
0000
0000
0010
0000
0000
0000
0001
0000
0000
0000
1000
0000
0000
0000
0010
0000
0000
0000
0100
0000
0000
0000
0001
0000
0000
0000
1000
0000
0000
0000
,
0200
0000
0000
0320
0000
0000
0031
1000
0001
0100
0001
0010
,
0100
0000
0000
1000
0000
0000
0010
0000
0000
0100
0000
0000
0001
0000
0000
0000
1000
0000
0000
0000
0100
0000
0000
0000
1000
0000
0000
0100
0000
0000
0010
0000
0000
0001
0000
0000
1000
0000
0000
0001
0000
0000
0100
0000
0000
0001
0000
0000
,
2000
0000
3002
0000
0103
0100
0100
0100
,
0020
0000
0000
0000
1030
1000
1000
1000
,
0100
0010
0001
1000
0100
1000
0010
0100
0001
0010
0100
1000
,
0001
0100
0001
1000
0010
0100
0001
0010
0100
1000
0001
0100
,
0001
1000
0100
0010
0100
1000
0010
0100
0001
1000
0001
0010
,
0001
1000
0100
0010
0001
1000
1001
0000
0000
0110
0000
0000
,
1001
0000
1000
0010
0100
0001
1000
0100
1000
0100
0010
0001
1000
0010
0100
0001
,
1000
0100
0010
0001
1000
0001
0100
0001
1000
0100
0010
0001
,
1000
0100
1000
0010
0100
0001
0010
0001
1000
0100
0010
0001
,
1000
0100
0010
0001
1000
0001
0200
0300
0000
0020
0030
0000
,
1000
0100
0010
0001
1000
0010
1000
0010
0100
0001
1000
0001
1000
0100
0010
0001
,
1000
0100
1000
0010
0100
0001
0010
0001
1000
0100
0010
0001
1000
0010
0100
0001
,
0010
0001
1000
0100
1000
0010
0100
0001
0010
0100
1000
0001
0100
0001
1000
0001
,
2000
0000
3200
0000
2300
3002
2003
3002
,
1003
0100
0010
0001
1000
0001
0100
0001
0010
0100
1000
0010
,
0100
0000
0000
0000
0001
0000
0000
0000
1000
0000
0000
0000
0100
0000
0000
0000
1000
0000
0000
0000
0010
0000
0000
0000
1000
0000
0000
0100
0000
0000
1000
0000
0000
0100
0000
0000
0010
0000
0000
0001
0000
0000
0010
0000
0000
0001
0000
0000
,
1000
0100
0020
0000
0032
0000
2003
0000
,
3200
0000
2300
0000
3010
0100
0001
1000
,
0200
0320
0032
2003
,
3002
0203
0302
0003
,
2111
3200
0320
0032
,
2003
3020
0230
0000
,
0301
0000
0000
0000
1000
0100
0010
0000
0001
0100
0010
1000
0100
0000
0010
0001
,
1000
0000
0010
0100
0001
0000
0001
0010
0100
1000
0001
1000
0100
0000
0010
0001
,
0100
0000
0000
0000
0010
0000
1000
0000
0100
0010
0001
0100
0010
1000
0000
0100
,
0010
0001
1000
0100
1000
0000
0001
0000
0010
0000
0011
0000
0010
0000
0110
0000
,
0200
0000
0000
0000
,
2300
0000
0000
0000
,
3020
0230
0302
2003
,
3200
0000
0000
0000
0320
0000
0000
0000
0031
1000
0100
1000
0001
0100
0001
1000
,
0001
0100
0001
0010
0100
1000
0010
0100
0001
1000
0100
1000
0010
0100
0001
1000
,
0100
0010
0001
1000
0010
0100
0001
0010
0001
1000
0100
0010
0001
1000
0010
0100
,
0001
1000
0100
1000
0001
0100
0001
0010
0100
1000
0010
0100
0001
1000
0100
1000
,
0001
0100
0001
0010
0100
1000
0010
0100
0001
1000
0100
1000
0001
0100
0001
1000
,
0100
1000
0010
0100
0001
1000
0100
1000
0010
0100
0001
0010
0001
1000
0100
0010
,
0001
1000
0010
0100
0001
1000
0100
1000
0001
0100
0001
0010
0100
1000
0010
0100
,
0001
1000
0100
1000
0010
0100
0001
0010
0001
1000
0100
0010
0001
1000
0010
0100
,
0002
0203
0320
0000
,
1030
0100
0010
0100
1000
0001
0100
0001
0100
0010
1000
0100
,
0010
0001
1000
0001
0010
0001
1000
0100
0010
0001
1000
0010
,
1000
0010
0100
0001
1000
0100
1000
0010
0100
0001
1000
0001
,
0010
0100
1000
0001
0100
0001
1000
0010
0100
0004
0000
0000
,
0013
0100
1000
0001
0100
0001
1000
0100
0010
0002
0000
0000
,
2003
0000
0000
3100
0010
0100
1000
0001
0100
0001
0100
0010
,
1000
0100
0010
0001
0100
0001
0100
0010
1000
0001
1000
0100
,
0020
0000
0000
0032
0000
0000
1003
0100
0010
0100
1000
0001
,
1000
0001
0100
0010
1000
0100
1000
0100
0010
0001
1000
0001
,
0100
0001
0100
0010
1000
0100
1000
0001
1000
0100
1000
0010
,
0100
0001
0010
0001
0010
0100
1000
0001
0100
0001
1000
0100
,
0010
0001
1000
0001
0100
0001
0100
0010
1000
0100
0010
0001
,
1000
0010
1000
0010
0100
0001
1000
0100
1000
0010
0100
0001
,
1000
0001
0010
0001
1000
0100
0010
0001
0010
0001
1000
0010
,
0100
0001
1000
0100
1000
0010
0100
0001
0100
0001
0010
0100
,
1000
0001
0100
0001
0100
0010
1000
0100
1000
0100
0010
0001
,
0200
0320
2030
0000
,
3100
0010
0001
0100
0001
1000
0001
1000
0100
1000
0010
0100
,
0001
0010
0001
0010
0100
1000
0001
0100
0001
1000
0010
0100
,
0001
1000
0001
1000
0100
1000
0010
0100
0001
0010
0001
0010
,
0100
1000
0010
0100
0001
1000
0001
0010
0001
1000
0100
0010
,
0001
1000
0010
1000
0010
0100
0001
1000
0100
1000
0010
0100
,
0001
0010
0001
0010
0100
1000
0001
0100
0001
1000
0010
1000
,
0010
0100
0001
1000
0100
1000
0001
0100
0001
0010
0100
1000
,
0010
0100
0001
1000
0100
1000
0010
0100
0001
2000
0000
0000
,
3020
0230
0000
0302
,
0023
0230
2300
3002
,
0203
0000
0301
0010
0100
1000
0002
0000
,
2003
3200
2300
3020
,
0230
0302
0000
0023
,
0230
0000
2300
0000
3002
0000
0103
0001
,
0100
0001
0200
0000
0000
0000
0320
0000
,
2030
3200
2300
3002
,
0203
0000
0302
0000
0000
1003
0100
0010
,
0001
1000
0001
0100
0001
1000
0010
0100
,
0001
0000
0010
0000
0100
0000
1000
0000
0001
0000
0100
0000
0001
1000
0100
1000
,
0010
0100
0001
1000
0001
0040
0000
0000
0000
0430
0000
0000
0000
0000
0000
0000
,
0000
4300
3400
0340
,
0000
0000
0000
0000
,
0000
0000
0000
0031
,
0000
0000
0000
0000
,
0000
0000
0000
0000
0000
0000
0000
0000
0000
1000
0100
1000
,
0100
0010
0001
1000
0010
1000
0010
0100
0001
1000
0100
1000
,
0100
0010
0001
1000
0010
0100
0001
0010
0001
0010
0100
1000
,
0001
1000
0010
0100
0001
0010
0001
0010
0100
1000
0010
0100
,
0001
1000
0100
0010
0001
1000
0100
1000
0010
0100
0001
0010
,
0001
1000
0100
1000
0010
1000
0010
0100
0001
0010
0001
0010
,
0100
1000
0001
0100
0001
0100
0010
1000
0100
0010
0001
1000
,
0020
0000
0230
0000
0302
0000
0023
0000
0130
1000
0100
1000
0010
0100
0001
0010
,
0001
1000
0100
1000
0010
0000
0100
0000
0001
0000
0010
0000
0200
0000
0000
0000
,
2300
0000
0000
0000
0000
0000
3010
0000
0000
0400
0000
0000
0000
0000
0000
0304
0000
0000
0000
0000
0000
0013
0000
0100
,
0000
1000
0000
0001
0000
0100
0000
0010
0000
4000
0000
0000
0000
0000
0000
3400
0000
0000
0311
0000
0000
0000
0000
0000
,
1001
0000
0000
1000
0010
0100
0001
1000
0100
1000
0001
0100
,
0001
0010
0100
1000
0001
1000
0010
0100
0001
1001
0000
0000
,
1020
0000
0000
0130
0001
1000
0100
1000
0010
0100
0001
0010
,
0001
0000
1000
0000
0010
0000
0100
0000
0000
0004
0000
0000
0000
0000
0000
4003
0000
0000
0000
0000
0000
3000
0000
0000
,
0000
0000
0110
0101
0011
0110
1100
0000
,
0000
0000
0000
0000
1010
0000
1001
0000
0101
0000
0011
0000
0100
1000
0100
1000
,
0010
0100
0001
0010
0001
0010
0100
1000
0010
1000
0010
0100
0001
0010
0001
0010
,
0100
1000
0010
1000
0010
0100
0001
1000
0100
1000
0100
0010
0001
0010
0001
1000
,
0010
0100
0001
0100
0001
0010
0100
1000
0001
0100
0001
0000
1010
0000
0000
0000
,
2200
0000
0000
3300
0000
0000
2020
0000
0000
3030
0000
0000
0220
0000
0000
0330
0000
0000
0100
0000
0001
0000
1000
0000
,
0100
1000
0010
0100
0001
0010
0001
1000
0010
0100
0001
1000
,
0100
1000
0100
0010
0001
1000
0010
0100
0001
0100
0001
0010
,
0100
1000
0010
0100
0001
1000
0001
1000
0010
0100
0001
0010
,
0100
0000
0000
0000
1000
0000
0000
0000
0001
0000
0000
0000
2002
0000
0000
0000
0000
0000
3003
0000
0000
0000
0000
0000
2002
0000
0000
0000
0000
0000
3003
0000
0000
0000
0000
0000
0010
0000
0000
0100
0000
0000
0001
0000
0000
1000
0000
0000
,
0100
1000
0100
0010
0001
1000
0010
1000
0001
1000
0100
1000
0001
0100
0001
0010
,
0100
0010
0001
0100
0010
0100
0001
0010
0100
1000
0100
1000
0010
1000
0001
1000
,
0100
1000
0100
0010
0001
1000
0001
0100
0001
0010
0001
1000
0010
0100
0001
1000
,
0100
1000
0001
0100
0010
1000
0100
1000
0010
0100
0001
0010
0100
1000
0001
1000
,
0010
0100
0001
1000
0100
1000
0010
0100
0001
0010
0001
1000
0100
1000
0001
0100
,
0001
1000
0010
1000
0001
0100
0001
0010
0100
1000
0001
1000
0002
0000
0000
0000
,
0203
0320
2030
3200
,
2300
0000
3020
0230
0302
0203
0320
0000
,
2030
3200
2300
3020
,
0230
0302
0023
0230
,
2300
3002
0203
0302
,
2003
3220
0330
0220
,
0330
0000
0000
0000
,
0000
0000
0000
2222
,
0000
0000
3333
MMMM
;

//---------------dance-single - ----------------
#NOTES:
     dance-single:
     :
     Hard:
     18:
     1.000,1.000,0.184,0.925,1.000,1475.000,27.000,136.000,4.000,3.000:
0000
0000
0000
0000
,
1000
0100
0010
0001
1000
0010
1000
0100
0010
0001
1000
0001
0100
0001
0010
0100
,
1000
0001
1000
0010
0100
0001
1000
0010
0100
0001
1000
0100
1000
0010
0100
0001
,
0010
0001
1000
0100
0010
0001
1000
0010
0100
0001
1000
0100
1000
0001
0100
0001
,
0010
0100
1000
0001
0020
0230
2300
3002
0023
0130
1000
0010
0100
0001
1000
0010
,
1000
0100
0010
0001
1000
0010
0100
0001
1000
0100
1000
0001
0100
0001
0010
0100
,
1000
0001
1000
0100
1000
0001
0100
0001
1000
0010
1000
0001
0010
0001
1000
0100
,
0010
0001
1000
0100
1000
0010
0100
0001
0010
0001
1000
0010
1000
0001
0100
0001
,
1000
0100
1000
0010
0100
0001
0010
0100
1000
0010
0100
0001
1000
0100
1000
0001
,
1000
0100
1000
0010
0100
0001
0010
0001
1000
0100
0010
0001
0100
0001
1000
0100
,
0010
0001
1000
0001
0100
0001
0010
0100
1000
0010
0100
0001
1000
0100
1000
0001
,
0100
0010
1000
0100
1000
0001
0100
0010
1000
0100
0010
0001
1000
0100
0010
0001
,
1000
0100
1000
0010
0100
0001
1000
0100
0010
0100
1000
0001
1000
0100
1000
0010
,
0100
0001
1000
0100
1000
0010
0100
0001
0010
0001
1000
0100
0010
0001
1000
0100
,
1000
0001
1000
0100
0010
0001
1000
0100
1000
0001
0100
0001
1000
0100
0010
0001
,
1000
0100
0010
0001
1000
0010
0100
0001
1000
0100
1000
0010
,
0100
0001
0010
0100
1000
0001
0100
0001
1000
0010
0100
0001
,
2000
0000
0000
3200
0000
0000
0310
0001
1000
0010
0100
0001
,
1000
0000
0000
0100
0000
0000
1000
0000
0000
0010
0000
0000
1000
0000
0000
0000
0100
0000
0000
0000
0010
0000
0000
0000
0001
0000
0000
0000
1000
0000
0000
0000
0010
0000
0000
0000
0100
0000
0000
0000
0001
0000
0000
0000
1000
0000
0000
0000
,
0200
0000
0000
0320
0000
0000
0031
1000
0001
0100
0001
0010
,
0100
0000
0000
1000
0000
0000
0010
0000
0000
0100
0000
0000
0001
0000
0000
0000
1000
0000
0000
0000
0100
0000
0000
0000
1000
0000
0000
0100
0000
0000
0010
0000
0000
0001
0000
0000
1000
0000
0000
0001
0000
0000
0100
0000
0000
0001
0000
0000
,
2000
0000
3002
0000
0103
0100
0100
0100
,
0020
0000
0000
0000
1030
1000
0001
0001
,
1000
0100
1000
0010
0100
0001
0010
0001
1000
0100
0010
0001
1000
0010
1000
0001
,
0100
0001
0010
0100
1000
0010
0100
0001
1000
0100
1000
0010
0100
0001
0010
0001
,
1000
0100
1000
0001
0100
0001
0010
0100
1000
0010
0100
0001
1000
0100
1000
0010
,
0100
0001
0010
0001
1000
0100
0010
0000
0011
0000
0000
0000
1100
0000
0000
0000
,
1001
0000
1000
0010
0100
0001
1000
0010
1000
0100
0010
0001
1000
0010
0100
0001
,
1000
0100
1000
0010
0100
0001
0010
0100
0010
0001
1000
0100
1000
0010
0100
0001
,
0010
0100
1000
0001
0100
0001
1000
0100
0010
0001
1000
0010
0100
0001
1000
0001
,
0100
0010
1000
0100
1000
0010
0100
0001
0020
0030
0000
0000
0200
0300
0000
0000
,
1000
0100
1000
0010
0100
0001
0010
0001
1000
0010
1000
0001
0100
0010
1000
0100
,
0010
0001
1000
0010
1000
0001
0100
0001
0010
0100
1000
0010
0100
0001
1000
0100
,
1000
0010
0100
0001
0010
0001
1000
0100
0010
0001
1000
0010
0100
0001
1000
0001
,
0020
0000
0230
0000
2300
3002
2003
3002
,
1003
0100
1000
0010
0100
0001
0010
0001
1000
0010
0100
0001
1000
0100
0010
0100
,
1000
0001
0100
0001
1000
0010
0100
0010
1000
0001
0010
0001
1000
0100
0010
0001
,
1000
0100
0020
0000
0032
0000
2003
0000
,
3200
0000
2300
0000
3010
0100
0001
1000
,
0200
0320
0032
2003
,
3002
0203
0302
0003
,
2111
3200
0320
0032
,
2003
3020
0230
0000
,
0301
0000
0000
0000
1000
0100
0010
0000
0001
0100
0010
1000
0100
0000
0010
0001
,
1000
0000
0010
0100
0001
0000
0001
0010
0100
1000
0001
1000
0100
0000
0010
0001
,
0100
0000
0000
0000
0010
0000
1000
0000
0100
0010
0001
0100
0010
1000
0000
0100
,
0010
0001
1000
0100
1000
0000
0001
0000
0010
0000
0011
0000
0010
0000
0110
0000
,
0200
0000
0000
0000
,
2300
0000
0000
0000
,
3020
0230
0302
2003
,
3200
0000
0000
0000
0320
0000
0000
0000
0031
1000
0100
1000
0001
0100
0001
1000
,
0001
0100
0001
0010
0100
1000
0010
0100
0001
1000
0100
1000
0010
0100
0001
1000
,
0100
0010
0001
1000
0010
0100
0001
0010
0001
1000
0100
0010
0001
1000
0010
0100
,
0001
1000
0100
1000
0001
0100
0001
0010
0100
1000
0010
0100
0001
1000
0100
1000
,
0001
0100
0001
0010
0100
1000
0010
0100
0001
1000
0100
1000
0001
0100
0001
1000
,
0100
1000
0010
0100
0001
1000
0100
1000
0010
0100
0001
0010
0001
1000
0100
0010
,
0001
1000
0010
0100
0001
1000
0100
1000
0001
0100
0001
0010
0100
1000
0010
0100
,
0001
1000
0100
1000
0010
0100
0001
0010
0001
1000
0100
0010
0001
1000
0010
0100
,
0002
0203
0320
0000
,
1030
0100
0010
0001
1000
0100
0010
0001
1000
0010
1000
0001
0100
0001
0010
0100
,
1000
0100
0010
0001
1000
0100
0010
0001
1000
0010
1000
0001
0100
0001
0010
0100
,
1000
0001
0100
0010
1000
0001
0100
0010
1000
0100
1000
0001
0100
0001
0010
0100
,
1000
0001
0100
0010
1000
0001
0100
0010
1000
0100
1000
0001
0100
0001
0010
0100
,
1000
0001
0100
0001
1000
0010
0100
0001
1000
0100
0010
0001
2000
0000
0000
0000
,
3020
0000
0000
0000
0130
0001
1000
0100
1000
0001
0100
0001
0010
0100
1000
0010
,
0100
0001
1000
0100
1000
0001
0100
0001
0010
0100
1000
0010
0100
0001
1000
0100
,
2000
0000
0000
3002
0000
0000
1003
0100
0010
0100
1000
0001
,
1000
0000
0000
0000
0001
0000
0000
0000
0100
0000
0000
0000
0010
0000
0000
0000
1000
0000
0000
0000
0100
0000
0000
0000
1000
0000
0000
0001
0000
0000
0100
0000
0000
0001
0000
0000
1000
0000
0000
0010
0000
0000
0100
0000
0000
0001
0000
0000
,
0010
0001
1000
0100
0010
0001
1000
0010
0100
0001
1000
0100
1000
0010
0100
0001
,
0010
0100
1000
0001
0100
0001
1000
0010
0100
0001
1000
0100
1000
0010
0100
0001
,
0010
0000
0000
0001
0000
0000
1000
0000
0000
0100
0000
0000
0010
0000
0000
0001
0000
0000
1000
0000
0000
0010
0000
0000
0100
0000
0000
0000
0010
0000
0000
0000
1000
0000
0000
0000
0100
0000
0000
0000
0010
0000
0000
0000
0001
0000
0000
0000
,
1000
0010
1000
0010
0100
0001
1000
0100
1000
0010
0100
0001
,
1000
0001
0010
0001
1000
0100
0010
0001
0010
0001
1000
0010
,
0100
0001
1000
0100
1000
0010
0100
0001
0100
0001
0010
0100
,
1000
0001
0100
0001
0100
0010
1000
0100
1000
0100
0010
0001
,
0200
0320
2030
0000
,
3100
0010
0001
0100
0001
1000
0001
1000
0100
1000
0010
0100
,
0001
0010
0001
0010
0100
1000
0001
0100
0001
1000
0010
0100
,
0001
1000
0001
1000
0100
1000
0010
0100
0001
0010
0001
0010
,
0100
1000
0010
0100
0001
1000
0001
0010
0001
1000
0100
0010
,
0001
1000
0010
1000
0010
0100
0001
1000
0100
1000
0010
0100
,
0001
0010
0001
0010
0100
1000
0001
0100
0001
1000
0010
1000
,
0010
0100
0001
1000
0100
1000
0001
0100
0001
0010
0100
1000
,
0010
0100
0001
1000
0100
1000
0010
0100
0001
2000
0000
0000
,
3020
0230
0000
0302
,
0023
0230
2300
3002
,
0203
0000
0301
0010
0100
1000
0002
0000
,
2003
3200
2300
3020
,
0230
0302
0000
0023
,
0230
0000
2300
0000
3002
0000
0103
0001
,
0100
0001
0200
0000
0000
0000
0320
0000
,
2030
3200
2300
3002
,
0203
0000
0302
0000
0000
1003
0100
0010
,
0001
1000
0001
0100
0001
1000
0010
0100
,
0001
0000
0010
0000
0100
0000
1000
0000
0001
0000
0100
0000
0001
1000
0100
1000
,
0010
0100
0001
1000
0001
0040
0000
0000
0000
0430
0000
0000
0000
0000
0000
0000
,
0000
4300
3400
0340
,
0000
0000
0000
0000
,
0000
0000
0000
0031
,
0000
0000
0000
0000
,
0000
0000
0000
0000
0000
0000
0000
0000
0000
1000
0100
1000
,
0100
0010
0001
1000
0010
1000
0010
0100
0001
1000
0100
1000
,
0100
0010
0001
1000
0010
0100
0001
0010
0001
0010
0100
1000
,
0001
1000
0010
0100
0001
0010
0001
0010
0100
1000
0010
0100
,
0001
1000
0100
0010
0001
1000
0100
1000
0010
0100
0001
0010
,
0001
1000
0100
1000
0010
1000
0010
0100
0001
0010
0001
0010
,
0100
1000
0001
0100
0001
0100
0010
1000
0100
0010
0001
1000
,
0020
0000
0230
0000
0302
0000
0023
0000
0130
1000
0100
1000
0010
0100
0001
0010
,
0001
1000
0100
1000
0010
0000
0100
0000
0001
0000
0010
0000
0200
0000
0000
0000
,
2300
0000
0000
0000
3001
0100
0001
1000
0100
1000
0010
0100
0001
0010
0100
1000
,
0001
0100
0001
1000
0100
0010
0001
1000
0010
0100
0001
1000
0002
0000
0000
0000
,
2003
0000
0000
3001
0100
0001
1000
0010
0100
0001
0010
0100
,
1000
0001
0100
0001
1000
0100
1000
0100
0001
1001
0000
0000
,
1020
0000
0000
0130
0001
1000
0100
1000
0010
0100
0001
0010
,
0001
0000
1000
0000
0010
0000
0100
0000
0000
0004
0000
0000
0000
0000
0000
4003
0000
0000
0000
0000
0000
3000
0000
0000
,
0000
0000
0110
0101
0011
0110
1100
0000
,
0000
0000
0000
0000
1010
0000
1001
0000
0101
0000
0011
0000
0100
1000
0100
1000
,
0010
0100
0001
0010
0001
0010
0100
1000
0010
1000
0010
0100
0001
0010
0001
0010
,
0100
1000
0010
1000
0010
0100
0001
1000
0100
1000
0100
0010
0001
0010
0001
1000
,
0010
0100
0001
0100
0001
0010
0100
1000
0001
0100
0001
0000
1010
0000
0000
0000
,
2200
0000
3300
0000
2020
0000
3030
0000
0220
0000
0330
0000
0100
0001
1000
0100
,
1000
0010
0100
0001
0010
0001
1000
0100
0010
0001
1000
0010
0100
0001
0010
0100
,
1000
0000
0000
0001
0000
0000
0100
0000
0000
0001
0000
0000
1000
0000
0000
0100
0000
0000
1000
0000
0000
0001
0000
0000
0100
0000
0000
0001
0000
0000
0010
0000
0000
0100
0000
0000
1000
0000
0000
0000
0001
0000
0000
0000
0010
0000
0000
0000
,
0100
1000
0010
0100
0001
1000
0001
1000
0010
0100
0001
0010
,
0100
0000
0000
0000
1000
0000
0000
0000
0001
0000
0000
0000
2002
0000
0000
0000
0000
0000
3003
0000
0000
0000
0000
0000
2002
0000
0000
0000
0000
0000
3003
0000
0000
0000
0000
0000
0010
0000
0000
0100
0000
0000
0001
0000
0000
1000
0000
0000
,
0100
1000
0100
0010
0001
1000
0010
1000
0001
1000
0100
1000
0001
0100
0001
0010
,
0100
0010
0001
0100
0010
0100
0001
0010
0100
1000
0100
1000
0010
1000
0001
1000
,
0100
1000
0100
0010
0001
1000
0001
0100
0001
0010
0001
1000
0010
0100
0001
1000
,
0100
1000
0001
0100
0010
1000
0100
1000
0010
0100
0001
0010
0100
1000
0001
1000
,
0010
0100
0001
1000
0100
1000
0010
0100
0001
0010
0001
1000
0100
1000
0001
0100
,
0001
1000
0010
1000
0001
0100
0001
0010
0100
1000
0001
1000
0002
0000
0000
0000
,
0203
0320
2030
3200
,
2300
0000
3020
0230
0302
0203
0320
0000
,
2030
3200
2300
3020
,
0230
0302
0023
0230
,
2300
3002
0203
0302
,
2003
3220
0330
0220
,
0330
0000
0000
0000
,
0000
0000
0000
2222
,
0000
0000
3333
MMMM
;

//---------------dance-single - ----------------
#NOTES:
     dance-single:
     :
     Challenge:
     22:
     1.000,1.000,0.122,0.734,1.000,1764.000,18.000,108.000,4.000,3.000:
0000
0000
0000
0000
,
1000
0100
0010
0001
1000
0010
1000
0100
0010
0001
1000
0001
0100
0001
0010
0100
,
1000
0001
1000
0010
0100
0001
1000
0010
0100
0001
1000
0100
1000
0010
0100
0001
,
0010
0001
1000
0100
0010
0001
1000
0010
0100
0001
1000
0100
1000
0001
0100
0001
,
0010
0100
1000
0001
0020
0230
2300
3002
0023
0130
1000
0010
0100
0001
1000
0010
,
1000
0100
0010
0001
1000
0010
0100
0001
1000
0100
1000
0001
0100
0001
0010
0100
,
1000
0001
1000
0100
1000
0001
0100
0001
1000
0010
1000
0001
0010
0001
1000
0100
,
0010
0001
1000
0100
1000
0010
0100
0001
0010
0001
1000
0010
1000
0001
0100
0001
,
1000
0100
1000
0010
0100
0001
0010
0100
1000
0010
0100
0001
1000
0100
1000
0001
,
1000
0100
1000
0010
0100
0001
0010
0001
1000
0100
0010
0001
0100
0001
1000
0100
,
0010
0001
1000
0001
0100
0001
0010
0100
1000
0010
0100
0001
1000
0100
1000
0001
,
0100
0010
1000
0100
1000
0001
0100
0010
1000
0100
0010
0001
1000
0100
0010
0001
,
1000
0100
1000
0010
0100
0001
1000
0100
0010
0100
1000
0001
1000
0100
1000
0010
,
0100
0001
1000
0100
1000
0010
0100
0001
0010
0001
1000
0100
0010
0001
1000
0100
,
1000
0001
1000
0100
0010
0001
1000
0100
1000
0001
0100
0001
1000
0100
0010
0001
,
1000
0010
0100
0001
1000
0100
1000
0001
0100
0001
0010
0100
1000
0010
0100
0001
,
1000
0010
0100
0001
1000
0100
1000
0010
0100
0001
0010
0100
1000
0001
0100
0001
,
1000
0001
0100
0010
1000
0100
1000
0010
0100
0001
0010
0100
1000
0001
0100
0001
,
1000
0100
0010
0001
1000
0010
0100
0001
1000
0100
1000
0001
0100
0001
0010
0100
,
1000
0001
0100
0001
1000
0010
1000
0001
0100
0010
1000
0100
1000
0001
0010
0100
,
1000
0010
0100
0001
1000
0100
0010
0001
1000
0010
0100
0001
1000
0100
1000
0001
,
2000
0000
3002
0000
0103
0100
0100
0100
,
0020
0000
0000
0000
1030
1000
0001
0001
,
1000
0100
1000
0010
0100
0001
0010
0001
1000
0100
0010
0001
1000
0010
1000
0001
,
0100
0001
0010
0100
1000
0010
0100
0001
1000
0100
1000
0010
0100
0001
0010
0001
,
1000
0100
1000
0001
0100
0001
0010
0100
1000
0010
0100
0001
1000
0100
1000
0010
,
0100
0001
0010
0001
1000
0100
0010
0001
1000
0100
1000
0010
0100
0001
1000
0010
,
0100
0001
1000
0100
1000
0010
0100
0001
0010
0001
1000
0100
0010
0001
1000
0100
,
1000
0001
1000
0010
1000
0100
0010
0001
1000
0010
0100
0001
0010
0001
1000
0100
,
0010
0001
1000
0010
0100
0010
1000
0100
0010
0001
1000
0010
0100
0001
0010
0001
,
1000
0100
0010
0100
1000
0010
0100
0001
0020
0000
0000
0000
0230
0000
0000
0000
,
1300
0100
1000
0010
0100
0001
0010
0001
1000
0010
1000
0001
0100
0010
1000
0100
,
0010
0001
1000
0010
1000
0001
0100
0001
0010
0100
1000
0010
0100
0001
1000
0100
,
1000
0010
0100
0001
0010
0001
1000
0100
0010
0001
1000
0010
0100
0001
1000
0001
,
0010
0100
1000
0001
0100
0001
1000
0100
1000
0010
0100
0001
0010
0100
1000
0001
,
1000
0100
1000
0010
0100
0001
0010
0001
1000
0010
0100
0001
1000
0100
0010
0100
,
1000
0001
0100
0001
1000
0010
0100
0010
1000
0001
0010
0001
1000
0100
0010
0001
,
1000
0100
0020
0000
0032
0000
2003
0000
,
3200
0000
2300
0000
3010
0100
0001
1000
,
0200
0320
0032
2003
,
3002
0203
0302
0003
,
2111
3200
0320
0032
,
2003
3020
0230
0000
,
0301
0000
0000
0000
1000
0100
0010
0000
0001
0100
0010
1000
0100
0000
0010
0001
,
1000
0000
0010
0100
0001
0000
0001
0010
0100
1000
0001
1000
0100
0000
0010
0001
,
0100
0000
0000
0000
0010
0000
1000
0000
0100
0010
0001
0100
0010
1000
0000
0100
,
0010
0001
1000
0100
1000
0000
0001
0000
0010
0000
0011
0000
0010
0000
0110
0000
,
0200
0000
0000
0000
,
2300
0000
0000
0000
,
3020
0230
0302
2003
,
3200
0000
0000
0000
0320
0000
0000
0000
0031
1000
0100
1000
0001
0100
0001
1000
,
0001
0100
0001
0010
0100
1000
0010
0100
0001
1000
0100
1000
0010
0100
0001
1000
,
0100
0010
0001
1000
0010
0100
0001
0010
0001
1000
0100
0010
0001
1000
0010
0100
,
0001
1000
0100
1000
0001
0100
0001
0010
0100
1000
0010
0100
0001
1000
0100
1000
,
0001
0100
0001
0010
0100
1000
0010
0100
0001
1000
0100
1000
0001
0100
0001
1000
,
0100
1000
0010
0100
0001
1000
0100
1000
0010
0100
0001
0010
0001
1000
0100
0010
,
0001
1000
0010
0100
0001
1000
0100
1000
0001
0100
0001
0010
0100
1000
0010
0100
,
0001
1000
0100
1000
0010
0100
0001
0010
0001
1000
0100
0010
0001
1000
0010
0100
,
0001
1000
0100
1000
0010
0100
0001
0010
0100
1000
0001
0100
0001
1000
0100
1000
,
0001
0100
0001
1000
0010
0100
0001
0010
0100
1000
0010
0100
0001
1000
0100
0010
,
0001
1000
0010
0100
0001
0010
0100
0010
0001
1000
0100
1000
0010
0100
0001
0010
,
0100
1000
0010
0100
0010
1000
0100
0010
0001
1000
0010
0100
0001
0010
0100
0010
,
0001
1000
0010
0100
0001
0010
0100
1000
0010
0100
0001
0010
0100
0010
0001
1000
,
0010
0100
0001
1000
0100
1000
0001
0100
0001
0010
0100
1000
0010
0100
0001
1000
,
0100
0010
0100
1000
0010
0100
0001
0010
0100
0010
0001
1000
0100
1000
0001
0100
,
0001
1000
0100
1000
0010
0100
0001
0010
0100
1000
0001
0100
0010
1000
0100
0010
,
0001
1000
0100
1000
0010
0100
0001
0010
0100
1000
0010
0100
0001
1000
0100
1000
,
0001
0100
0001
0010
0100
1000
0001
1000
0010
0100
0001
1000
0100
1000
0010
0100
,
0001
0010
0100
0010
0001
1000
0100
1000
0010
0100
0001
0010
0100
1000
0001
0100
,
0001
1000
0100
0010
0001
1000
0010
1000
0001
0100
0001
0010
0100
1000
0010
0100
,
0001
1000
0100
1000
0010
0100
0001
0010
0100
1000
0001
0100
0001
1000
0100
0010
,
0001
1000
0010
1000
0001
0100
0010
1000
0100
0010
0001
1000
0010
1000
0100
0010
,
0001
1000
0010
0100
0001
0010
0001
1000
0100
0010
0001
1000
0010
0100
0001
1000
,
0100
1000
0001
0100
0001
1000
0010
0100
0001
0010
0100
1000
0010
0100
0001
1000
,
0100
1000
0010
0100
0001
0010
0100
0010
0001
1000
0100
1000
0001
0100
0001
1000
,
0100
0010
0001
1000
0001
0100
0001
0010
0001
1000
0001
0100
0001
0010
0001
1000
,
0100
1000
0010
0100
0001
0010
0001
1000
0010
1000
0100
1000
0010
0100
0001
0010
,
0100
1000
0001
0100
0001
1000
0100
0010
0001
1000
0010
1000
0001
0100
0010
1000
,
0100
0010
0001
1000
0010
1000
0100
0010
0001
1000
0010
0100
0001
0010
0001
1000
,
0100
0010
0001
1000
0010
0100
0001
0010
0001
1000
0100
0010
0100
1000
0010
0100
,
0001
1000
0100
1000
0001
0100
0010
1000
0100
1000
0010
0100
0001
0010
0001
1000
,
0100
0010
0001
1000
0010
0100
0001
0010
0100
1000
0010
0100
0001
1000
0100
1000
,
0001
0100
0001
1000
0010
0100
0001
0010
0100
1000
0010
0100
0001
1000
0100
1000
,
0001
0100
0001
0010
0100
1000
0001
0010
0100
1000
0001
0100
0010
1000
0100
1000
,
0010
0100
0001
0010
0001
1000
0100
0010
0001
1000
0100
0010
0002
0000
0000
0000
,
0023
0230
2300
3002
,
0203
0000
0301
0010
0100
1000
0002
0000
,
2003
3200
2300
3020
,
0230
0302
0000
0023
,
0230
0000
2300
0000
3002
0000
0103
0001
,
0100
0001
0200
0000
0000
0000
0320
0000
,
2030
3200
2300
3002
,
0203
0000
0302
0000
0000
1003
0100
0010
,
0001
1000
0001
0100
0001
1000
0010
0100
,
0001
0000
0010
0000
0100
0000
1000
0000
0001
0000
0100
0000
0001
1000
0100
1000
,
0010
0100
0001
1000
0001
0010
0100
1000
0001
0100
0001
1000
0100
0010
0001
1000
,
0010
1000
0100
0010
0001
1000
0010
0100
0001
0010
0001
1000
0100
0010
0001
1000
,
0010
0100
0001
1000
0100
1000
0001
0100
0001
0010
0100
1000
0010
0100
0001
1000
,
0100
1000
0010
0100
0001
0010
0001
1000
0100
0010
0001
1000
0002
0000
0000
0000
,
0000
0000
0000
0000
,
0000
0000
0000
0000
0000
0000
0000
0000
0000
0000
0000
0000
1003
0100
1000
0010
,
0100
0001
0010
0001
1000
0100
0010
0001
1000
0010
0100
0001
0010
0001
1000
0100
,
0010
0100
1000
0010
0100
0001
0010
0001
1000
0010
1000
0001
0100
0010
1000
0100
,
0010
0001
1000
0010
0100
0001
0010
0001
1000
0100
0010
0001
1000
0010
0100
0001
,
1000
0100
1000
0001
0100
0001
0010
0100
0010
0001
1000
0010
1000
0001
0100
0001
,
1000
0100
0010
0001
1000
0010
0100
0001
0010
0001
1000
0100
0010
0001
1000
0010
,
0100
0001
0010
0001
1000
0100
0010
0001
1000
0010
0100
0001
1000
0100
1000
0010
,
1000
0001
0100
0001
0010
0100
1000
0001
1000
0100
0010
0001
1000
0010
0100
0001
,
0010
0001
1000
0010
1000
0001
0100
0001
0010
0100
1000
0001
2000
3010
0100
0001
,
2000
3100
0010
0001
1000
0100
1000
0010
0100
0001
0010
0001
1000
0100
0010
0001
,
1000
0010
0100
0001
1000
0100
1000
0001
0100
0001
0010
0100
2000
3010
0100
0001
,
2000
3100
1000
0010
0100
0001
0010
0001
1000
0100
0010
0001
1000
0010
1000
0100
,
0010
0001
1000
0010
0100
0001
0010
0001
1000
0100
0010
0001
2000
3010
0100
0001
,
0020
0130
1000
0001
0100
0001
1000
0100
0010
0001
1000
0010
1000
0100
0010
0001
,
1000
0010
0100
0001
0010
0100
1000
0001
0100
0001
1000
0100
0010
0001
1000
0000
,
0000
0000
0110
0101
0011
0110
1100
0000
,
0000
0000
0000
0000
1010
0000
1001
0000
0101
0000
0011
0000
0100
1000
0001
0100
,
0001
1000
0100
0010
0001
1000
0010
0100
0001
1000
0100
1000
0010
0100
0001
0010
,
0001
1000
0100
0010
0001
1000
0010
0100
0001
0010
0001
1000
0100
1000
0010
0100
,
0001
0010
0100
1000
0001
0100
0001
1000
0010
0100
0001
0010
0200
0000
0300
0000
,
2200
0000
3300
0000
2020
0000
3030
0000
0220
0000
0330
0000
0100
0001
1000
0100
,
1000
0010
0100
0001
0010
0001
1000
0100
0010
0001
1000
0010
0100
0001
0010
0100
,
1000
0001
0100
0001
1000
0100
1000
0001
0100
0001
0010
0100
1000
0001
0100
0001
,
1000
0010
0100
0001
0010
0001
1000
0100
0010
0001
1000
0010
0100
0001
0010
0001
,
1000
0100
0010
0001
1000
0100
1000
0010
0100
0001
1000
0100
1000
0001
0100
0001
,
0010
0100
1000
0010
0100
0001
1000
0100
1000
0010
0100
0001
0010
0100
0010
0001
,
1000
0010
0100
0001
1000
0100
0010
0100
1000
0010
0100
0001
0010
0001
1000
0100
,
0010
0001
1000
0010
0100
0001
0010
0001
1000
0100
0010
0001
1000
0010
0100
0001
,
0010
0001
1000
0100
0010
0100
1000
0010
0100
0001
0010
0001
1000
0100
1000
0010
,
0100
0001
0010
0100
1000
0001
0100
0010
1000
0100
1000
0001
0100
0001
0010
0100
,
1000
0010
0100
0001
1000
0100
1000
0010
0100
0001
0010
0100
2000
0000
0000
0000
,
3020
0000
0000
0000
0000
0000
0000
0030
0020
0000
0000
0000
0000
0000
0000
0000
2030
0000
0000
0000
0000
0000
0000
0000
3200
0000
0000
0000
0000
0000
0000
0000
,
2300
0000
3020
0230
0302
0203
0320
0000
,
2030
3200
2300
3020
,
0230
0302
0023
0230
,
2300
3002
0203
0302
,
2003
3220
0330
0220
,
0330
0000
0000
0000
,
0000
0000
0000
2222
,
0000
0000
3333
MMMM
;
