#TITLE:BroGamer;
#SUBTITLE:SUPER ULTIMATE HYPER CORE;
#ARTIST:USAO;
#TITLETRANSLIT:;
#SUBTITLETRANSLIT:;
#ARTISTTRANSLIT:;
#CREDIT:;
#BANNER:../Banner.png;
#BACKGROUND:../BG.png;
#LYRICSPATH:;
#CDTITLE:../CDTitle_Wins.png;
#MUSIC:beatmania IIDX 24 SINOBUZ - BroGamer (BGA).ogg;
#OFFSET:-0.416;
#SAMPLESTART:35.193;
#SAMPLELENGTH:12.000;
#SELECTABLE:YES;
#BPMS:0.000=103.501,19.521=207.002;
#STOPS:19.521=0.134
;
#BGCHANGES:;
// cache tags:
#FIRSTBEAT:20.000;
#LASTBEAT:419.000;
#SONGFILENAME:Songs/Index Tesseract/BroGamer - [losermanwins]/beatmania IIDX 24 SINOBUZ - BroGamer (BGA).sm;
#HASMUSIC:1;
#HASBANNER:1;
#MUSICLENGTH:129.915;
// end cache tags

//---------------dance-single - losermanwins----------------
#NOTES:
     dance-single:
     losermanwins:
     Challenge:
     16:
     1.000,1.000,0.500,0.015,1.000,1029.000,65.000,2.000,0.000,1.000:

0000
0000
0000
0000
,
0000
0000
0000
0000
,
0000
0000
0000
0000
,
0000
0000
0000
0000
,
0000
0000
0000
0000
,
0010
0100
0001
0010
0001
1000
0100
0010
0001
0100
0010
1000
0100
0010
0001
0100
,
0010
1000
0100
1000
0010
0100
0001
0100
0010
0100
0001
0010
0100
0010
0001
0100
,
0001
1000
0100
1000
0100
1000
0001
0100
0010
1000
0010
0100
0010
1000
0001
1000
,
0100
1000
0100
0010
0100
1000
0010
0100
0010
1000
0100
0010
0001
0100
0010
1000
,
0001
0100
0001
0010
0001
0100
0010
0100
0010
1000
0100
0010
0001
0100
0010
1000
,
0010
0100
0001
0010
0100
1000
0001
0010
0100
1000
0100
0010
0100
1000
0010
0100
,
0001
0100
0001
0010
0100
1000
0100
0010
0001
0100
0001
1000
0001
1000
0100
1000
,
0010
0100
0001
0010
0001
0000
1000
0000
0010
0000
0000
0000
1000
0010
1000
0010
,
1000
0100
1000
0001
0010
0001
0010
0100
1000
0100
1000
0100
0010
0001
1000
0001
,
1000
0100
1000
0100
0010
0001
0010
0100
0010
0100
1000
0001
0010
0001
0010
0001
,
0100
0010
1000
0100
1000
0100
1000
0010
0100
0010
1000
0100
0010
0001
1000
0001
,
0010
0100
1000
0001
1000
0001
0010
0100
1000
0001
0100
0010
0100
0001
0010
0100
,
0010
0100
0010
0001
0100
0001
0010
0100
1000
0100
1000
0001
0100
0010
1000
0100
,
0010
0001
1000
0010
0100
0001
0100
0010
0100
0010
1000
0100
1000
0010
1000
0100
,
0010
0001
0100
0010
1000
0100
1000
0010
0100
0001
0010
0001
0010
0001
0100
0010
,
1000
0100
0010
0100
1000
0000
0001
0000
1000
0000
0010
0000
1000
0100
0010
0001
,
1000
0010
1000
0100
1000
0010
0100
0010
0100
0001
0100
0010
1000
0100
0010
0100
,
1000
0100
0010
0001
0100
0010
1000
0010
1000
0010
0100
0001
0010
0100
1000
0010
,
0100
0010
1000
0010
1000
0001
1000
0100
0010
0001
1000
0010
0100
0010
1000
0010
,
0100
0001
0010
0001
0100
0001
0010
0100
1000
0010
0100
0001
0010
0100
1000
0010
,
0100
0010
1000
0010
0100
0001
0010
0100
1000
0010
0100
0010
1000
0001
1000
0100
,
0010
0001
1000
0010
0100
0001
0010
0001
0100
0010
1000
0100
1000
0010
1000
0100
,
1000
0001
0100
0001
0100
0001
1000
0001
0100
0010
0100
0001
0000
0000
0000
0000
,
0000
0000
0000
0000
0000
0000
0000
0000
0000
0000
0000
0000
0100
0010
1000
0001
,
1000
0010
0100
0001
0010
0001
0100
0010
1000
0010
0100
0001
0010
0100
1000
0001
,
0010
0100
1000
0010
1000
0001
0010
0100
1000
0001
0010
0100
1000
0010
0100
0010
,
1000
0100
0010
0001
1000
0010
1000
0100
0010
0100
0010
0100
1000
0010
0100
0001
,
0010
0100
1000
0010
0100
0010
1000
0100
1000
0010
1000
0100
0010
0001
1000
0100
,
0010
0001
0100
0001
1000
0000
0001
0000
1000
0000
0000
0000
1001
0000
0000
0000
,
1001
0000
0000
0000
0000
0000
1000
0000
0000
0001
0000
0000
0100
0000
0010
0000
1000
0000
0100
0000
0000
0000
0010
0000
,
0000
0001
1000
0010
0000
1000
0000
0001
0000
4000
0000
0000
,
3400
0340
0430
0000
0340
4030
3001
1000
,
0010
0100
0001
0100
0010
1000
0010
0100
,
0010
0000
1000
0000
0010
0000
0100
0000
0010
0000
1000
0000
0100
1000
0100
1000
,
0010
0100
0001
1000
0010
0100
0001
0100
0010
0100
0001
0010
0000
0000
0000
0000
,
0000
0000
0000
0000
0000
0000
0000
0000
0000
1100
0000
0110
,
0000
0011
0000
0110
0000
1100
0000
0000
0000
1001
0000
0110
,
0000
1001
0000
1001
0000
0110
0000
0000
0000
1100
0000
0011
,
0000
1100
0000
1100
0000
0011
0000
0000
0000
1010
0000
0101
,
0000
0000
0000
0000
1010
0000
0000
0000
0000
0000
0000
0000
1000
0000
0000
0100
0000
0000
0010
0000
0000
0001
0000
0000
1000
0000
0000
0000
0000
0000
0010
0000
0000
0000
0000
0000
1000
0000
0000
0000
0000
0000
0000
0000
0000
0001
0000
0000
,
0000
0000
1000
0000
0000
0001
0000
0000
1000
0000
0000
0000
0010
0000
0100
0010
,
0000
0000
0000
0100
0000
0000
0001
0000
0000
0000
0000
0000
0010
0000
0000
1000
0000
0000
0000
0000
0000
0000
0000
0000
0011
0000
0000
0000
0000
0000
0000
0000
0000
0000
0000
0000
0100
0000
0000
0000
0000
0000
0000
0000
0010
0000
0000
0000
,
0000
0000
0100
0000
0000
0010
0000
0000
1001
0000
0000
0000
1000
0001
0010
0100
,
1000
0010
1000
0100
0010
0001
0010
0000
1100
0000
0000
0000
0000
0000
0000
0000
,
0000
0000
0010
0000
0001
0100
0010
1000
,
0000
0001
0000
1000
0000
0001
0010
0001
,
0000
0100
0000
0010
0000
0100
0004
0000
,
4003
3400
0340
0034
0043
0430
1300
0000
,
0000
0000
0000
0000
,
0000
0000
0000
0000
,
0000
0000
0000
0000
,
0000
0000
0000
1000
,
0110
0100
1001
1000
,
0110
0010
0011
0100
,
0101
0010
1100
1000
,
0110
0010
0101
0000
,
0010
0001
0010
0000
0001
0100
0010
1000
,
0000
0001
0000
1000
0000
0001
0010
0000
,
0000
0100
0010
0100
0000
0000
0000
0000
,
0000
0000
0000
0000
0000
0000
0010
0100
,
1000
0010
0100
0001
0010
0001
0100
0001
,
0010
0100
0010
0001
1000
0001
0100
0010
,
0100
0010
0100
0001
1000
0010
0100
0001
,
0010
0100
1000
0001
1000
0010
0100
0001
,
0100
0001
0010
0001
0100
0010
0100
0010
,
0100
0001
1000
0010
0100
0001
1100
0000
,
0001
0010
0001
0010
0001
0000
0000
0000
0010
0100
0010
0100
0010
0000
0000
0000
,
0000
0000
0000
0000
0000
0000
0000
0000
0000
0000
0000
0000
0100
0010
0001
0100
,
0001
0100
0010
1000
0100
1000
0010
0100
0001
0010
0001
0100
0010
1000
0001
0100
,
0001
0010
0100
1000
0100
0010
0001
1000
0100
0010
0100
0010
0001
0100
0010
0100
,
0010
1000
0100
1000
0001
0010
0001
0100
0010
1000
0100
0010
0001
0100
0010
1000
,
0001
0100
0010
0100
0001
1000
0100
0010
0001
0100
0010
1000
0100
0010
0100
0010
,
0100
1000
0010
1000
0001
1000
0001
0010
0100
1000
0001
0100
0010
1000
0001
0010
,
0100
1000
0001
0010
0100
1000
0010
0100
0010
1000
0100
0010
0100
1000
0001
0010
,
0100
0010
0100
1000
0010
1000
0100
0010
0100
0010
0001
0100
0000
0000
0000
0000
,
0000
0000
0000
0000
0000
0000
0000
0000
0000
0000
0000
0000
0100
0010
0001
0100
,
0010
1000
0100
0010
0100
1000
0010
0100
0001
0010
0100
1000
0010
0100
0010
1000
,
0001
0010
0100
1000
0100
0010
0001
0010
0100
1000
0010
1000
0010
0100
0010
0100
,
0001
0010
0100
1000
0010
0100
0010
1000
0100
0010
0001
0010
0001
0100
0001
0100
,
0010
1000
0100
0010
0100
1000
0100
0010
0001
0100
0010
0100
0001
1000
0010
0100
,
0010
1000
0100
0010
0001
0100
0001
0010
0001
0100
0010
1000
0001
0100
0001
0010
,
0100
0010
0001
1000
0100
0010
0001
0010
0001
0100
0010
1000
0100
1000
0010
0100
,
0001
0010
0100
1000
0001
0010
0001
1000
0100
0010
0001
1000
0010
0000
0000
0000
,
0010
0000
2000
0000
3000
0002
0000
0000
0003
0000
0000
0000
1000
0010
1000
0001
,
0100
0010
1000
0010
1000
0010
1000
0100
1000
0001
0100
0010
0100
0001
1000
0001
,
1000
0010
1000
0100
0010
0100
1000
0100
0010
0001
0100
0010
0100
0001
0010
0100
,
1000
0001
0010
0100
1000
0001
0100
0010
0100
0001
0010
0100
1000
0001
0100
0001
,
0010
0001
0100
0010
1000
0100
1000
0010
1000
0100
0010
0100
0010
0001
0010
0100
,
1000
0010
1000
0001
0100
0010
1000
0100
0010
0001
0100
0010
1000
0100
0010
0001
,
0010
0001
0100
0001
0010
0100
0010
0001
1000
0100
0010
0001
0100
0010
0100
0001
,
0010
0001
0100
0010
0100
0010
1000
0100
0010
0100
1000
0100
0010
0000
0001
0000
,
0010
0000
0000
1100
0000
0000
0011
0000
0000
1001
0000
1001
,
0000
1001
0000
1001
0000
0110
0000
0000
0000
0011
0000
1100
,
0000
1010
0000
0101
0000
1001
0000
0000
0000
0110
0000
1001
,
0000
0110
0000
0110
0000
1001
0000
0000
0000
1010
0000
0101
,
0000
0000
0000
0000
1010
0000
0000
0000
0000
0000
0000
0000
1000
0000
0000
0100
0000
0000
0010
0000
0000
0001
0000
0000
1000
0000
0000
0000
0000
0000
0001
0000
0000
0000
0000
0000
1001
0000
0000
0000
0000
0000
0000
0000
0110
0000
0000
0000
,
0000
1100
0000
0011
0000
0110
0000
0000
0000
1001
0000
1100
,
0000
0000
0000
0000
0011
0000
0000
0000
0000
0000
0000
0000
1001
0000
0000
0000
0000
0000
0000
0000
0110
0000
0000
0000
0000
0000
0000
0000
0000
0000
0000
0000
0000
0000
0000
0000
1000
0000
0000
0100
0000
0000
0010
0000
0000
0001
0000
0000
,
0100
0001
0010
0100
1000
0010
0100
0001
0010
0001
0100
0010
0000
0000
0000
0000
,
0000
0000
0000
1111
;
