#TITLE:Chipstream;
#SUBTITLE:;
#ARTIST:Kommisar;
#TITLETRANSLIT:;
#SUBTITLETRANSLIT:;
#ARTISTTRANSLIT:;
#CREDIT:Kommisar;
#BANNER:../Tachyon Gamma-bn.png;
#BACKGROUND:../Tachyon Gamma-bg.png;
#LYRICSPATH:;
#CDTITLE:;
#MUSIC:Chipstream.ogg;
#OFFSET:-0.055;
#SAMPLESTART:117.300;
#SAMPLELENGTH:14.000;
#SELECTABLE:YES;
#DISPLAYBPM:252.480;
#BPMS:0.000=151.390,96.000=151.430,160.000=171.550,224.000=171.610,288.000=211.900,352.000=252.480,416.000=151.400;
#STOPS:;
#BGCHANGES:;
// cache tags:
#FIRSTBEAT:32.000;
#LASTBEAT:449.000;
#SONGFILENAME:Songs/Tachyon Gamma/Chipstream - [Kommisar]/Chipstream.sm;
#HASMUSIC:1;
#HASBANNER:1;
#MUSICLENGTH:160.838;
// end cache tags

//---------------dance-single - Kommisar----------------
#NOTES:
     dance-single:
     Kommisar:
     Challenge:
     16:
     1.000,1.000,0.199,0.193,1.000,1219.000,32.000,31.000,0.000,0.000:

0000
0000
0000
0000
,
0000
0000
0000
0000
,
0000
0000
0000
0000
,
0000
0000
0000
0000
,
0000
0000
0000
0000
,
0000
0000
0000
0000
,
0000
0000
0000
0000
,
0000
0000
0000
0000
,
1000
0001
0010
0100
0010
0001
0100
0001
0010
0100
0010
0001
0100
0010
1000
0100
,
1000
0001
0100
0010
0100
0001
0010
0001
0100
0010
0100
0001
0010
0100
1000
0010
,
1000
0100
0010
0001
1000
0010
0100
0010
1000
0100
0010
0001
0100
0010
1000
0100
,
1000
0010
0100
0001
1000
0100
0010
0100
1000
0010
0100
0001
0010
0100
1000
0100
,
0010
0001
0010
0000
0100
1000
0100
0000
1000
0001
1000
0000
0010
0100
0010
0000
,
0100
0001
0100
0000
0010
1000
0010
0000
1000
0001
1000
0000
0100
0010
0100
0000
,
1000
0001
0010
0000
0100
1000
0001
0000
1000
0001
0100
0000
0001
1000
0010
0000
,
1000
0100
0010
0000
0001
0010
0100
0000
1000
0010
0100
0000
0001
0100
0010
0000
,
1000
0100
1000
0010
0100
0001
1000
0100
1000
0010
0100
0001
0100
0010
1000
0100
,
1000
0010
1000
0100
0010
0001
1000
0010
1000
0100
0010
0001
0010
0100
1000
0010
,
1000
0001
0010
0001
0100
0010
1000
0100
1000
0001
0100
0010
1000
0001
0010
0001
,
1000
0001
0100
0001
0010
0100
1000
0010
1000
0001
0010
0100
1000
0001
0100
0001
,
0010
0100
0010
0000
0001
1000
0001
0000
0100
0010
0100
0000
0001
1000
0001
0000
,
1000
0100
1000
0000
0100
0010
0100
0000
0010
0001
0010
0000
0001
1000
0001
0000
,
1000
0010
0100
0000
0001
0100
0010
0000
1000
0100
0010
0000
0001
0010
0100
0000
,
1000
0010
0100
0000
0001
0010
0100
0000
1000
0010
0100
0000
0001
0010
0100
0000
,
1001
0000
0000
0000
0000
0000
1000
0000
0001
0010
0100
0000
1100
0000
1000
0100
,
0010
0000
0001
0000
1001
0000
1000
0000
0001
0100
0010
0000
1010
0000
1000
0010
,
0100
0000
0010
0000
1010
0000
1000
0100
0000
0010
0000
0100
1000
0000
1010
0000
,
0010
0000
0100
0000
0101
0000
0001
0010
0000
0100
0000
0010
0001
0000
0101
0000
,
0100
0010
0000
0100
0001
0000
1000
0000
1100
0000
0110
0000
0010
0001
1000
0000
,
0010
0100
0000
0010
1000
0000
0001
0000
0011
0000
0110
0000
0100
1000
0001
0000
,
0100
0010
0100
0010
1000
0000
0000
1010
0000
0000
0010
0100
0001
0000
0011
0000
,
0010
0100
0010
0100
1000
0000
0000
1100
0000
0000
0100
0010
0001
0000
1001
0000
,
1000
0000
0100
0000
1100
0000
1000
0000
0001
0100
0010
0000
1010
0000
1000
0010
,
0100
0000
0001
0000
1001
0000
1000
0000
0001
0010
0100
0000
1100
0000
1000
0100
,
0010
0000
0100
0000
1100
0000
1000
0010
0000
0100
0000
0010
1000
0000
1100
0000
,
0100
0000
0010
0000
0011
0000
0001
0100
0000
0010
0000
0100
0001
0000
0011
0000
,
0010
0100
0000
0010
0001
0000
1000
0000
1010
0000
0110
0000
0100
0001
1000
0000
,
0100
0010
0000
0100
1000
0000
0001
0000
0101
0000
0110
0000
0010
1000
0001
0000
,
0010
0100
0010
0100
1000
0000
0000
1100
0000
0000
0100
0010
0001
0000
0101
0000
,
0100
0010
0100
0010
1000
0000
0000
1010
0000
0000
0010
0100
0001
0000
1001
0000
,
1000
0100
0010
0001
0010
0100
0010
0001
0010
0100
1000
0100
0010
0001
0010
0100
,
1000
0010
0100
0001
0100
0010
0100
0001
0100
0010
1000
0010
0100
0001
0100
0010
,
1000
0100
0010
0100
1000
0001
1000
0100
0010
0100
1000
0001
1000
0010
1000
0100
,
1000
0010
0100
0010
1000
0001
1000
0010
0100
0010
1000
0001
1000
0100
1000
0010
,
1000
0001
1000
0000
0001
0010
0001
0000
0010
0100
0010
0000
0100
1000
0100
0000
,
1000
0010
1000
0000
0010
0100
0010
0000
0100
0001
0100
0000
0001
1000
0001
0000
,
0010
0100
1000
0000
0100
0010
0001
0000
1000
0010
0100
0000
0001
1000
0100
0000
,
0010
0001
1000
0000
0010
0100
0001
0000
1000
0100
0010
0000
0001
0010
0100
0000
,
1000
0010
0100
0010
1000
0010
0100
0001
0100
0010
0100
0001
0100
0010
1000
0001
,
1000
0100
0010
0100
1000
0100
0010
0001
0010
0100
0010
0001
0010
0100
1000
0001
,
1000
0010
0100
0010
1000
0100
1000
0001
1000
0010
0100
0010
1000
0100
1000
0001
,
1000
0100
0010
0100
1000
0010
1000
0001
1000
0100
0010
0100
1000
0010
1000
0001
,
0010
0100
0010
0000
0001
1000
0001
0000
0100
0010
0100
0000
0001
1000
0001
0000
,
1000
0100
1000
0000
0100
0010
0100
0000
0010
0001
0010
0000
0001
1000
0001
0000
,
0100
0010
1000
0000
0001
0010
0100
0000
1000
0100
0010
0000
0001
0010
0100
0000
,
1000
0010
0100
0000
0001
1000
0100
0000
0010
0001
1000
0000
0010
0100
0001
0000
,
2000
0000
0000
0000
0000
0000
0200
3000
,
0000
0000
0320
0230
,
2300
0000
0010
0020
3000
0000
0200
0030
,
0000
0000
0000
0000
0000
0001
0302
0000
,
2000
0003
0000
0000
0100
0000
3200
0000
0000
0000
0320
0000
0000
0000
0000
0000
,
0002
0030
0000
0200
0003
0000
0320
0000
,
2000
0030
0000
0000
0000
3100
0010
0000
,
0001
0000
1000
0010
0100
0000
0001
0000
1000
0000
0010
0100
0001
0000
1000
0000
,
0002
0000
0000
0000
0000
0000
0200
0003
,
0000
0000
0320
0230
,
0302
0000
0010
0020
0003
0000
0200
0030
,
0000
0000
0000
0000
0000
1000
2300
0000
,
0002
3000
0000
0000
0100
0000
0203
0000
0000
0000
0320
0000
0000
0000
0000
0000
,
2000
0030
0000
0200
3000
0000
0320
0000
,
0002
0030
0000
0000
0000
0103
0010
0000
,
1000
0000
0001
0010
0100
0000
1000
0000
0001
0000
0010
0100
1000
0000
0001
0000
,
1000
0100
0010
0001
1000
0010
1000
0001
1000
0100
0010
0001
1000
0010
1000
0100
,
1000
0010
0100
0001
1000
0100
1000
0001
1000
0010
0100
0001
1000
0100
1000
0001
,
0100
0010
1000
0010
0100
0001
1000
0100
1000
0001
0100
0010
1000
0001
0100
0001
,
0010
0100
1000
0100
0010
0001
1000
0010
1000
0001
0010
0100
1000
0001
0010
0001
,
1000
0010
1000
0000
0001
0010
0001
0000
1000
0100
1000
0000
0001
0100
0001
0000
,
0010
0100
0010
0000
0001
1000
0001
0000
0100
0010
0100
0000
0001
1000
0001
0000
,
1000
0100
0010
0000
0001
0010
0100
0000
1000
0001
0100
0000
0010
1000
0001
0000
,
1000
0000
0001
0010
0100
0000
1000
0000
0001
0000
0010
0100
1000
0000
0001
0000
,
1000
0100
1000
0001
0010
0001
1000
0010
1000
0001
0010
0100
1000
0100
0010
0001
,
1000
0010
1000
0001
0100
0001
1000
0100
1000
0001
0100
0010
1000
0010
0100
0001
,
1000
0100
0010
0100
1000
0001
0010
0001
1000
0010
1000
0001
0010
0100
0010
0001
,
1000
0010
0100
0010
1000
0001
0100
0001
1000
0100
1000
0001
0100
0010
0100
0001
,
1000
0100
1000
0000
0001
0100
0001
0000
1000
0010
1000
0000
0001
0010
0001
0000
,
1000
0001
1000
0000
0010
0100
0010
0000
1000
0001
1000
0000
0100
0010
0100
0000
,
1000
0001
0100
0000
0010
1000
0001
0000
0010
0100
1000
0000
0001
0100
0010
0000
,
1000
0000
0001
0100
0010
0000
1000
0000
0001
0000
0100
0010
1000
0000
0001
0000
,
1000
0100
1000
0001
0100
0001
1000
0010
0100
0001
1000
0001
0010
0100
1000
0001
,
1000
0010
1000
0001
0100
0001
1000
0100
1000
0001
1000
0001
0100
0010
1000
0001
,
1000
0100
1000
0001
0100
0001
1000
0100
0010
0001
1000
0100
1000
0001
0100
0001
,
1000
0010
0100
0001
1000
0100
1000
0001
0100
0001
1000
0100
0010
0001
0010
0100
,
1000
0001
1000
0000
0001
0100
0001
0000
0100
0010
0100
0000
0010
1000
0010
0000
,
1000
0001
1000
0000
0001
0010
0001
0000
0010
0100
0010
0000
0100
1000
0100
0000
,
1000
0001
1000
0000
0010
0100
0010
0000
1000
0001
1000
0000
0100
0010
0100
0000
,
1000
0010
1000
0000
0001
0010
0001
0000
1000
0100
1000
0000
0001
0100
0001
0000
,
1000
0100
0010
0001
1000
0100
1000
0001
0100
0001
1000
0010
0100
0001
1000
0100
,
1000
0001
0100
0010
1000
0001
0100
0001
1000
0100
1000
0001
0100
0010
1000
0001
,
1000
0100
0010
0100
1000
0001
0010
0001
1000
0100
1000
0001
0100
0010
1000
0001
,
0100
0001
1000
0010
0100
0001
1000
0010
1000
0001
0010
0001
1000
0100
0010
0001
,
1000
0100
1000
0000
0100
0010
0100
0000
0010
0001
0010
0000
0001
1000
0001
0000
,
1000
0010
1000
0000
0010
0100
0010
0000
0100
0001
0100
0000
0001
1000
0001
0000
,
0010
0100
0010
0000
0001
1000
0001
0000
0100
0010
0100
0000
0001
1000
0001
0000
,
1000
0100
1000
0000
0001
0100
0001
0000
1000
0010
1000
0000
0001
0010
0001
0000
,
1000
0100
0010
0001
0010
0100
0010
0001
1000
0100
0010
0001
0010
0100
1000
0001
,
1000
0100
0010
0001
0010
0100
0010
0001
1000
0100
0010
0001
0010
0100
1000
0001
,
1000
0010
1000
0001
0100
0001
1000
0010
0100
0001
0100
0010
1000
0001
0100
0001
,
1000
0010
0100
0001
1000
0010
1000
0001
0100
0001
1000
0010
0100
0001
0100
0010
,
1000
0100
1000
0000
0100
0010
0100
0000
0010
0001
0010
0000
0001
1000
0001
0000
,
1000
0010
1000
0000
0010
0100
0010
0000
0100
0001
0100
0000
0001
1000
0001
0000
,
1000
0100
1000
0000
0001
0100
0001
0000
1000
0010
1000
0000
0001
0010
0001
0000
,
1000
0010
1000
0000
0001
0100
0001
0000
1000
0100
1000
0000
0001
0010
0001
0000
,
2000
3000
0000
0000
;
