#TITLE:Murdertrain a Comin';
#SUBTITLE:;
#ARTIST:Dethklok feat. Mashed Potatoes Johnson;
#TITLETRANSLIT:;
#SUBTITLETRANSLIT:;
#ARTISTTRANSLIT:;
#CREDIT:Darkmage;
#BANNER:murdertrainacomin-bn.png;
#BACKGROUND:murdertrainacomin-bg.png;
#LYRICSPATH:;
#CDTITLE:!darkmagetitle2.png;
#MUSIC:Murdertrain_a_comin.ogg;
#OFFSET:-0.392;
#SAMPLESTART:34.500;
#SAMPLELENGTH:16.500;
#SELECTABLE:YES;
#BPMS:0.000=176.000,580.000=20.000;
#STOPS:;
#BGCHANGES:0.000=murdertrainacomin-bg.png=1.000=0=0=1,
99999=-nosongbg-=1.000=0=0=0 // don't automatically add -songbackground-
;
// cache tags:
#FIRSTBEAT:4.000;
#LASTBEAT:582.000;
#SONGFILENAME:Songs/Archmage and Dark0wl Hammer of Thor UltraHyperMegaPack/Murder Train A Comin/Murdertrain_a_comin.sm;
#HASMUSIC:1;
#HASBANNER:1;
#MUSICLENGTH:105.000;
// end cache tags

//---------------dance-single - Darkmage----------------
#NOTES:
     dance-single:
     Darkmage:
     Challenge:
     14:
     1.000,1.000,1.000,1.000,1.000,1218.000,220.000,127.000,24.000,28.000:
0000
0000
0000
0000
,
1001
0000
1100
1100
0100
1000
0011
0100
,
1000
0001
0200
0000
1310
1010
0100
0001
,
0010
0100
1100
1100
0010
0001
0020
0000
,
1031
1001
0100
0001
0010
0001
0101
0101
,
0010
1000
0002
0000
1103
1100
0010
0001
,
0100
1000
0101
0101
0010
0100
2000
0000
,
3011
0011
0100
0001
0100
1000
1010
1010
,
0010
0001
0020
0000
0131
0101
0010
0100
,
0001
1000
0110
0110
1000
0010
0002
0000
,
1103
1100
0010
0100
1000
0001
0101
0101
,
1000
0001
0200
0000
0311
0011
0100
1000
,
0010
0100
1010
MMMM
1001
MMMM
0101
MMMM
,
1000
0100
1000
0000
1000
0100
1000
0000
1000
0100
1000
0000
0200
0000
2300
0000
,
3020
0000
0230
0000
0302
0000
2003
0000
3001
0010
0001
0000
0001
0010
0001
0000
,
0001
0010
0001
0000
0020
0000
0230
0000
2300
0000
3002
0000
0203
0000
0320
0000
,
1030
0100
1000
0000
1000
0010
1000
0000
1000
0001
1000
0000
0200
0000
2300
0000
,
3020
0000
0230
0000
0302
0000
2003
0000
3001
0010
0001
0000
0001
1000
0001
0000
,
0001
0100
0001
0000
0020
0000
0230
0000
0302
0000
0203
0000
2300
0000
3001
0000
,
1001
1001
0100
0010
1000
0100
1010
1010
,
0100
0010
2000
0000
3011
0011
0100
1000
,
0001
0100
1010
1010
0100
0010
2000
0000
,
3110
0110
0001
1000
0010
0100
0011
0011
,
0100
1000
0200
0000
1310
1010
0100
0001
,
1000
0100
0011
0011
0001
0100
0020
0000
,
1030
0100
1000
0100
1000
0100
1000
0100
1000
0010
1000
0010
0100
0001
0100
0001
,
0100
0001
0100
0001
0010
0001
0010
0001
0100
0010
0100
0010
0100
0010
0100
0010
,
1000
0100
1000
0100
0010
0001
0010
0001
0010
0001
0010
0001
1000
0100
1000
0100
,
1000
0010
1000
0010
1000
0010
1000
0010
0100
0001
0100
0001
0010
0100
0010
0100
,
0010
0100
0010
0100
1000
0100
1000
0100
1000
0010
0100
0001
0100
0001
0100
0001
,
0100
0001
0100
0001
1010
0000
1100
0000
0011
0000
0101
0000
0022
0000
0033
0000
,
0101
0101
0010
1000
0100
0010
1100
1100
,
0010
0001
0200
0000
1310
1010
0100
0010
,
1000
0100
0011
0011
0100
1000
0020
0000
,
1031
1001
0100
0010
1000
0100
1010
1010
,
0100
0000
0010
0000
1001
0000
0000
0000
0000
2020
0000
3030
0000
0220
0000
0330
,
0000
0202
0000
0303
0000
0022
0000
0000
0000
0000
0000
0033
0000
0000
0000
0000
,
1010
0000
0000
0000
1000
0100
0010
0001
1000
0000
0010
0100
0001
0010
0100
1000
,
0100
1000
0010
0100
0001
0000
0100
0000
0110
0000
1010
0000
0010
0100
0001
0010
,
0100
1000
0010
0100
0001
0010
0100
1000
0100
1000
0100
0010
0001
0000
1000
0000
,
1010
0000
0101
0000
0100
0010
1000
0100
0010
0000
0100
1000
0100
0010
0001
1000
,
0010
0000
0100
0000
0001
0010
0100
0000
1010
0000
0100
0010
1000
0001
0100
0010
,
1000
0100
0010
0001
1000
0010
0100
0001
1000
0100
0010
0001
1000
0010
0100
0001
,
1000
0100
1000
0100
1000
0100
1000
0000
0100
0010
0100
0000
0010
0001
0010
0001
,
0010
0000
0001
0010
0100
0000
1000
0100
1000
0010
1000
0100
1000
0000
0010
0100
,
0001
0000
0100
0010
0100
0001
0100
0000
0010
1000
0001
0000
1000
0000
0010
0100
,
0001
0010
0100
0000
1000
0010
0100
0000
1000
0100
0010
0001
0010
0000
0000
0000
,
0001
0010
0100
1000
0100
0000
1000
0000
0010
0100
0001
1000
0010
0100
0001
0010
,
0100
1000
0010
0000
1001
0000
0101
0000
0110
0000
1010
0000
1001
0000
0000
0000
,
1000
0100
0010
0001
1000
0100
0010
0001
1000
0100
0010
0001
1000
0100
1000
0010
,
0100
0001
0010
0001
0100
0010
1000
0100
1000
0100
0010
0001
1000
0100
0010
0001
,
1000
0100
0010
0001
1000
0100
1000
0010
0100
0001
0010
0001
0100
0010
1000
0100
,
1000
0100
0010
0001
1000
0100
0010
0001
1000
0100
0010
0001
1000
0100
1000
0010
,
0100
0001
0010
0100
0010
0001
0100
0010
1000
0100
0010
0001
1000
0100
0010
0100
,
1000
0001
0010
0100
0010
0001
0010
0100
1000
0001
0010
0100
2000
0000
0000
0000
,
3100
0010
0001
1000
0010
0100
0001
0010
0100
1000
0010
0100
0001
0100
0010
1000
,
0100
1000
0010
0100
0001
1000
0100
0010
0001
0010
0100
0010
0001
1000
0010
0100
,
0001
0100
0010
1000
0100
1000
0010
0100
0001
0010
0001
0100
0010
1000
0100
0010
,
0001
0010
0100
0010
0100
1000
0010
0100
0001
0010
0001
0100
0010
1000
0100
0010
,
0001
0010
0100
0010
0001
1000
0100
0010
0100
1000
0100
1000
0010
0100
0001
0100
,
0010
1000
0100
0010
0001
1000
0020
0000
0000
0000
0000
0000
0000
0000
0000
0000
,
1030
0100
1000
0100
1000
0100
1000
0100
0010
0100
0010
0100
0010
0001
0010
0001
,
0010
0001
0010
0001
1000
0010
1000
0010
0100
0001
0100
0001
0100
0001
0100
0001
,
0010
0100
0010
0100
1000
0100
1000
0100
1000
0100
1000
0100
1000
0010
1000
0010
,
0100
0001
0100
0001
0100
0001
0100
0001
0100
0010
0100
0010
1000
0010
1000
0010
,
1000
0010
1000
0010
0100
0001
0100
0001
0101
0000
0110
0000
1010
0000
1100
0000
,
0011
0110
1100
0110
0011
0000
1000
0000
,
0001
0010
0100
1000
0100
0000
1000
0100
0010
0000
0000
0000
0001
0010
0100
1000
,
0001
0010
0100
1000
0010
0100
0001
0010
0100
1000
0100
0010
0001
0000
0011
0000
,
0001
0010
0100
1000
0001
0010
0100
1000
0100
0010
0001
0010
0100
1000
0100
0010
,
0001
0000
0011
0000
0010
0100
1000
0100
0010
0100
0010
0001
0010
0100
1000
0001
,
0020
0000
0000
0000
0000
0000
0000
0000
0030
0000
2020
3030
0000
2002
3003
0000
,
0202
0303
0000
0022
0033
0000
2200
0000
0000
0000
0000
0000
0000
0000
3300
0000
,
1001
0000
1000
0010
,
0000
0100
0001
0000
,
0010
0100
0000
1000
,
0010
0000
0100
0001
,
0000
1000
0010
0000
,
1000
0100
0000
0010
,
0001
0000
1000
0010
,
0000
1000
0001
0000
,
0100
0010
0000
0001
,
0010
0000
0100
1000
,
0000
0010
0100
0000
,
0001
0100
0010
0100
,
1001
0000
0001
0100
,
0000
0010
1000
0000
,
0100
0010
0000
1000
,
0100
0000
0001
0010
,
0000
1000
0010
0000
,
0100
0000
0000
0000
0010
0000
0000
0000
1000
0000
0000
0100
0010
0000
0000
0000
,
1001
0000
0110
0000
,
0000
0001
1000
0000
,
0001
0100
0000
0010
,
0100
0000
0010
1000
,
0000
0001
0010
0000
,
0100
0001
0010
0100
,
1001
0000
0100
0011
,
0010
0001
1000
0000
0010
0000
0000
0000
,
0100
1010
1100
1010
,
0101
0000
0101
1010
,
0000
0000
1100
0000
0011
0000
0011
0100
,
1000
0001
0100
0010
1000
0001
1100
0000
,
1001
0000
1100
1001
,
0000
0011
1001
0000
,
0101
1001
0000
0110
,
1010
0000
1100
0011
,
0000
0000
1010
0101
,
1010
0000
0000
0000
1100
0000
0011
0000
0101
0000
1010
0000
0100
0001
0010
0000
,
1100
0000
0011
1100
0100
1000
0011
0100
,
1000
0010
0200
0000
1310
0101
0100
0010
,
1000
0001
0110
1010
1000
0100
0020
0000
,
1130
0011
0100
0010
0001
1000
0110
1001
,
0010
0100
0002
0000
0113
1001
0010
0100
,
0001
1000
0110
0101
0001
0010
0200
0000
,
1310
0101
0010
1000
0100
0001
0101
1100
,
1000
0010
0002
0000
0113
1010
1000
0100
,
0001
0100
1010
0011
1000
0100
0020
0000
,
0131
0011
0100
0001
1000
0010
0011
1100
,
0001
0010
0200
0000
0311
1100
1010
0101
,
0110
1010
1100
0011
0101
0110
1001
0000
,
2000
0100
3020
0000
0032
0100
0023
0000
0230
0010
2300
0000
3002
0000
0023
0000
,
2030
0000
3020
0000
0032
0000
2003
0000
3020
0100
0032
0000
2003
0100
3020
0000
,
0032
0100
2003
0000
3200
0000
0320
0000
2030
0000
3200
0000
0320
0000
0032
0000
,
2003
0010
3200
0000
0302
0010
0203
0000
2300
0010
3002
0000
0023
0000
0230
0000
,
0302
0000
0023
0000
0230
0000
2300
0000
3200
0010
0302
0000
2003
0010
3200
0000
,
0302
0000
0010
0000
2003
0000
0000
0000
3022
0000
0000
0033
2200
0000
0000
3300
2020
0000
0000
3030
0202
0000
0000
0303
0022
0000
0000
0033
0000
0000
0000
0000
,
1010
1010
0100
0010
1000
0001
1100
1100
,
0010
0001
2000
0000
3110
0110
0001
0010
,
0100
1000
0011
0011
0100
1000
0020
0000
,
1130
0011
1000
0010
0001
1000
0110
1001
,
0010
0100
0002
0000
1103
0011
0100
0010
,
1000
0001
0110
1100
0001
0010
0200
0000
,
1300
0100
1000
0100
1000
0100
1000
0100
1000
0010
1000
0010
0100
0010
0100
0010
,
0100
0010
0100
0010
0100
0001
0100
0001
0010
0001
0010
0001
0010
0001
0010
0001
,
0100
0010
0100
0010
1000
0010
1000
0010
1000
0010
1000
0010
0001
0010
0001
0010
,
0100
0010
0100
0010
0100
0010
0100
0010
0100
0001
0100
0001
0010
0001
0010
0001
,
0010
0001
0010
0001
1000
0001
1000
0001
1010
0000
0101
0000
0011
0000
1100
0000
,
1010
0110
0101
0011
0110
1100
2020
3030
,
1010
0101
0010
1000
0010
0001
1100
0011
,
0100
1000
0002
0000
1103
1010
0100
0010
,
1000
0010
0101
0011
0100
1000
0020
0000
,
0131
1010
0100
0001
1000
0010
0101
0011
,
0100
1000
0020
0000
1130
0110
1000
0001
,
0010
0100
1010
0000
0111
0000
MMMM
0000
,
1111
MMMM
MMMM
0000
;
