#TITLE:One Day When I Grow Up;
#SUBTITLE:(Shpadoinkle);
#ARTIST:Ch!pz;
#TITLETRANSLIT:;
#SUBTITLETRANSLIT:;
#ARTISTTRANSLIT:;
#CREDIT:;
#BANNER:../thisandthat-bn.png;
#BACKGROUND:../thisnthat-bg.png;
#LYRICSPATH:;
#CDTITLE:;
#MUSIC:One Day When I Grow Up.ogg;
#OFFSET:0.006;
#SAMPLESTART:44.438;
#SAMPLELENGTH:12.000;
#SELECTABLE:YES;
#DISPLAYBPM:135.000;
#BPMS:0.000=135.000,98.000=270.000,99.000=135.000,226.000=270.000,227.000=135.000,284.000=270.000,286.000=135.000,300.000=270.000,306.000=135.000,352.000=270.000,353.000=135.000;
#STOPS:98.000=0.222
,226.000=0.222
,284.000=0.111
,284.500=0.111
,285.000=0.111
,285.500=0.111
,300.000=0.111
,300.500=0.111
,301.000=0.111
,301.500=0.111
,352.000=0.222
;
#BGCHANGES:;
// cache tags:
#FIRSTBEAT:4.000;
#LASTBEAT:437.000;
#SONGFILENAME:Songs/Seph, Gson & Shpadoinkle's Pack of This 'n That/One Day When I Grow Up (9)/One Day When I Grow Up.sm;
#HASMUSIC:1;
#HASBANNER:1;
#MUSICLENGTH:105.000;
// end cache tags

//---------------dance-single - Shpadoinkle----------------
#NOTES:
     dance-single:
     Shpadoinkle:
     Challenge:
     9:
     1.000,1.000,0.267,1.000,0.276,754.000,28.000,278.000,35.000,0.000:



0000
0000
0000
0000
,
100M
0100
001M
0100
100M
0010
010M
0010
,
100M
0100
001M
0100
100M
0010
010M
0010
,
1M0M
0001
0M10
0001
10M0
0001
01M0
0001
,
1M00
0001
0M10
0001
10M0
0001
01M0
0001
,
1000
0100
0010
0001
2000
0000
3010
0000
,
0100
0001
0010
0100
2000
0000
3010
0000
,
0100
0001
0010
0001
0200
0000
0310
0000
,
1000
0010
0100
1000
0200
0000
0301
0000
,
1000
0001
1000
0001
0020
0000
0130
0000
,
0010
0100
1000
0010
0200
0000
0301
0000
,
1000
0100
1000
0100
0020
0000
0130
0000
,
0000
0000
0000
1100
0220
0330
2002
3003
,
1000
0100
0020
0031
0020
0230
2300
3002
,
0203
1300
0100
0001
0010
1000
0010
0001
,
0100
0010
2000
3100
0020
0032
2003
3020
,
0032
0013
1000
0200
0320
0031
2000
3001
,
1000
0010
0200
1300
0200
0320
2030
3200
,
0320
0031
0100
0010
0001
0010
0100
0001
,
0010
0100
2000
3100
0020
0032
0203
2300
,
3200
0301
1000
0020
0230
0301
0200
0300
,
0001
0010
1100
0000
0001
0010
1100
0000
,
1000
0001
0010
0100
2000
0000
3100
0000
,
1000
0010
0101
0000
1000
0010
0101
0000
,
1000
0001
0010
0100
1000
0000
2200
3300
,
0001
0010
1100
0000
0001
0010
1100
0000
,
1000
0001
0010
0100
0020
0000
0031
0000
,
2000
3020
0032
0023
,
2030
3200
0302
0203
,
0320
0000
0032
0000
2003
0000
3000
M000
2000
0000
3200
0000
0320
0000
0230
0000
,
2300
0000
3000
M000
2000
0000
3002
0000
0023
0000
0032
0000
0023
0000
0230
0000
,
0300
0000
0020
0000
0032
0000
0003
000M
0002
0000
2003
0000
3020
0000
0230
0000
,
0320
0230
0302
0003
000M
0002
0203
0320
,
0030
0000
2000
0000
3002
0000
0003
000M
0002
0000
0203
0000
2300
0000
3200
0000
,
0302
0000
0003
000M
0002
0000
0023
0000
0230
0000
2300
0000
3200
0000
0320
0000
,
0030
0000
0002
0000
0023
0000
0030
00M0
0020
0000
2030
0000
3020
0000
0032
0000
,
0003
0002
0003
0002
0003
2000
3200
2300
,
3001
0010
0100
1000
0002
0000
0013
0000
,
0001
0010
0100
0010
0002
0000
0103
0000
,
0001
0100
1000
0100
0002
0000
0013
0000
,
0001
1000
0010
0001
0020
0000
1030
0000
,
0100
0010
0001
0010
0200
0000
1300
0000
,
0001
1000
0010
0100
0020
0000
0130
0000
,
0001
1000
0001
1000
0002
0000
0103
0000
,
0000
0000
0000
0110
2200
3300
0022
0033
,
1000
0001
0020
0130
2000
3200
0320
0032
,
0203
1300
0100
0001
0010
1000
0010
0001
,
1000
0010
0200
1300
0200
0320
2030
3200
,
0320
0031
1000
0020
0032
0013
2000
3100
,
0010
0001
0200
0310
0002
0023
0230
0302
,
2003
3100
0001
0100
1000
0010
0001
0010
,
1000
0100
0020
0031
0200
2300
3200
0302
,
0023
0130
1000
0002
0023
0130
2000
3000
,
0001
0100
1010
0000
0001
0100
1010
0000
,
1000
0001
1000
0001
0020
0000
0130
0000
,
1000
0100
0011
0000
1000
0100
0011
0000
,
1000
0010
0100
0010
0100
0000
2002
3003
,
1000
0001
0011
0000
1000
0001
0011
0000
,
1000
0010
0001
0010
2000
0000
3001
0000
,
0200
0320
0032
0023
,
2030
3200
0320
0032
,
0023
0031
0010
0100
0000
0010
0100
1000
,
0000
0001
0010
0100
1000
0100
0010
0001
,
1000
0000
0001
0000
0010
0000
0200
0000
0300
0000
1000
0100
0010
0000
0001
0000
,
1000
0000
0010
0000
0100
0000
0020
0000
0030
0000
1000
0010
0100
0000
0001
0000
,
0100
0010
0100
0002
0000
0013
1000
0010
,
0002
0000
0203
0000
0320
0000
0030
1000
,
0001
0000
0010
0000
0100
0000
0020
0000
0030
0000
0001
0010
0001
0000
1000
0000
,
0100
0000
0010
0000
0001
0000
0010
0000
0100
1000
0100
0010
0100
0000
1000
0000
,
0002
0000
0003
0000
0200
0000
0320
0000
0030
0000
2000
0000
0000
0000
3200
0010
,
0301
0010
0001
0010
0100
1000
0010
0100
0010
0100
0010
1000
0100
0010
0001
0010
,
0001
1000
0001
1000
0001
0000
1000
0000
,
0001
0020
0130
2000
3010
0200
0301
0200
,
1300
0200
0301
0020
1030
0020
0031
0020
,
0130
2000
3100
0020
0031
2000
3010
0200
,
0301
0001
1000
0001
0200
0000
0300
0000
,
0202
0000
0303
0000
1000
0100
0020
0031
,
0020
2030
3020
0032
0023
0130
1000
0001
,
0100
0010
1000
0010
1000
0001
0020
0130
,
2000
3020
0032
0023
2030
3100
0010
0002
,
2003
3010
0200
0310
1000
0001
0200
1300
,
0200
0302
0023
2030
3020
0031
0010
0100
,
1000
0100
0010
0001
1000
0001
0020
0130
,
0020
0032
2003
3200
0320
0130
1000
0200
,
0320
0031
0200
0300
0001
0010
1100
0000
,
0001
0010
1100
0000
1000
0010
0001
0010
,
2000
0000
3100
0000
0001
0010
1100
0000
,
0001
0010
1100
0000
1000
0001
0010
0100
,
1000
0000
0220
0330
1000
0010
0101
0000
,
1000
0010
0101
0000
0001
0010
0100
0010
,
0002
1003
0002
0023
,
2030
3020
0032
0203
,
2300
0000
0000
0000
3200
0000
0000
0000
0320
0000
2030
0000
3002
0000
0003
000M
,
0002
0000
2003
0000
3020
0000
0230
0000
0320
0000
0030
00M0
0020
0000
2030
0000
,
3002
0000
0023
0000
0032
0000
2003
0000
3000
0000
0200
0000
0320
0000
0030
00M0
,
0020
0032
2003
3020
0230
0320
0230
0300
,
0M00
0000
0200
0000
0302
0000
0023
0000
0030
0000
0002
0000
0023
0000
0030
00M0
,
0020
0000
0032
0000
0203
0000
2300
0000
3200
0000
0300
0M00
0200
0000
0302
0000
,
0023
0000
0032
0000
0023
0000
0230
0000
0300
0000
0020
0000
0032
0000
0003
000M
,
0002
2003
3020
0230
0300
0200
0300
0200
,
0300
0000
0002
0000
2003
0000
3002
0000
1003
0000
0100
0000
0010
0001
0010
0000
,
0100
0000
1000
0000
0010
0100
0010
0000
1000
0000
0001
0000
0010
0100
0010
0000
,
0001
0000
1000
0000
0100
1000
0100
0000
1000
0100
0010
0100
1000
0001
0010
0100
,
0010
0001
0010
0100
1000
0000
0000
0000
0001
0010
0100
0010
0001
1000
0100
0010
,
0100
1000
0100
0010
0001
0000
1000
0000
0010
0000
0100
0000
0001
0010
0001
0000
,
1000
0000
0010
0000
0100
0001
0100
0000
0001
0000
1000
0000
0100
0010
0100
0000
,
1000
0000
0001
0000
0010
0100
1000
0000
0001
0010
0100
1000
0001
0010
0100
1000
,
0001
0100
0010
1000
0100
0000
0000
0000
1000
0100
0010
0001
1000
0100
0010
0001
,
1000
0010
0100
0001
M020
0000
0000
0000
0M00
0000
0000
0000
M032
0000
0000
0000
,
00M0
0003
0000
0000
;
