#TITLE:moon_child;
#SUBTITLE:;
#ARTIST:Shonen radio;
#TITLETRANSLIT:;
#SUBTITLETRANSLIT:;
#ARTISTTRANSLIT:;
#CREDIT:;
#BANNER:Moon Child.png;
#BACKGROUND:Moon Child-bg.png;
#LYRICSPATH:;
#CDTITLE:!toph-cdtitle.png;
#MUSIC:Shonen Radio - Moon Child.mp3;
#OFFSET:-0.930;
#SAMPLESTART:53.750;
#SAMPLELENGTH:12.000;
#SELECTABLE:YES;
#BPMS:0.000=146.000,12.000=150.000,20.000=155.000,36.000=160.000,291.000=155.000,315.000=150.000,319.000=146.000,323.000=130.000;
#STOPS:;
#BGCHANGES:;
// cache tags:
#FIRSTBEAT:4.000;
#LASTBEAT:309.000;
#SONGFILENAME:Songs/StepmaniaFreak's Favorites/Moon Child [Toph]/Moon Child.sm;
#HASMUSIC:1;
#HASBANNER:1;
#MUSICLENGTH:128.816;
// end cache tags

//---------------dance-single - ----------------
#NOTES:
     dance-single:
     :
     Hard:
     12:
     1.000,1.000,1.000,0.016,0.928,816.000,170.000,2.000,0.000,0.000:
0000
0000
0000
0000
,
1001
0100
1000
0010
0100
0010
0000
0000
,
0101
1000
0100
0010
0001
0010
0000
0000
,
1001
0100
0010
0001
0100
0001
0000
0000
,
0110
0000
1000
0000
0100
0000
0001
0010
0001
0000
0100
0000
0010
0000
1000
0000
,
1001
0100
0010
1100
0001
0010
0001
0000
,
0110
1000
0001
0110
0001
0100
0010
0000
,
1100
0000
0010
0000
0001
0000
0110
0000
1000
0000
0001
0000
0010
0000
0001
0100
,
0010
0000
1000
0000
0001
0000
0010
0100
1000
0000
0010
0000
0100
0000
0001
0000
,
1001
0100
1000
0100
0010
0100
0010
0100
,
1010
0001
0010
0001
0110
1000
0100
1000
,
0011
0100
0010
0100
0001
0100
0001
0100
,
1010
0000
0001
0000
1100
0000
0001
0000
0100
0010
1000
0001
0010
0000
0100
0000
,
1001
1000
1100
1000
1010
1000
1100
1000
,
1001
0001
0101
0001
0011
0010
0110
0100
,
1100
1000
1010
1000
1001
1000
1010
1000
,
1100
0000
1000
0000
1001
0000
0100
0000
0010
1001
0100
0000
1001
0000
0100
0010
,
1001
0000
0001
0010
0001
0000
0100
0010
0100
0000
0010
1000
0010
0000
1000
0100
,
0010
0000
0011
0000
0110
0000
1000
0001
0100
0010
0000
0010
0110
0000
1001
0000
,
0100
0010
0001
0100
0010
0100
0001
1000
0100
0010
0001
1000
0001
0100
0010
1000
,
0100
0000
0011
0000
1001
0001
0000
1000
0010
0100
0001
0000
1001
0000
0100
0010
,
1001
0000
0001
1000
0010
0000
0100
0001
1000
0000
0100
0010
0001
0000
1000
0100
,
0010
0001
0001
0000
1100
0100
0010
0001
0000
0100
0010
0000
1001
0000
0100
0000
,
0010
0100
0001
1000
0010
1000
0100
0010
0001
0100
0010
1000
0001
0010
0100
1000
,
0100
0010
0001
0100
0010
1000
0100
0010
0002
0000
0000
0000
0200
0000
0000
0000
,
0300
0000
1000
0010
0103
0000
1001
0100
,
0011
0100
1001
0100
0011
0100
1010
0001
,
0110
0001
1010
0001
0110
1001
1100
0010
,
0101
0000
0010
0000
1100
0000
0010
0000
0101
0000
0010
1000
0100
0000
0001
0000
,
1010
0001
0110
0001
1010
1001
1100
0010
,
1001
0000
0010
0000
1100
0000
0010
0000
1001
0000
1000
0100
0010
0000
1000
0000
,
0101
1000
0011
1000
0101
1010
0101
0010
,
1001
0010
0101
0010
1001
0010
1100
0001
,
0110
1010
0101
0010
1001
0110
0011
0101
,
1001
0000
1010
0000
1100
0000
0110
0000
0011
0000
0010
0100
1001
0000
0001
0010
,
0001
0000
0010
0100
0010
0000
0100
1000
0100
0010
0100
1000
0001
0000
0100
0010
,
0100
0000
0001
0100
0001
0000
1000
0100
0010
0001
0100
0010
1000
0000
0001
0010
,
0001
0000
0100
0010
0100
0000
0010
1000
0100
1000
0010
0100
0010
0000
0100
0000
,
1001
0000
0000
1000
0100
1000
0001
0000
0000
0100
0000
0000
0011
0000
0000
1000
0000
0000
0010
0000
0000
0001
0000
0000
,
0100
0000
0000
0010
0000
0000
1000
0000
0000
0100
0000
0000
0010
0000
0000
0000
0000
0000
0001
0000
0100
0000
0001
0000
1000
0000
0000
0000
0000
0000
0100
0000
0000
0000
0000
0000
1000
0000
0000
0000
0000
0000
0010
0000
0000
0000
0000
0000
,
0010
0000
0000
0100
0000
0000
0001
0000
0000
0010
0000
0000
0100
0000
0000
0000
0000
0000
1000
0000
0001
0000
1000
0000
0010
0000
0000
0000
0000
0000
0100
0000
0000
0000
0000
0000
0001
0000
0000
0010
0000
0000
0100
0000
0000
0010
0000
0000
,
0001
0010
0100
0010
0001
0010
0100
0010
0001
0100
0010
1000
0011
0000
0011
0100
,
0011
0000
0110
0001
0100
0010
1001
0010
0100
1000
0010
0100
1001
0100
0010
0100
,
0010
0000
1001
0100
0010
0100
0010
0000
1001
0100
0010
0100
1001
0000
0010
0000
,
1100
0000
1001
0000
0011
0000
0110
0000
0101
0000
0100
0001
1010
0100
1000
0100
,
1000
0000
0011
0100
0001
0100
0001
0000
1010
0100
0010
0100
1001
0000
0100
0000
,
0011
0000
1001
0000
1010
0000
0001
0100
0010
1000
0001
0000
1001
0100
1000
0100
,
0011
0000
0101
0000
0000
0000
0101
0000
1010
0000
0001
0000
1001
0100
0010
0100
,
1001
0000
0000
0000
0000
0000
0110
0000
0000
0000
0000
0000
1000
0000
0000
0000
0000
0000
0011
0000
0000
0000
0000
0000
1100
0000
0000
0000
0000
0000
0010
0000
0000
1000
0000
0000
0011
0000
0000
0000
0100
0000
0000
0000
1000
0000
0000
0000
,
0101
0010
1000
0110
0001
0100
1010
0001
0010
1001
0100
0010
,
1100
0000
0001
0000
0010
0000
0101
0000
1000
0000
0001
0000
0110
0000
1000
0000
0100
0000
0011
0000
0000
0100
0000
0000
,
0010
0100
1001
0100
1000
0100
1010
0001
,
0010
0000
0001
0000
1100
0010
0001
0000
0100
0010
1000
0000
0100
0000
0000
0000
,
0100
0010
0001
0100
0010
0000
1000
0000
0001
0000
0010
0000
0100
0000
0000
0000
,
0100
1000
0010
0100
0001
0000
0010
0000
0100
0000
1000
0000
0010
0000
0000
0000
,
0010
0100
0001
0010
0100
0000
1000
0000
0010
0000
0100
0000
1001
0000
0010
0000
,
1000
0001
0100
0010
1000
0000
0100
0000
0010
0000
0001
1000
0110
0000
0000
0000
,
0100
0001
1000
0100
0010
0000
0001
0000
0101
0000
0110
0000
1010
0000
0000
0000
,
0001
0010
0100
1000
0010
0000
0100
0000
0101
0000
1001
0000
1010
0000
0000
0000
,
1000
0100
0010
0001
0100
0000
0010
0000
1001
0000
1010
0000
0101
0000
0001
1000
,
0100
0000
0000
0000
0010
0000
0000
0000
0101
0000
0000
0000
1000
0000
0100
0000
0010
0001
0010
0001
0010
0000
0100
0000
1000
0000
0010
0000
0100
0000
0001
0000
,
0010
0100
1000
0010
1000
0100
0010
0001
0100
0010
1000
0010
0100
0001
0010
0100
,
1000
0010
0100
0001
0010
0001
0100
0010
1000
0100
0010
0100
1001
0100
0010
1000
,
0011
0100
1000
0001
0110
1000
0001
0010
1100
0001
0100
0010
1001
0100
0010
0001
,
1010
0000
0100
0000
0001
0000
1000
0000
0110
0000
0001
0000
0010
0000
0100
0000
1001
0000
0010
0000
0100
0000
1000
0001
0100
0000
0010
0000
1000
0000
0001
0000
,
0000
0000
0010
0000
0000
0000
0001
0000
0100
0000
0010
0000
0100
0000
0001
1000
0001
0000
0010
0000
0100
0000
1000
0000
0100
0000
0010
0000
0001
0000
0100
0000
,
0010
1000
0100
0010
0100
1000
0010
0100
0001
0010
0100
1000
0001
0100
0010
0100
,
0001
1000
0100
0010
0001
0100
0010
1000
0001
0010
0100
1000
0100
0000
0010
0000
,
1001
0000
0100
0000
0010
1000
0010
0000
0100
0000
0001
0000
1000
0000
0100
0000
0010
0000
0001
0000
0100
0000
0010
0000
1000
0000
0000
0000
0001
0000
0010
0000
,
1001
0000
0010
0100
0010
0000
0100
1000
0101
0010
0001
1000
0010
0100
0001
0010
,
0101
1000
0001
0100
0010
1000
0100
0010
1001
0100
0010
1000
0001
0010
0100
0010
,
1001
0100
0010
0100
0001
0010
0100
1000
0101
0010
1000
0100
0010
0000
0000
0010
,
1001
0100
0010
1000
0001
0000
0110
1000
0110
0000
1100
0000
1001
0000
0001
0000
,
0001
0001
0001
0001
0001
0001
0101
0001
,
0001
0001
0001
0001
0011
0011
1001
0001
,
0001
0000
0001
0000
0001
0000
0001
0000
0101
0000
0001
0100
1001
0000
0001
0000
,
0011
0000
0001
0010
0001
0000
0001
0000
0001
0000
0001
0000
0001
0000
0001
0000
,
0001
0001
0001
0000
0000
0000
0000
0000
;
