#TITLE:Disembowel Sluts;
#SUBTITLE:MJO3 vs RYNK;
#ARTIST:Pygmy Guru;
#TITLETRANSLIT:;
#SUBTITLETRANSLIT:;
#ARTISTTRANSLIT:;
#CREDIT:;
#BANNER:disembowel-bn.png;
#BACKGROUND:disembowel-bg.png;
#LYRICSPATH:;
#CDTITLE:monst3rjoe - cdtitle.png;
#MUSIC:Disembowel Sluts.ogg;
#OFFSET:0.091;
#SAMPLESTART:69.012;
#SAMPLELENGTH:12.000;
#SELECTABLE:YES;
#BPMS:0.000=175.000,82.000=700.000,90.000=350.000,90.250=87.500,90.500=700.000,90.750=350.000,91.000=175.000,104.500=350.000,105.000=175.000,105.500=350.000,106.000=175.000,119.500=350.000,120.000=175.000,120.500=350.000,121.000=175.000,134.500=350.000,135.000=175.000,135.500=350.000,136.000=175.000,149.500=350.000,150.000=175.000,150.500=350.000,151.000=175.000,158.000=350.000,159.000=175.000,160.000=350.000,162.000=175.000,169.000=350.000,174.000=175.000,181.000=350.000,182.000=175.000,183.000=350.000,185.000=175.000,193.000=87.500,194.000=350.000,196.750=175.000,197.000=350.000,197.250=175.000,197.500=350.000,197.750=175.000,198.000=350.000,199.000=2800.000,200.000=350.000,200.500=350.000,200.750=175.000,201.000=350.000,201.250=175.000,201.500=350.000,201.750=175.000,202.000=350.000,204.500=175.000,205.000=350.000,205.750=175.000,207.000=2800.000,208.000=350.000,209.500=175.000,210.500=350.000,213.250=175.000,214.000=350.000,215.000=2800.000,216.000=175.000,217.000=350.000,217.250=175.000,218.000=350.000,221.750=175.000,223.000=2800.000,224.000=87.500,225.000=175.000,225.500=242.085,235.000=245.550,237.000=242.085,298.000=121.000,298.750=122.000,300.000=242.085,330.000=121.042,330.500=484.170,331.000=242.085,361.000=484.170,363.000=242.085,371.000=3873.360,372.000=242.085,380.000=3873.360,381.000=242.085,389.000=3873.360,390.000=242.085,403.000=484.170,411.000=242.085,455.000=220.000,463.063=0.001;
#STOPS:88.000=0.129
,88.500=0.129
,89.000=0.086
,90.000=0.018
,90.750=0.043
,104.000=0.171
,104.500=0.086
,105.000=0.171
,105.500=0.084
,119.000=0.171
,119.500=0.086
,120.000=0.171
,120.500=0.086
,134.000=0.172
,134.500=0.086
,135.000=0.172
,135.500=0.087
,149.000=0.171
,149.500=0.086
,150.000=0.171
,150.500=0.086
,152.500=0.002
,153.000=-1.371
,158.000=0.170
,159.000=0.343
,160.000=0.086
,160.500=0.129
,161.250=0.129
,164.000=-1.371
,169.000=0.170
,170.000=0.086
,170.500=0.086
,171.000=0.086
,171.500=0.043
,171.750=0.043
,172.000=0.086
,172.500=0.043
,172.750=0.043
,173.000=0.086
,173.500=0.086
,176.000=-1.371
,181.000=0.170
,182.000=0.343
,183.000=0.171
,184.000=0.086
,184.500=0.086
,187.000=-1.371
,192.250=0.002
,194.000=0.167
,195.000=0.085
,195.500=0.086
,196.000=0.086
,196.500=0.043
,197.000=0.043
,197.500=0.043
,198.000=0.171
,199.000=0.321
,200.000=0.086
,200.500=0.043
,201.000=0.043
,201.500=0.043
,202.000=0.086
,202.500=0.129
,203.250=0.129
,204.000=0.086
,205.000=0.043
,205.250=0.043
,205.500=0.043
,207.000=0.321
,208.000=0.086
,208.500=0.086
,209.000=0.086
,210.500=0.043
,210.750=0.043
,211.000=0.086
,211.500=0.086
,212.000=0.086
,212.500=0.043
,212.750=0.043
,213.000=0.043
,214.000=0.171
,215.000=0.320
,217.000=0.043
,218.000=0.171
,219.000=0.086
,219.500=0.086
,220.000=0.086
,220.500=0.043
,220.750=0.043
,221.000=0.043
,221.250=0.043
,221.500=0.043
,223.000=0.321
,227.000=-0.991
,330.500=0.191
,355.500=0.001
,361.000=0.065
,361.500=0.064
,362.000=0.063
,362.500=0.063
,365.500=-0.248
,371.000=0.236
,374.500=-0.248
,380.000=0.235
,383.500=-0.248
,389.000=0.231
,392.500=-0.248
,403.000=0.123
,404.000=0.124
,405.000=0.123
,406.000=0.124
,407.000=0.124
,408.000=0.121
,409.000=0.124
,410.000=0.037
,410.250=0.038
,410.500=0.038
,410.750=0.035
,422.500=0.243
,437.500=0.246
,450.000=-0.991
,458.000=-0.991
;
#BGCHANGES:;
// cache tags:
#FIRSTBEAT:2.000;
#LASTBEAT:463.000;
#SONGFILENAME:Songs/SSSC Pack 2/Disembowel Sluts - [Monst3rjoe vs Rynker]/Disembowelsluts.sm;
#HASMUSIC:1;
#HASBANNER:1;
#MUSICLENGTH:105.000;
// end cache tags

//---------------dance-single - Monst3rjoe----------------
#NOTES:
     dance-single:
     Monst3rjoe:
     Challenge:
     12:
     1.000,1.000,1.000,1.000,0.386,482.000,227.000,132.000,235.000,72.000:

0000
0000
0000
0000
0000
0000
0000
0MM0
,
0000
0000
0000
0M00
00M0
0000
M00M
0000
M00M
0000
M00M
0000
M00M
0000
M00M
0000
0MM0
0000
0000
0000
0000
0000
0000
0000
0000
0000
0000
0000
0000
0000
0000
0000
0000
0000
0000
0000
0000
0000
0000
0000
0000
0000
0000
0000
0000
0000
0000
0000
,
0000
0000
0000
0000
,
0000
0000
0000
0000
0000
0000
0000
000M
,
0000
0000
M000
M000
M000
0000
00M0
0M00
,
000M
M000
0000
0000
0012
0000
2100
0003
,
0012
3000
2100
0003
0012
3000
2100
0003
,
0011
0000
3000
0000
2100
0000
0012
3000
2100
0000
0003
0000
0012
0000
3000
0000
,
2100
0003
0012
3000
1103
0011
1100
0011
,
1100
0011
1100
0011
1100
0000
0101
0000
,
1010
0000
1001
0000
1200
0000
1020
0300
,
0201
0030
1320
0231
1320
0000
0201
0030
,
1020
0300
0201
0030
1310
0101
1010
0101
,
1010
0101
1010
0101
0201
0000
2300
0000
,
3010
1000
0200
0000
0310
0001
0100
0010
,
00M0
0010
0100
0101
0002
0000
0023
0000
,
0130
1000
0020
0000
0130
0001
0010
0200
,
1010
0300
0101
0000
1010
0000
0101
0000
2000
0000
0000
0000
3020
0000
0000
0000
,
0130
0001
0020
0000
0130
1000
0010
0100
,
0M00
0100
0010
2000
0011
3000
0110
0000
,
1100
1001
2222
3003
,
0330
0000
0000
0000
,
MMMM
0000
0000
0000
0000
0000
0000
0000
MMM0
0000
0000
0000
0000
0000
0000
0000
MM00
0000
M000
0M00
M000
0M00
M000
0M00
MM11
0000
0000
0000
0000
0000
0000
0000
,
1011
1100
1011
1100
,
1011
0011
1101
1100
,
1011
0011
1101
0011
,
2MMM
0000
3002
0003
MMM2
0000
0023
0000
0131
0000
0000
0000
1110
0000
0000
0000
,
0101
1101
1010
0111
,
0101
1110
1010
1101
,
0101
0000
0000
0000
1110
0000
0000
0000
1001
0000
0000
0000
MMM2
0003
0200
0300
,
M2MM
0000
0320
0030
1000
0000
1000
0000
0000
0000
0400
0000
0310
0000
0010
0000
,
0004
0000
0000
0000
1003
0000
1000
0000
0000
0000
0010
0000
0400
0000
0000
0300
,
MM24
0033
0000
0000
0000
0000
0000
0000
0000
0000
0000
0000
0000
0000
0000
0000
0000
0000
0000
0000
0000
0000
0000
0000
0000
0000
0000
0000
0000
0000
0000
0000
0000
0000
0000
0000
0000
0000
0000
0000
0000
0000
0000
0000
0000
0000
0000
0000
0004
0000
0000
0000
0000
0000
0000
0000
0000
0000
0000
0000
0000
0000
0000
0000
0000
0000
0000
0000
0000
0000
0000
0000
0000
0000
0000
0000
0000
0000
0000
0000
0000
0000
0000
0000
0003
0000
0000
0000
0000
0000
0000
0000
0000
0000
0000
0000
0040
0000
0000
0000
0000
0000
0000
0000
0000
0000
0000
0000
0000
0000
0000
0000
0000
0000
0000
0000
0000
0000
0000
0000
0000
0000
0000
0000
0000
0000
0000
0000
0000
0000
0000
0000
0030
0000
0000
0000
0000
0000
0000
0000
0000
0000
0000
0000
0400
0000
0000
0000
0000
0000
0000
0000
0000
0000
0000
0000
0000
0000
0000
0000
0000
0000
0000
0000
0000
0000
0000
0000
0000
0000
0000
0000
0000
0000
0000
0000
0000
0000
0000
0000
030M
0000
0000
0000
0000
0000
0000
0000
0000
0000
0000
0000
,
4000
0000
0000
0000
0000
0000
0000
3000
0040
0000
0000
0000
0000
0000
0030
0000
2MMM
0000
0000
0000
3200
0000
0300
0000
M2MM
0000
0000
0000
0320
0000
0030
0000
,
0001
0000
0001
0000
0000
0000
0040
0000
0130
0000
0100
0000
4000
0000
0000
3000
,
0001
0000
0000
0000
0000
0000
0000
0000
0000
0000
0000
0000
0000
0000
0000
0000
0000
0000
0000
0000
0000
0000
0000
0000
0001
0000
0000
0000
0000
0000
0000
0000
0000
0000
0000
0000
0000
0000
0000
0000
0000
0000
0000
0000
0000
0000
0000
0000
0000
0000
0000
0000
0000
0000
0000
0000
0000
0000
0000
0000
0000
0000
0000
0000
0000
0000
0000
0000
0000
0000
0000
0000
0100
0000
0000
0000
0000
0000
0000
0000
0000
0000
0000
0000
0000
0000
0000
0000
0000
0000
0000
0000
0000
0000
0000
0000
0040
0000
0000
0000
0000
0000
0000
0000
0000
0000
0000
0000
0000
0000
0000
0000
0000
0000
0000
0000
0000
0000
0000
0000
0000
0000
0000
0000
0000
0000
0000
0000
0000
0000
0000
0000
0030
0000
0000
0000
0000
0000
0000
0000
0000
0000
0000
0000
24MM
3300
0000
0000
0000
0000
0000
0000
0000
0000
0000
0000
0000
0000
0000
0000
0000
0000
0000
0000
0000
0000
0000
0000
0000
0000
0000
0000
0000
0000
0000
0000
0000
0000
0000
0000
0000
0000
0000
0000
0000
0000
0000
0000
0000
0000
0000
0000
,
4000
0000
0000
0000
0000
0000
3000
0000
0400
0000
0000
0000
0000
0000
0300
0000
0040
0000
0000
0000
0000
0000
M030
0000
0004
0000
0000
0000
0000
0000
0000
0003
,
0400
0000
0300
0000
MM2M
0000
023M
0300
M2MM
0000
0301
0000
0102
0000
M0M0
0000
,
M0M0
0000
0000
0000
0000
0000
0000
0000
0000
0000
0000
0000
0000
0000
0000
0000
0000
0000
0000
0000
0000
0000
0000
0000
M0M0
0000
0000
0000
0000
0000
0000
0000
0000
0000
0000
0000
0000
0000
0000
0000
0000
0000
0000
0000
0000
0000
0000
0000
0003
0M0M
0000
0000
0000
0000
0000
0000
0000
0000
0000
0000
0000
0000
0000
0000
0000
0000
0000
0000
0000
0000
0000
0000
0000
0000
0000
0000
0000
0000
0000
0000
0000
0000
0000
0000
0000
0000
0000
0000
0000
0000
0000
0000
0000
0000
0000
0000
0000
0000
0000
0000
0000
0000
0000
0000
0000
0000
0000
0000
0000
0000
0000
0000
0000
0000
0000
0000
0000
0000
0000
0000
0000
0000
0000
0000
0000
0000
0000
0000
0000
0000
0000
0000
0MM0
0000
0000
0000
0000
0000
0000
0000
0000
0000
0000
0000
0000
0000
0000
0000
0000
0000
0000
0000
0000
0000
0000
0000
0000
0000
0000
0000
0000
0000
0000
0000
0000
0000
0000
0000
M00M
0000
0000
0000
0000
0000
0000
0000
0000
0000
0000
0000
0MM0
0000
0000
0000
0000
0000
0000
0000
0000
0000
0000
0000
,
0000
0000
0000
0000
0201
0000
0000
0000
0000
000M
0300
0000
2MM2
3003
0000
0000
,
0011
0000
1001
0000
0000
0101
0000
0000
0210
0000
M00M
0000
M00M
0000
M00M
0000
,
0300
0MM0
0000
0000
0000
0000
0000
0000
0000
0000
0000
0000
0000
0000
0000
0000
0000
0000
0000
0000
0000
0000
0000
0000
0000
0000
0000
0000
0000
0000
0000
0000
0000
0000
0000
0000
0000
0000
0000
0000
0000
0000
0000
0000
0000
0000
0000
0000
0000
0000
0000
0000
0000
0000
0000
0000
0000
0000
0000
0000
0000
0000
0000
0000
0000
0000
0000
0000
0000
0000
0000
0000
0000
0000
0000
0000
0000
0000
0000
0000
0000
0000
0000
0000
0MM0
0000
0000
0000
0000
0000
0000
0000
0000
0000
0000
0000
0000
0000
0000
0000
0000
0000
0000
0000
0000
0000
0000
0000
0000
0000
0000
0000
0000
0000
0000
0000
0000
0000
0000
0000
M00M
0000
0000
0000
0000
0000
0000
0000
0000
0000
0000
0000
0MM0
0000
0000
0000
0000
0000
0000
0000
0000
0000
0000
0000
0000
0000
0000
0000
0000
0000
0000
0000
0000
0000
0000
0000
0000
0000
0000
0000
0000
0000
0000
0000
0000
0000
0000
0000
0000
0000
0000
0000
0000
0000
0000
0000
0000
0000
0000
0000
0000
0000
0000
0000
0000
0000
0000
0000
0000
0000
0000
0000
,
0120
0000
0000
0000
0000
0M00
0030
0000
1010
0000
1000
0000
0001
0000
1000
0100
,
0010
0000
0100
0010
0001
0000
0100
0000
1002
0000
0000
0000
0000
0000
0000
0000
,
0003
M00M
0000
0000
0000
0000
0000
0000
0000
0000
0000
0000
0000
0000
0000
0000
0000
0000
0000
0000
0000
0000
0000
0000
0000
0000
0000
0000
0000
0000
0000
0000
0000
0000
0000
0000
0000
0000
0000
0000
0000
0000
0000
0000
0000
0000
0000
0000
0000
0000
0000
0000
0000
0000
0000
0000
0000
0000
0000
0000
0000
0000
0000
0000
0000
0000
0000
0000
0000
0000
0000
0000
0000
0000
0000
0000
0000
0000
0000
0000
0000
0000
0000
0000
0MM0
0000
0000
0000
0000
0000
0000
0000
0000
0000
0000
0000
0000
0000
0000
0000
0000
0000
0000
0000
0000
0000
0000
0000
0000
0000
0000
0000
0000
0000
0000
0000
0000
0000
0000
0000
M00M
0000
0000
0000
0000
0000
0000
0000
0000
0000
0000
0000
0MM0
0000
0000
0000
0000
0000
0000
0000
0000
0000
0000
0000
0000
0000
0000
0000
0000
0000
0000
0000
0000
0000
0000
0000
0000
0000
0000
0000
0000
0000
0000
0000
0000
0000
0000
0000
0000
0000
0000
0000
0000
0000
0000
0000
0000
0000
0000
0000
0000
0000
0000
0000
0000
0000
0000
0000
0000
0000
0000
0000
,
2001
0000
0000
0000
0000
000M
3000
0000
2M2M
3030
0000
0000
1000
0000
0000
0000
,
0100
0000
0000
0000
0000
0000
0000
0000
1000
0000
0000
0000
0000
0000
0000
0000
21MM
0000
0000
0000
0000
0000
0000
0000
00MM
0000
0000
0000
0000
0000
0000
0000
00MM
0000
0000
0000
0000
0000
0000
0000
00MM
0000
0000
0000
0000
0000
0000
0000
3000
MM00
0000
0000
0000
0000
0000
0000
0000
0000
0000
0000
0000
0000
0000
0000
,
0000
0000
0000
0MM0
0000
0000
M00M
0MM0
0000
0000
0000
0000
1200
0000
0000
0000
,
0000
0000
0300
0000
10MM
0100
0100
1000
10MM
0000
0000
0000
M00M
0000
0110
0000
,
0011
0000
0001
0010
0001
1000
0001
1000
0010
0000
0000
0000
0M0M
0000
0000
0000
,
1010
0000
1000
0010
1000
0001
0100
0001
0010
0000
0011
0000
0000
1001
0000
0000
,
1010
0000
0010
0100
0001
1000
0010
0100
0001
0000
0000
0000
00MM
0000
0000
0000
,
1100
0000
0100
0000
0010
0000
0001
1000
0100
0000
1000
0010
0100
0000
0010
0000
,
0101
0000
0100
0010
0100
0001
1000
0010
0100
0000
0000
0000
00MM
0000
0000
0000
,
1001
0000
1000
0100
0010
0001
0010
0100
1000
0000
0000
0000
1100
0000
1000
0000
,
0001
0000
1000
0010
0100
0001
0100
0010
1000
0000
0MM0
0000
0000
0000
0000
0000
,
0001
0000
0000
0000
0000
0000
0000
0000
0000
0000
0000
0000
0100
0000
0000
0000
0000
0000
0000
0000
0000
0000
0000
0000
0100
0000
0000
0000
0000
0000
0000
0000
0000
0000
0000
0000
0001
0000
0000
0000
0000
0000
0000
0000
0000
0000
0000
0000
0001
0000
0000
0000
0000
0000
0000
0000
0000
0000
0000
0000
0000
0000
0000
0000
0000
0000
0000
0000
0000
0000
0000
0000
0000
0000
0000
0000
0000
0000
0000
0000
0000
0000
0000
0000
0000
0000
0000
0000
0000
0000
0000
0000
0000
0000
0000
0000
0000
0000
0000
0000
0000
0000
0000
0000
0000
0000
0000
0000
0000
0000
0000
0000
0000
0000
0000
0000
0000
0000
0000
0000
0000
0000
0000
0000
0000
0000
0000
0000
0000
0000
0000
0000
0000
0000
0000
0000
0000
0000
0000
0000
0000
0000
0000
0000
0000
M00M
0000
0000
0000
0000
0000
0000
0000
0000
0000
0000
0000
0000
0000
0000
0000
0000
0000
0000
0000
0000
0000
0000
0000
0000
0000
0000
0000
0000
0000
0000
0000
0000
0000
0000
0000
0000
0000
0000
0000
0000
0000
0000
0000
0000
0000
0000
,
0000
0000
0000
1001
,
0MM0
0000
0000
M00M
0MM0
0000
0000
0000
,
0000
0000
0000
0000
0012
0000
2100
0003
,
0012
3000
2100
0003
0012
3000
2100
0003
,
0012
0000
3000
0000
1100
0003
0011
0000
2100
0000
0000
0000
0012
0000
3000
0000
,
2100
0003
0012
3000
1103
0011
1100
0011
,
1100
0011
1100
0011
1100
0000
0101
0000
,
1010
0000
1001
0000
1200
0000
1020
0300
,
0201
0000
0030
0000
1010
0300
0101
0000
1020
0000
0000
0000
0201
0000
0030
0000
,
1020
0000
0300
0000
0201
0000
0030
0000
1010
0300
0101
0000
1010
0000
0101
0000
,
1010
0101
1010
0101
0201
0000
2300
0000
,
3010
1000
0200
0000
0310
0001
0100
0010
,
00M0
0010
0100
0101
0002
0000
0023
0000
,
0130
1000
0020
0000
0130
0001
0010
0100
,
0020
0000
0101
0030
1010
0000
0101
0000
2000
0000
0000
0000
3020
0000
0000
0000
,
0130
0001
0020
0000
0130
1000
0010
0100
,
0M00
0100
0010
1000
1010
0000
1100
0000
,
0011
0000
0000
0000
0000
0000
0000
0000
1001
0000
0000
0000
0000
0000
0000
0000
MMM2
0003
0002
0003
4000
0000
0000
0000
0000
0000
0000
0000
0MM0
0000
3000
0000
,
0001
0000
0011
0000
0001
0200
0011
0300
,
1000
0000
1100
0000
0100
0020
0101
0030
,
0001
0000
0110
0000
1000
0020
1100
0030
,
0001
0000
0200
0000
0011
0000
1300
0000
0100
0000
0020
0000
0101
0030
0010
0000
,
0100
0000
1100
0000
0100
2000
0011
3000
,
0010
1000
0001
0000
1000
0200
1010
0300
,
0001
0101
0001
1100
,
1000
0000
0011
0000
00M4
0MM3
1000
0000
,
1100
0000
1000
0001
0010
0000
0100
1000
,
0100
0000
0010
0001
0100
0200
0011
0300
,
1100
0000
0001
0010
0100
0000
1000
1000
,
0100
0000
0010
0000
0001
0000
0001
0000
0020
0000
0101
0030
0010
0000
0000
0000
,
0110
0000
0100
2000
0011
3000
0100
0002
,
1100
0000
0003
0000
0010
0000
0100
0000
0020
0000
1100
0030
0001
0000
0000
0000
,
0101
1001
0110
1001
,
0001
0000
4M00
000M
00M0
300M
1100
0000
,
0110
0000
0000
0000
0000
0000
0000
0000
0000
0000
0000
0000
0000
0000
0000
0000
0000
0000
0000
0000
0000
0000
0000
0000
0000
0000
0000
0000
0000
0000
0000
0000
0000
0000
0000
0000
0000
0000
0000
0000
0000
0000
0000
0000
0000
0000
0000
0000
MM22
0000
0000
0000
0000
0000
0000
0000
0000
0000
0000
0000
0000
0000
0000
0000
0000
0000
0000
0000
0000
0000
0000
0000
0M33
M0MM
0000
0000
0000
0000
0000
0000
0000
0000
0000
0000
0000
0000
0000
0000
0000
0000
0000
0000
0000
0000
0000
0000
0000
0000
0000
0000
0000
0000
0000
0000
0000
0000
0000
0000
0000
0000
0000
0000
0000
0000
0000
0000
0000
0000
0000
0000
0022
0000
0000
0000
0000
0000
0000
0000
0000
0000
0000
0000
0000
0000
0000
0000
0000
0000
0000
0000
0000
0000
0000
0000
0033
0000
0000
0000
0000
0000
0000
0000
0000
0000
0000
0000
0000
0000
0000
0000
0000
0000
0000
0000
0000
0000
0000
0000
0000
0000
0000
0000
0000
0000
0000
0000
0000
0000
0000
0000
0000
0000
0000
0000
0000
0000
0000
0000
0000
0000
0000
0000
,
1001
0110
1001
M0M0
,
0101
0000
0000
0000
0000
0000
0000
0000
0000
0000
0000
0000
0000
0000
0000
0000
0000
0000
0000
0000
0000
0000
0000
0000
0000
0000
0000
0000
0000
0000
0000
0000
0000
0000
0000
0000
0000
0000
0000
0000
0000
0000
0000
0000
0000
0000
0000
0000
0110
0000
0000
0000
0000
0000
0000
0000
0000
0000
0000
0000
0000
0000
0000
0000
0000
0000
0000
0000
0000
0000
0000
0000
0000
0000
0000
0000
0000
0000
0000
0000
0000
0000
0000
0000
0000
0000
0000
0000
0000
0000
0000
0000
0000
0000
0000
0000
2M2M
0000
0000
0000
0000
0000
0000
0000
0000
0000
0000
0000
0000
0000
0000
0000
0000
0000
0000
0000
0000
0000
0000
0000
3M3M
M0M0
0000
0000
0000
0000
0000
0000
0000
0000
0000
0000
0000
0000
0000
0000
0000
0000
0000
0000
0000
0000
0000
0000
0000
0000
0000
0000
0000
0000
0000
0000
0000
0000
0000
0000
0000
0000
0000
0000
0000
0000
0000
0000
0000
0000
0000
0000
2020
0000
0000
0000
0000
0000
0000
0000
0000
0000
0000
0000
0000
0000
0000
0000
0000
0000
0000
0000
0000
0000
0000
0000
,
3030
1001
0110
1001
,
00MM
0000
0000
0000
0000
0000
0000
0000
0000
0000
0000
0000
0000
0000
0000
0000
0000
0000
0000
0000
0000
0000
0000
0000
0000
0000
0000
0000
0000
0000
0000
0000
0000
0000
0000
0000
0000
0000
0000
0000
0000
0000
0000
0000
0000
0000
0000
0000
1100
0000
0000
0000
0000
0000
0000
0000
0000
0000
0000
0000
0000
0000
0000
0000
0000
0000
0000
0000
0000
0000
0000
0000
0000
0000
0000
0000
0000
0000
0000
0000
0000
0000
0000
0000
0000
0000
0000
0000
0000
0000
0000
0000
0000
0000
0000
0000
1001
0000
0000
0000
0000
0000
0000
0000
0000
0000
0000
0000
0000
0000
0000
0000
0000
0000
0000
0000
0000
0000
0000
0000
0000
0000
0000
0000
0000
0000
0000
0000
0000
0000
0000
0000
0000
0000
0000
0000
0000
0000
0000
0000
0000
0000
0000
0000
22MM
0000
0000
0000
0000
0000
0000
0000
0000
0000
0000
0000
0000
0000
0000
0000
0000
0000
0000
0000
0000
0000
0000
0000
33MM
MM00
0000
0000
0000
0000
0000
0000
0000
0000
0000
0000
0000
0000
0000
0000
0000
0000
0000
0000
0000
0000
0000
0000
,
0000
2200
3300
0000
1001
0000
1100
0000
,
1010
MM00
0011
1001
,
MM22
0000
0000
0000
0000
0000
0000
0000
0000
0000
0000
0000
0000
0000
0000
0000
0000
0000
0000
0000
0000
0000
0000
0000
MM33
00MM
0000
0000
0000
0000
0000
0000
0000
0000
0000
0000
0000
0000
0000
0000
0000
0000
0000
0000
0000
0000
0000
0000
0000
0000
0000
0000
0000
0000
0000
0000
0000
0000
0000
0000
0000
0000
0000
0000
0000
0000
0000
0000
0000
0000
0000
0000
0022
0000
0000
0000
0000
0000
0000
0000
0000
0000
0000
0000
0000
0000
0000
0000
0000
0000
0000
0000
0000
0000
0000
0000
0033
0000
0000
0000
0000
0000
0000
0000
0000
0000
0000
0000
0000
0000
0000
0000
0000
0000
0000
0000
0000
0000
0000
0000
0000
0000
0000
0000
0000
0000
0000
0000
0000
0000
0000
0000
0000
0000
0000
0000
0000
0000
0000
0000
0000
0000
0000
0000
0004
0000
0000
0000
0000
0000
0000
0000
0000
0000
0000
0000
0000
0000
0000
0000
0000
0000
0000
0000
0000
0000
0000
0000
0000
0000
0000
0000
0000
0000
0000
0000
0000
0000
0000
0000
0000
0000
0000
0000
0000
0000
0000
0000
0000
0000
0000
0000
,
0000
0000
0003
0400
M0MM
0300
1010
0000
,
1001
0101
0011
4MM4
,
0000
0M00
00M0
0000
0000
0000
0000
0000
,
0000
3003
M4MM
031M
,
0101
0000
0001
0200
0011
0300
0100
0000
,
1010
0000
1000
0200
1010
0300
0001
0000
,
0011
0000
0000
0000
0001
0000
1000
0000
2002
0003
0MMM
3000
0010
0000
0100
0000
,
0001
0100
0010
1000
0100
0000
1001
0000
,
0001
0200
0011
0300
1000
0000
0110
0000
,
1000
0200
1010
0300
0001
0000
0011
0000
,
0001
0000
1000
0000
2002
3000
MMM0
0003
1000
0000
0100
0000
0010
0000
0001
0000
,
0100
0100
0002
0000
0000
0000
0000
0000
,
0000
0000
0000
0000
,
0000
0000
0000
0000
0000
0000
0000
0000
0000
0000
0000
0000
0000
0000
0000
0000
0000
0000
0000
0000
0000
0000
0000
0000
0000
0000
0000
0000
0000
0000
0000
0000
0000
0000
0000
0000
0000
0000
0000
0000
0000
0000
0000
0000
0000
0000
0000
0000
0000
0000
0000
0000
0000
0000
0000
0000
0000
0000
0000
0000
M000
0000
0000
0000
0000
0000
0000
0000
0000
0000
0000
0000
0M00
0000
0000
0000
0000
0000
0000
0000
0000
0000
0000
0000
00M0
0000
0000
0000
0000
0000
0000
0000
0000
0000
0000
0000
MMM3
000M
0000
0000
0000
0000
0000
0000
0000
0000
0000
0000
00M0
0000
0000
0000
0000
0000
0000
0000
0000
0000
0000
0000
0M00
0000
0000
0000
0000
0000
0000
0000
0000
0000
0000
0000
M000
0000
0000
0000
0000
0000
0000
0000
0000
0000
0000
0000
0000
0000
0000
0000
0000
0000
0000
0000
0000
0000
0000
0000
0000
0000
0000
0000
0000
0000
0000
0000
0000
0000
0000
0000
0000
0000
0000
0000
0000
0000
0000
0000
0000
0000
0000
0000
0000
0000
0000
0000
0000
0000
0000
0000
0000
0000
0000
0000
,
0000
0000
MMM4
0000
,
0000
0000
0000
0003
0000
0000
0000
0000
,
0000
0000
0000
0000
0000
0000
0000
0000
0MM0
0000
0000
M00M
0MM0
0000
0000
0000
;

//---------------dance-single - Rynker----------------
#NOTES:
     dance-single:
     Rynker:
     Hard:
     11:
     1.000,1.000,1.000,0.810,0.262,532.000,120.000,85.000,36.000,0.000:












0000
0000
000M
0000
,
0000
MM00
0000
0000
,
0000
0000
0000
0000
,
0000
0000
0000
0000
,
0000
0000
0000
0000
0000
0000
0000
M0M0
,
0000
0000
0101
0101
,
0011
1010
1100
0101
,
0011
0000
1000
1000
1000
0000
0101
0000
,
0011
0000
1010
0000
1000
0100
0001
0100
,
1000
0010
0001
0010
1000
0000
0101
0000
,
0011
1010
1100
0101
,
0011
0000
0001
0001
0001
0000
1100
0000
,
1010
0000
0011
0000
0001
0010
1000
0010
,
0001
0100
1000
0100
0002
0000
2003
0000
,
3010
1000
0002
0000
0013
0001
1000
0010
,
0000
0010
0100
0001
0002
0000
0023
0000
,
0130
1000
0002
0000
0103
0001
1000
0100
,
0010
0010
0001
0001
2001
0000
3020
0000
,
0130
0001
2000
0000
3100
0010
0001
0010
,
0000
0010
0100
1000
1000
0000
1001
0000
,
0110
1001
2002
0000
,
0000
0000
0000
0000
,
0000
00M0
0000
0000
0000
0M00
0000
0000
0000
3003
0000
0000
0012
0000
0003
0000
,
0010
0100
0000
0000
0210
0000
0300
0000
0100
1000
0000
0000
2100
0000
3000
0000
,
0100
0010
0000
0000
2001
0000
3000
0000
0001
0100
0000
0000
2001
0000
3000
0000
,
0010
1000
0000
0000
1020
0000
0000
0030
1000
0001
0000
0000
0011
0000
0000
0000
,
00M2
0003
1000
0000
20M0
3000
0100
0000
0012
0000
0003
0000
0010
0001
0000
0000
,
0201
0000
0300
0000
0010
1000
0000
0000
1200
0000
0300
0000
0010
0001
0000
0000
,
2001
0000
3000
0000
0010
0100
0000
0000
0102
0000
0003
0000
0001
0010
0000
0000
,
0120
0000
0030
0000
0100
1000
0000
0000
0001
0000
0000
0000
M002
0003
0100
0000
,
M20M
0300
0010
0000
1000
0000
1000
0000
0000
0000
0200
0000
1300
0000
1000
0000
,
0000
0001
0100
0100
0000
0100
0002
0003
,
1001
0001
2000
3100
0000
0100
0020
0031
,
0000
0001
0020
0000
023M
1300
1000
001M
,
0100
0001
0000
0001
0011
0100
2000
3000
,
1001
0001
0000
0100
0120
0030
1000
0100
,
0120
0030
0001
1000
2010
3001
0001
1000
,
0200
0300
0020
0031
1M00
0010
0202
0000
,
0000
0000
0000
0000
0000
0000
0000
0000
0000
0000
0000
0000
0000
0000
0000
0000
0000
0000
0000
0000
0000
0000
0000
0000
0000
0000
0000
0000
0000
0000
0000
0000
0000
0000
0000
0000
0303
0000
0000
0000
0000
0000
0000
0000
0000
0000
0000
0000
0000
0M0M
0000
0000
0000
0000
0000
0000
0000
0000
0000
0000
0000
0000
0000
0000
0000
0000
0000
0000
0000
0000
0000
0000
0000
0000
0000
0000
0000
0000
0000
0000
0000
0000
0000
0000
0000
0000
0000
0000
0000
0000
0000
0000
0000
0000
0000
0000
0000
0000
0000
0000
0000
0000
0000
0000
0000
0000
0000
0000
0000
0000
0000
0000
0000
0000
0000
0000
0000
0000
0000
0000
0000
0000
0000
0000
0000
0000
0000
0000
0000
0000
0000
0000
0000
0000
0000
0000
0000
0000
0000
0000
0000
0000
0000
0000
0000
0000
0000
0000
0000
0000
0000
0000
0000
0000
0000
0000
0000
0000
0000
0000
0000
0000
0000
0000
0000
0000
0000
0000
0000
0000
0000
0000
0000
0000
0000
0000
0000
0000
0000
0000
0000
0000
0000
0000
0000
0000
0000
0000
0000
0000
0000
0000
,
0000
0000
0201
0000
0000
0300
1002
0003
,
0001
0000
0000
0000
0000
0000
0100
0000
0000
0000
0000
0000
0000
0000
0000
0101
0000
0000
0000
0000
0000
0000
0000
0000
0220
0000
0000
0000
0000
0000
0000
0000
0000
0000
0000
0000
0000
0000
0000
0000
0000
0000
0000
0000
0000
0000
0000
0030
,
0300
0MM0
0000
0000
0000
0000
0000
0000
0000
0000
0000
0000
0000
0000
0000
0000
0000
0000
0000
0000
0000
0000
0000
0000
0000
0000
0000
0000
0000
0000
0000
0000
0000
0000
0000
0000
0000
0000
0000
0000
0000
0000
0000
0000
0000
0000
0000
0000
0000
0000
0000
0000
0000
0000
0000
0000
0000
0000
0000
0000
0000
0000
0000
0000
0000
0000
0000
0000
0000
0000
0000
0000
0000
0000
0000
0000
0000
0000
0000
0000
0000
0000
0000
0000
0000
0000
0000
0000
0000
0000
0000
0000
0000
0000
0000
0000
0000
0000
0000
0000
0000
0000
0000
0000
0000
0000
0000
0000
0000
0000
0000
0000
0000
0000
0000
0000
0000
0000
0000
0000
0000
0000
0000
0000
0000
0000
0000
0000
0000
0000
0000
0000
0000
0000
0000
0000
0000
0000
0000
0000
0000
0000
0000
0000
0000
0000
0000
0000
0000
0000
0000
0000
0000
0000
0000
0000
0000
0000
0000
0000
0000
0000
0000
0000
0000
0000
0000
0000
0000
0000
0000
0000
0000
0000
0000
0000
0000
0000
0000
0000
0000
0000
0000
0000
0000
0000
0000
0000
0000
0000
0000
0000
,
0120
0000
0000
0000
0000
0000
0030
0000
1000
0000
1000
0000
0100
0000
0010
0001
,
1000
0000
0000
0000
0001
0000
0100
0000
0010
0000
0000
0000
0100
0000
0000
0000
2002
0000
0000
0000
0000
0000
0000
0000
0000
0000
0000
0000
0000
0000
0000
3000
,
0003
M00M
0000
0000
0000
0000
0000
0000
0000
0000
0000
0000
0000
0000
0000
0000
0000
0000
0000
0000
0000
0000
0000
0000
0000
0000
0000
0000
0000
0000
0000
0000
0000
0000
0000
0000
0000
0000
0000
0000
0000
0000
0000
0000
0000
0000
0000
0000
0000
0000
0000
0000
0000
0000
0000
0000
0000
0000
0000
0000
0000
0000
0000
0000
0000
0000
0000
0000
0000
0000
0000
0000
0000
0000
0000
0000
0000
0000
0000
0000
0000
0000
0000
0000
0000
0000
0000
0000
0000
0000
0000
0000
0000
0000
0000
0000
0000
0000
0000
0000
0000
0000
0000
0000
0000
0000
0000
0000
0000
0000
0000
0000
0000
0000
0000
0000
0000
0000
0000
0000
0000
0000
0000
0000
0000
0000
0000
0000
0000
0000
0000
0000
0000
0000
0000
0000
0000
0000
0000
0000
0000
0000
0000
0000
0000
0000
0000
0000
0000
0000
0000
0000
0000
0000
0000
0000
0000
0000
0000
0000
0000
0000
0000
0000
0000
0000
0000
0000
0000
0000
0000
0000
0000
0000
0000
0000
0000
0000
0000
0000
0000
0000
0000
0000
0000
0000
0000
0000
0000
0000
0000
0000
,
2001
0000
0000
0000
0000
0000
0000
0000
0000
3000
0000
0000
0002
0000
0003
0000
0000
0000
2000
0000
3000
0000
0000
0000
,
0100
0000
0000
0000
0000
0000
0000
0000
0000
0000
0000
0000
0000
0000
0000
0000
0000
0000
0000
0000
0000
0000
0000
0000
1000
0000
0000
0000
0000
0000
0000
0000
0000
0000
0000
0000
0000
0000
0000
0000
0000
0000
0000
0000
0000
0000
0000
0000
0022
0000
0000
0000
0000
0000
0000
0000
0000
0000
0000
0000
0000
0000
0000
0000
0000
0000
0000
0000
0000
0000
0000
0000
0000
0000
0000
0000
0000
0000
0000
0000
0000
0000
0000
0000
0000
0000
0000
0000
0000
0000
0000
0000
0000
0000
0000
0000
0000
0000
0000
0000
0000
0000
0000
0000
0000
0000
0000
0000
0000
0000
0000
0000
0000
0000
0000
0000
0000
0000
0000
0000
0000
0000
0000
0000
0000
0000
0000
0000
0000
0000
0000
0000
0000
0000
0000
0000
0000
0000
0000
0000
0000
0000
0000
0000
0000
0033
0000
00MM
0000
0000
0000
0000
0000
0000
0000
0000
0000
0000
0000
0000
0000
0000
0000
0000
0000
0000
0000
0000
0000
0000
0000
0000
0000
0000
0000
0000
0000
0000
0000
0000
0000
0000
0000
0000
0000
0000
0000
0000
0000
0000
0000
0000
,
0000
0000
0000
0012
,
0000
0003
0000
0000
0000
0000
0000
0000
0010
0000
0100
0000
0100
0000
0010
0000
0010
0000
0000
0000
0000
0000
0000
0000
0000
0000
0000
0000
0010
0000
0000
0000
,
0011
0000
0001
1000
0001
0100
0001
0100
0010
0000
0000
0000
0000
0000
0000
0000
,
1010
0000
1000
0010
0100
0001
0100
0001
1000
0000
1100
0000
0000
1100
0000
0000
,
1100
0000
0100
0010
0001
0010
0001
1000
0010
0000
0000
0000
0000
0000
0000
0000
,
1010
0000
0010
0000
1000
0000
0100
0010
0001
0000
0010
0100
1000
0000
0001
0000
,
0101
0000
0100
0010
0100
0001
0100
0001
1000
0000
0000
0000
0000
0000
0000
0000
,
1100
0000
0100
0010
0001
0010
0001
1000
0001
0000
0000
0000
0101
0000
0100
0000
,
0001
0000
0100
0001
1000
0001
1000
0100
1000
0000
0000
0000
0000
0000
0000
0000
,
0001
0000
0000
0000
0000
0000
0000
0000
0000
0000
0000
0000
1000
0000
0000
0000
0000
0000
0000
0000
0000
0000
0000
0000
1000
0000
0000
0000
0000
0000
0000
0000
0000
0000
0000
0000
2000
0000
0000
0000
0000
0000
0000
0000
0000
0000
0000
0000
0002
0000
0000
0000
0000
0000
0000
0000
0000
0000
0000
0000
0000
0000
0000
0000
0000
0000
0000
0000
0000
0000
0000
0000
0000
0000
0000
0000
0000
0000
0000
0000
0000
0000
0000
0000
0000
0000
0000
0000
0000
0000
0000
0000
0000
0000
0000
0000
0000
0000
0000
0000
0000
0000
0000
0000
0000
0000
0000
0000
0000
0000
0000
0000
0000
0000
0000
0000
0000
0000
0000
0000
0000
0000
0000
0000
0000
0000
0000
0000
0000
0000
0000
0000
0000
0000
0000
0000
0000
0000
0000
0000
0000
0000
0000
0000
3003
M00M
0000
0000
0000
0000
0000
0000
0000
0000
0000
0000
0000
0000
0000
0000
0000
0000
0000
0000
0000
0000
0000
0000
0000
0000
0000
0000
0000
0000
0000
0000
0000
0000
0000
0000
0000
0000
0000
0000
0000
0000
0000
0000
0000
0000
0000
0000
,
0000
0000
0000
1001
,
0000
0000
0000
0000
,
0000
0000
1010
1010
,
1100
0101
0011
1010
,
1100
0000
0001
0001
0001
0000
1010
0000
,
1100
0000
0101
0000
0001
0010
1000
0010
,
0001
0100
1000
0100
0001
0000
1010
0000
,
1100
0101
0011
1010
,
1100
0000
1000
1000
1000
0000
0011
0000
,
0101
0000
1100
0000
1000
0100
0001
0100
,
1000
0010
0001
0010
2000
0000
3002
0000
,
0103
0001
2000
0000
3100
1000
0001
0100
,
0000
0100
0010
1000
2000
0000
3200
0000
,
0310
0001
2000
0000
3010
1000
0001
0010
,
0100
0100
1000
1000
1002
0000
0203
0000
,
0310
1000
0002
0000
0013
0100
1000
0100
,
0000
0100
0010
0001
0001
0000
1001
0000
,
0110
0000
0000
0000
1001
0000
0000
0000
0001
0001
0100
0020
0000
0000
0000
0030
,
0010
0000
1010
0000
1000
0100
0000
0010
,
0001
0100
0000
0010
0100
0010
1000
0100
,
0110
0000
0010
0000
0001
0100
0000
0100
,
0010
1000
0100
0010
0001
1000
0001
1000
,
1001
0000
1001
0000
0001
1000
0000
0100
,
0010
0001
0000
0001
1000
0100
1000
0010
,
1010
0101
0001
1100
,
1000
0000
0000
0000
0011
0000
0000
0000
0002
0000
0M00
0003
0010
0000
0000
0000
,
1100
0000
1000
0001
0000
0010
0001
0010
,
0000
0100
1000
0100
0010
0001
0010
0000
,
0011
0000
1000
0001
0000
0100
0010
1000
,
0001
1000
0100
0010
0001
0010
0011
0000
,
0011
0000
0100
1000
0000
0100
1000
0001
,
0000
0100
0010
0100
0001
1000
1100
0000
,
0110
0011
0101
1001
,
0001
0000
2000
0000
0000
3000
1100
0000
,
0110
0000
0000
0000
0000
0000
0000
0000
0000
0000
0000
0000
0000
0000
0000
0000
0000
0000
0000
0000
0000
0000
0000
0000
0000
0000
0000
0000
0000
0000
0000
0000
0000
0000
0000
0000
0000
0000
0000
0000
0000
0000
0000
0000
0000
0000
0000
0000
0022
0000
0000
0000
0000
0000
0000
0000
0000
0000
0000
0000
0000
0000
0000
0000
0000
0000
0000
0000
0000
0000
0000
0000
0033
00MM
0000
0000
0000
0000
0000
0000
0000
0000
0000
0000
0000
0000
0000
0000
0000
0000
0000
0000
0000
0000
0000
0000
0000
0000
0000
0000
0000
0000
0000
0000
0000
0000
0000
0000
0000
0000
0000
0000
0000
0000
0000
0000
0000
0000
0000
0000
0022
0000
0000
0000
0000
0000
0000
0000
0000
0000
0000
0000
0000
0000
0000
0000
0000
0000
0000
0000
0000
0000
0000
0000
0033
0000
0000
0000
0000
0000
0000
0000
0000
0000
0000
0000
0000
0000
0000
0000
0000
0000
0000
0000
0000
0000
0000
0000
0000
0000
0000
0000
0000
0000
0000
0000
0000
0000
0000
0000
0000
0000
0000
0000
0000
0000
0000
0000
0000
0000
0000
0000
,
0001
1000
1001
0000
,
0001
0000
0000
0000
0000
0000
0000
0000
0000
0000
0000
0000
0000
0000
0000
0000
0000
0000
0000
0000
0000
0000
0000
0000
0000
0000
0000
0000
0000
0000
0000
0000
0000
0000
0000
0000
0000
0000
0000
0000
0000
0000
0000
0000
0000
0000
0000
0000
0001
0000
0000
0000
0000
0000
0000
0000
0000
0000
0000
0000
0000
0000
0000
0000
0000
0000
0000
0000
0000
0000
0000
0000
0000
0000
0000
0000
0000
0000
0000
0000
0000
0000
0000
0000
0000
0000
0000
0000
0000
0000
0000
0000
0000
0000
0000
0000
2000
0000
0000
0000
0000
0000
0000
0000
0000
0000
0000
0000
0000
0000
0000
0000
0000
0000
0000
0000
0000
0000
0000
0000
3000
M000
0000
0000
0000
0000
0000
0000
0000
0000
0000
0000
0000
0000
0000
0000
0000
0000
0000
0000
0000
0000
0000
0000
0000
0000
0000
0000
0000
0000
0000
0000
0000
0000
0000
0000
0000
0000
0000
0000
0000
0000
0000
0000
0000
0000
0000
0000
2000
0000
0000
0000
0000
0000
0000
0000
0000
0000
0000
0000
0000
0000
0000
0000
0000
0000
0000
0000
0000
0000
0000
0000
,
3000
1000
0100
0011
,
0000
0000
0000
0000
0000
0000
0000
0000
0000
0000
0000
0000
0000
0000
0000
0000
0000
0000
0000
0000
0000
0000
0000
0000
0000
0000
0000
0000
0000
0000
0000
0000
0000
0000
0000
0000
0000
0000
0000
0000
0000
0000
0000
0000
0000
0000
0000
0000
0010
0000
0000
0000
0000
0000
0000
0000
0000
0000
0000
0000
0000
0000
0000
0000
0000
0000
0000
0000
0000
0000
0000
0000
0000
0000
0000
0000
0000
0000
0000
0000
0000
0000
0000
0000
0000
0000
0000
0000
0000
0000
0000
0000
0000
0000
0000
0000
0110
0000
0000
0000
0000
0000
0000
0000
0000
0000
0000
0000
0000
0000
0000
0000
0000
0000
0000
0000
0000
0000
0000
0000
0000
0000
0000
0000
0000
0000
0000
0000
0000
0000
0000
0000
0000
0000
0000
0000
0000
0000
0000
0000
0000
0000
0000
0000
0200
0000
0000
0000
0000
0000
0000
0000
0000
0000
0000
0000
0000
0000
0000
0000
0000
0000
0000
0000
0000
0000
0000
0000
0300
0M00
0000
0000
0000
0000
0000
0000
0000
0000
0000
0000
0000
0000
0000
0000
0000
0000
0000
0000
0000
0000
0000
0000
,
0000
0200
0300
0000
1000
0000
0100
0000
,
0110
0000
0011
1001
,
0002
0000
0000
0000
0000
0000
0000
0000
0000
0000
0000
0000
0000
0000
0000
0000
0000
0000
0000
0000
0000
0000
0000
0000
0003
000M
0000
0000
0000
0000
0000
0000
0000
0000
0000
0000
0000
0000
0000
0000
0000
0000
0000
0000
0000
0000
0000
0000
0000
0000
0000
0000
0000
0000
0000
0000
0000
0000
0000
0000
0000
0000
0000
0000
0000
0000
0000
0000
0000
0000
0000
0000
0002
0000
0000
0000
0000
0000
0000
0000
0000
0000
0000
0000
0000
0000
0000
0000
0000
0000
0000
0000
0000
0000
0000
0000
0003
0000
0000
0000
0000
0000
0000
0000
0000
0000
0000
0000
0000
0000
0000
0000
0000
0000
0000
0000
0000
0000
0000
0000
0000
0000
0000
0000
0000
0000
0000
0000
0000
0000
0000
0000
0000
0000
0000
0000
0000
0000
0000
0000
0000
0000
0000
0000
0001
0000
0000
0000
0000
0000
0000
0000
0000
0000
0000
0000
0000
0000
0000
0000
0000
0000
0000
0000
0000
0000
0000
0000
1000
0000
0000
0000
0000
0000
0000
0000
0000
0000
0000
0000
0000
0000
0000
0000
0000
0000
0000
0000
0000
0000
0000
0000
,
0001
1000
0001
0200
0000
0300
0001
0000
,
1000
0101
0001
2MM2
,
0000
0M00
00M0
0000
0000
0000
0000
0000
,
0000
3003
2000
3100
,
0011
0000
0001
0001
1000
0000
0001
0000
,
0100
0000
0001
0001
0100
0000
0001
0000
,
0011
0000
0010
0010
0200
0300
1000
0010
,
0100
0100
0001
1000
0100
0000
1001
0000
,
1000
1000
0100
0000
0100
0000
0011
0000
,
0001
0001
0100
0000
0100
0000
0110
0000
,
1000
1000
0200
0300
0010
0001
1000
0001
,
0100
0001
0002
0000
0000
0000
0000
0000
,
0000
0000
0000
0000
,
0000
0000
0000
0000
0000
0000
0000
0000
0000
0000
0000
0000
0000
0000
0000
0000
0000
0000
0000
0000
0000
0000
0000
0000
0000
0000
0000
0000
0000
0000
0000
0000
0000
0000
0000
0000
0000
0000
0000
0000
0000
0000
0000
0000
0000
0000
0000
0000
0000
0000
0000
0000
0000
0000
0000
0000
0000
0000
0000
0000
0000
0000
0000
0000
0000
0000
0000
0000
0000
0000
0000
0000
0000
0000
0000
0000
0000
0000
0000
0000
0000
0000
0000
0000
0000
0000
0000
0000
0000
0000
0000
0000
0000
0000
0000
0000
0003
000M
0000
0000
0000
0000
0000
0000
0000
0000
0000
0000
0000
0000
0000
0000
0000
0000
0000
0000
0000
0000
0000
0000
0000
0000
0000
0000
0000
0000
0000
0000
0000
0000
0000
0000
0000
0000
0000
0000
0000
0000
0000
0000
0000
0000
0000
0000
0000
0000
0000
0000
0000
0000
0000
0000
0000
0000
0000
0000
0000
0000
0000
0000
0000
0000
0000
0000
0000
0000
0000
0000
0000
0000
0000
0000
0000
0000
0000
0000
0000
0000
0000
0000
0000
0000
0000
0000
0000
0000
0000
0000
0000
0000
0000
0000
,
0000
0000
0004
0000
,
0000
0000
0000
0000
0003
0000
0000
0000
0000
0000
0000
0000
;

//---------------dance-single - Rynker----------------
#NOTES:
     dance-single:
     Rynker:
     Medium:
     8:
     0.713,0.980,0.248,0.495,0.138,445.000,26.000,52.000,21.000,0.000:








0000
0000
0000
0000
,
0000
0000
0000
0000
,
0000
0000
0000
0000
,
0000
0000
0000
0000
,
0000
0000
0000
0000
,
0000
0000
0001
0001
,
1000
0100
0010
0001
,
0010
0000
0100
1000
0100
0000
1000
0000
,
0001
0000
0100
0000
0001
0100
0010
1000
,
0010
1000
0010
1000
0010
0000
1000
0000
,
0001
0001
0010
0100
,
0010
0000
0100
0010
0100
0000
1000
0000
,
1001
0000
0001
0000
0100
0010
0100
0001
,
0100
0001
1000
0100
0200
0000
0320
0000
,
0031
0100
0020
0000
0130
0001
1000
0100
,
0000
0100
0010
0001
0020
0000
0031
0000
,
0001
1000
0010
0000
0100
0001
1000
0100
,
0010
0001
0010
0001
2000
0000
3020
0000
,
0130
0001
2000
0000
3100
0010
0001
0010
,
0000
0010
0100
1000
1000
0000
1001
0000
,
0110
1001
2002
0000
,
0000
0000
0000
0000
,
0000
00M0
0000
0000
0000
0M00
0000
0000
0000
3003
0000
0000
0002
0000
0003
0000
,
0010
0100
0000
0000
0200
0000
0300
0000
0100
1000
0000
0000
2000
0000
3000
0000
,
0010
0001
0000
0000
2000
0000
3000
0000
0001
0100
0000
0000
0020
0000
0030
0000
,
0010
1000
0000
0000
0020
0000
0000
0030
1000
0001
0000
0000
0011
0000
0000
0000
,
00M2
0003
1000
0000
20M0
3000
0100
0000
0010
0000
0000
0000
0010
0001
0000
0000
,
0200
0000
0300
0000
0010
1000
0000
0000
0200
0000
0300
0000
0010
0001
0000
0000
,
2000
0000
3000
0000
0010
0100
0000
0000
0002
0000
0003
0000
0001
0010
0000
0000
,
0020
0000
0030
0000
0100
1000
0000
0000
0001
0000
0000
0000
M002
0003
0100
0000
,
M20M
0300
0010
0000
1000
0000
1000
0000
0000
0000
0100
0000
1000
0000
0100
0000
,
0000
0010
0001
0010
0000
0000
0002
0003
,
1001
1000
0100
0010
,
0001
0000
0010
0000
010M
1000
1000
001M
,
0100
0000
0001
1000
,
1100
0000
0010
0000
0110
0000
0001
0100
,
0001
0000
0001
0000
2000
3000
0100
0000
,
0020
0030
0010
0000
0M00
0000
0002
0000
,
0000
0000
0000
0000
0000
0000
0000
0000
0000
0000
0000
0000
0000
0000
0000
0000
0000
0000
0000
0000
0000
0000
0000
0000
0000
0000
0000
0000
0000
0000
0000
0000
0000
0000
0000
0000
0003
0000
0000
0000
0000
0000
0000
0000
0000
0000
0000
0000
0000
000M
0000
0000
0000
0000
0000
0000
0000
0000
0000
0000
0000
0000
0000
0000
0000
0000
0000
0000
0000
0000
0000
0000
0000
0000
0000
0000
0000
0000
0000
0000
0000
0000
0000
0000
0000
0000
0000
0000
0000
0000
0000
0000
0000
0000
0000
0000
0000
0000
0000
0000
0000
0000
0000
0000
0000
0000
0000
0000
0000
0000
0000
0000
0000
0000
0000
0000
0000
0000
0000
0000
0000
0000
0000
0000
0000
0000
0000
0000
0000
0000
0000
0000
0000
0000
0000
0000
0000
0000
0000
0000
0000
0000
0000
0000
0000
0000
0000
0000
0000
0000
0000
0000
0000
0000
0000
0000
0000
0000
0000
0000
0000
0000
0000
0000
0000
0000
0000
0000
0000
0000
0000
0000
0000
0000
0000
0000
0000
0000
0000
0000
0000
0000
0000
0000
0000
0000
0000
0000
0000
0000
0000
0000
,
0000
0001
0000
1000
,
0100
0000
0010
0000
0000
0001
0000
0000
0020
0000
0000
0000
0000
0000
0000
0000
,
0030
00M0
0000
0000
0000
0000
0000
0000
0000
0000
0000
0000
0000
0000
0000
0000
0000
0000
0000
0000
0000
0000
0000
0000
0000
0000
0000
0000
0000
0000
0000
0000
0000
0000
0000
0000
0000
0000
0000
0000
0000
0000
0000
0000
0000
0000
0000
0000
0000
0000
0000
0000
0000
0000
0000
0000
0000
0000
0000
0000
0000
0000
0000
0000
0000
0000
0000
0000
0000
0000
0000
0000
0000
0000
0000
0000
0000
0000
0000
0000
0000
0000
0000
0000
0000
0000
0000
0000
0000
0000
0000
0000
0000
0000
0000
0000
0000
0000
0000
0000
0000
0000
0000
0000
0000
0000
0000
0000
0000
0000
0000
0000
0000
0000
0000
0000
0000
0000
0000
0000
0000
0000
0000
0000
0000
0000
0000
0000
0000
0000
0000
0000
0000
0000
0000
0000
0000
0000
0000
0000
0000
0000
0000
0000
0000
0000
0000
0000
0000
0000
0000
0000
0000
0000
0000
0000
0000
0000
0000
0000
0000
0000
0000
0000
0000
0000
0000
0000
0000
0000
0000
0000
0000
0000
0000
0000
0000
0000
0000
0000
0000
0000
0000
0000
0000
0000
0000
0000
0000
0000
0000
0000
,
0020
0000
0000
0030
0001
1000
0001
1000
,
1000
0000
0100
0010
0002
0000
0000
0000
,
0003
000M
0000
0000
0000
0000
0000
0000
0000
0000
0000
0000
0000
0000
0000
0000
0000
0000
0000
0000
0000
0000
0000
0000
0000
0000
0000
0000
0000
0000
0000
0000
0000
0000
0000
0000
0000
0000
0000
0000
0000
0000
0000
0000
0000
0000
0000
0000
0000
0000
0000
0000
0000
0000
0000
0000
0000
0000
0000
0000
0000
0000
0000
0000
0000
0000
0000
0000
0000
0000
0000
0000
0000
0000
0000
0000
0000
0000
0000
0000
0000
0000
0000
0000
0000
0000
0000
0000
0000
0000
0000
0000
0000
0000
0000
0000
0000
0000
0000
0000
0000
0000
0000
0000
0000
0000
0000
0000
0000
0000
0000
0000
0000
0000
0000
0000
0000
0000
0000
0000
0000
0000
0000
0000
0000
0000
0000
0000
0000
0000
0000
0000
0000
0000
0000
0000
0000
0000
0000
0000
0000
0000
0000
0000
0000
0000
0000
0000
0000
0000
0000
0000
0000
0000
0000
0000
0000
0000
0000
0000
0000
0000
0000
0000
0000
0000
0000
0000
0000
0000
0000
0000
0000
0000
0000
0000
0000
0000
0000
0000
0000
0000
0000
0000
0000
0000
0000
0000
0000
0000
0000
0000
,
0001
0000
0000
0000
0000
0000
0002
0003
0000
2000
3000
0000
,
0100
0000
0000
0000
0000
0000
0000
0000
0000
0000
0000
0000
0000
0000
0000
0000
0000
0000
0000
0000
0000
0000
0000
0000
0000
0000
0000
0000
0000
0000
0000
0000
0000
0000
0000
0000
0000
0000
0000
0000
0000
0000
0000
0000
0000
0000
0000
0000
0002
0000
0000
0000
0000
0000
0000
0000
0000
0000
0000
0000
0000
0000
0000
0000
0000
0000
0000
0000
0000
0000
0000
0000
0000
0000
0000
0000
0000
0000
0000
0000
0000
0000
0000
0000
0000
0000
0000
0000
0000
0000
0000
0000
0000
0000
0000
0000
0000
0000
0000
0000
0000
0000
0000
0000
0000
0000
0000
0000
0000
0000
0000
0000
0000
0000
0000
0000
0000
0000
0000
0000
0000
0000
0000
0000
0000
0000
0000
0000
0000
0000
0000
0000
0000
0000
0000
0000
0000
0000
0000
0000
0000
0000
0000
0000
0000
0003
0000
000M
0000
0000
0000
0000
0000
0000
0000
0000
0000
0000
0000
0000
0000
0000
0000
0000
0000
0000
0000
0000
0000
0000
0000
0000
0000
0000
0000
0000
0000
0000
0000
0000
0000
0000
0000
0000
0000
0000
0000
0000
0000
0000
0000
0000
,
0000
0000
0000
0002
,
0000
0003
0000
0000
0000
0000
0000
0000
0001
0000
1000
0000
0001
0000
1000
0000
0001
0000
0000
0000
0000
0000
0000
0000
0000
0000
0000
0000
0010
0000
0000
0000
,
0010
0001
0100
0010
1000
0000
0000
0000
,
0010
0000
1000
0000
0010
0000
0100
0000
0001
0000
0001
0000
0000
0100
0000
0000
,
0010
0100
0010
1000
0001
0000
0000
0000
,
0001
0010
0100
1000
0100
0010
0001
0100
,
0001
1000
0100
0010
0001
0000
0000
0000
,
0001
0100
0010
1000
0010
0000
0100
0001
,
1000
0100
0010
0001
0010
0000
0000
0000
,
0001
0000
0000
0000
0000
0000
0000
0000
0000
0000
0000
0000
1000
0000
0000
0000
0000
0000
0000
0000
0000
0000
0000
0000
0001
0000
0000
0000
0000
0000
0000
0000
0000
0000
0000
0000
1000
0000
0000
0000
0000
0000
0000
0000
0000
0000
0000
0000
0002
0000
0000
0000
0000
0000
0000
0000
0000
0000
0000
0000
0000
0000
0000
0000
0000
0000
0000
0000
0000
0000
0000
0000
0000
0000
0000
0000
0000
0000
0000
0000
0000
0000
0000
0000
0000
0000
0000
0000
0000
0000
0000
0000
0000
0000
0000
0000
0000
0000
0000
0000
0000
0000
0000
0000
0000
0000
0000
0000
0000
0000
0000
0000
0000
0000
0000
0000
0000
0000
0000
0000
0000
0000
0000
0000
0000
0000
0000
0000
0000
0000
0000
0000
0000
0000
0000
0000
0000
0000
0000
0000
0000
0000
0000
0000
0003
000M
0000
0000
0000
0000
0000
0000
0000
0000
0000
0000
0000
0000
0000
0000
0000
0000
0000
0000
0000
0000
0000
0000
0000
0000
0000
0000
0000
0000
0000
0000
0000
0000
0000
0000
0000
0000
0000
0000
0000
0000
0000
0000
0000
0000
0000
0000
,
0000
0000
0000
0001
,
0000
0000
0000
0000
,
0000
0000
0001
0001
,
1000
0100
0010
0001
,
1001
0000
0100
0001
0100
0000
0001
0000
,
1000
0000
1100
0000
0100
0010
0001
0010
,
0001
1000
0001
1000
0010
0000
0010
0000
,
1000
0100
0010
0001
,
1000
0000
1000
0010
0100
0000
0100
0000
,
0101
0000
0001
0000
0010
0100
1000
0100
,
0010
0001
0010
0001
2000
0000
3002
0000
,
0103
0001
2000
0000
3100
1000
0001
0100
,
0000
0100
0010
1000
2000
0000
3200
0000
,
0310
0001
2000
0000
3010
1000
0001
0010
,
0100
1100
1002
0203
,
0310
0000
1000
0000
0100
0010
0001
0000
,
0011
0001
1000
0010
,
0100
0000
0000
0000
0001
0000
0000
0000
0001
0100
0001
0200
0000
0000
0000
0300
,
0010
0000
1010
0000
1000
0100
0000
0010
,
0001
0010
0001
1000
,
1001
0000
0001
0000
0100
0010
0000
0010
,
1000
0100
0010
1001
,
0001
0000
1000
0000
1000
0100
0000
0010
,
0001
0010
0000
0001
0100
0010
0100
0000
,
1000
0001
0001
1000
,
1000
0000
0000
0000
0001
0000
0000
0000
0002
0000
0M00
0003
0010
0000
0000
0000
,
1100
0000
1000
0001
0000
0010
0001
0000
,
0010
0100
1000
1001
,
0001
0000
0100
0001
0000
0100
0010
0000
,
0010
1000
0100
0010
,
0010
0000
0001
0100
0000
0100
0001
0000
,
1100
0100
0010
0001
,
1000
0001
0100
0010
,
0000
0000
2000
0000
0000
3000
1000
0000
,
0100
0000
0000
0000
,
0000
1000
1001
0000
,
0001
0001
0000
0000
,
0000
0000
0100
0011
,
0000
0000
0000
0000
,
0000
0000
0000
0100
,
0100
0000
0001
0001
,
0001
0000
0000
0000
,
1000
0001
0000
0001
,
1000
0101
0001
2MM2
,
0000
0M00
00M0
0000
0000
0000
0000
0000
,
0000
3003
2000
3100
,
0011
0000
0001
0001
1000
0000
0001
0000
,
0100
0000
0001
0001
0100
0000
0001
0000
,
0010
0010
0000
0100
,
1000
0001
0100
0010
,
1000
0100
0000
0010
,
0001
1000
0001
0100
,
0010
1000
0200
0300
0010
0001
1000
0000
,
0001
0100
0002
0000
0000
0000
0000
0000
,
0000
0000
0000
0000
,
0000
0000
0000
0000
0000
0000
0000
0000
0000
0000
0000
0000
0000
0000
0000
0000
0000
0000
0000
0000
0000
0000
0000
0000
0000
0000
0000
0000
0000
0000
0000
0000
0000
0000
0000
0000
0000
0000
0000
0000
0000
0000
0000
0000
0000
0000
0000
0000
0000
0000
0000
0000
0000
0000
0000
0000
0000
0000
0000
0000
0000
0000
0000
0000
0000
0000
0000
0000
0000
0000
0000
0000
0000
0000
0000
0000
0000
0000
0000
0000
0000
0000
0000
0000
0000
0000
0000
0000
0000
0000
0000
0000
0000
0000
0000
0000
0003
000M
0000
0000
0000
0000
0000
0000
0000
0000
0000
0000
0000
0000
0000
0000
0000
0000
0000
0000
0000
0000
0000
0000
0000
0000
0000
0000
0000
0000
0000
0000
0000
0000
0000
0000
0000
0000
0000
0000
0000
0000
0000
0000
0000
0000
0000
0000
0000
0000
0000
0000
0000
0000
0000
0000
0000
0000
0000
0000
0000
0000
0000
0000
0000
0000
0000
0000
0000
0000
0000
0000
0000
0000
0000
0000
0000
0000
0000
0000
0000
0000
0000
0000
0000
0000
0000
0000
0000
0000
0000
0000
0000
0000
0000
0000
,
0000
0000
0004
0000
,
0000
0000
0000
0000
0003
0000
0000
0000
0000
0000
0000
0000
;

//---------------dance-single - Rynker----------------
#NOTES:
     dance-single:
     Rynker:
     Easy:
     4:
     0.219,0.420,0.038,0.038,0.010,153.000,4.000,4.000,2.000,0.000:







0000
0000
0000
0000
,
0000
0000
0000
0000
,
0000
0000
0000
0000
,
0000
0000
0000
0000
,
0000
0000
0000
0000
,
0000
0000
0001
0000
,
1000
0000
0100
0000
,
0010
0000
0001
0000
,
0001
0000
0001
1000
,
0001
1000
0001
1000
,
0001
0000
0010
0100
,
0010
0100
0000
1000
,
0001
0001
0000
0010
,
0000
0100
0100
0000
,
1000
0000
1000
0000
,
0001
0001
0001
0000
,
0100
0000
0000
0001
,
0001
0000
0000
1000
,
1000
0000
0000
0100
,
0100
0000
0010
0000
,
0001
0000
2002
0000
,
0000
0000
0000
0000
,
0000
00M0
0000
0000
0000
0M00
0000
0000
0000
3003
0000
0000
0000
0000
0000
0000
,
0000
1000
0000
0001
,
0000
0010
0000
0001
,
0000
1000
0000
0010
,
1000
0000
0100
0000
,
0010
0000
0001
0000
,
0010
0000
0001
0000
,
1000
0000
0010
0000
,
0000
1000
0000
0000
,
0000
0001
0000
1000
,
0000
0100
0000
0000
,
0000
1001
0000
0000
,
1000
0000
0001
0000
,
0100
0000
0010
0000
,
0100
0000
0001
0000
,
1000
0000
0000
1000
,
0000
0000
0000
0000
,
0000
0000
0000
1000
,
0000
0000
0000
0000
,
0000
0000
0000
0000
,
0000
0000
1000
0000
,
0000
0000
0000
0000
,
0000
0000
0000
0000
,
0000
0000
0002
0000
,
0000
0000
0000
0000
,
0000
0000
0000
0000
,
0000
0000
0003
0000
,
1000
0000
0000
0000
,
0001
0000
0000
0000
,
0100
0000
0000
0000
,
0001
0000
1000
0000
,
1000
0000
0000
0000
,
0100
0000
0000
0000
,
0010
0000
0000
0000
,
1001
0000
0000
0000
,
0000
0000
0000
0000
,
0000
0000
0000
0000
,
0000
0000
1000
0000
,
0000
0000
1000
0000
,
0000
0000
0001
0000
,
0000
0000
1000
0000
,
1000
0000
1000
0000
,
0000
0000
0001
0000
,
0001
0000
0001
0000
,
0010
0000
0001
0100
,
0001
0000
0100
0000
,
0000
0000
0010
0000
,
1000
0000
0010
0000
,
0100
0000
0100
0000
,
0001
0000
1000
0001
,
1000
0000
0001
0000
,
0010
0000
0001
0000
,
0100
0000
0020
0000
,
1030
0000
1000
0000
,
0100
0000
0010
0000
,
0100
0000
1000
0000
,
1000
0000
0001
0000
,
1000
0000
0000
0000
,
0001
0000
0100
0000
,
0001
0000
0100
0000
,
0010
0000
1000
0000
,
0000
1000
0000
1000
,
0000
0100
0000
0010
,
0000
0100
0000
1000
,
0000
0001
0000
0100
,
0000
0010
0000
0100
,
0000
0001
0000
0100
,
0000
0000
0000
1000
,
0000
0000
0000
0001
,
0000
0000
0000
0000
,
0000
0000
0000
0000
,
1000
0000
0000
0000
,
0000
0000
0000
0000
,
0000
0001
0000
0000
,
0000
0000
0000
0000
,
0000
0000
1001
0000
,
0000
0000
0000
0000
,
0000
0000
0000
0001
,
0000
0010
0000
0001
,
0000
0000
0000
0000
,
0000
0000
0000
0000
,
1000
0000
0000
1000
,
0000
0010
0000
0100
,
0000
0001
0000
0000
,
0000
0000
1000
0000
,
1000
0000
0100
0000
,
0010
0000
0001
0000
,
1000
0000
0010
0000
,
0000
1000
0000
0000
;

//---------------dance-single - Rynker----------------
#NOTES:
     dance-single:
     Rynker:
     Beginner:
     1:
     0.101,0.157,0.029,0.000,0.000,71.000,3.000,0.000,0.000,0.000:






0000
0000
0000
0000
,
0000
0000
0000
0000
,
0000
0000
0000
0000
,
0000
0000
0000
0000
,
0000
0000
0000
0000
,
0000
0000
0001
0000
,
0000
0000
0000
0000
,
1000
0000
0000
0000
,
0000
0000
0100
0000
,
0000
0000
0010
0000
,
0000
0000
0000
0000
,
0000
0000
0001
0000
,
0000
0000
1000
0000
,
0000
0000
1001
0000
,
0000
0000
0000
0000
,
0001
0000
0000
0000
,
0000
0000
0100
0000
,
0000
0000
0001
0000
,
0000
0000
1000
0000
,
0000
0000
0100
0000
,
0000
0000
0010
0000
,
0000
0000
0000
0000
,
0000
0000
0000
0001
,
0000
0000
0000
1000
,
0000
0000
0000
0010
,
0000
0000
0000
0100
,
0000
0000
0001
0000
,
0000
0000
1000
0000
,
1000
0000
0000
0000
,
0001
0000
0000
0000
,
0000
1001
0000
0000
,
0000
0001
0000
0000
,
0000
0010
0000
0000
,
0000
0000
0000
0000
,
0001
0000
0000
0000
,
0100
0000
0000
0000
,
0100
0000
0000
0000
,
0010
0000
0000
1000
,
0000
0000
0000
0000
,
0000
0000
0000
1000
,
0000
0000
0000
0000
,
0000
0000
0000
0000
,
0000
0000
0001
0000
,
0000
0000
0000
0000
,
0000
0000
0000
0000
,
1000
0000
0000
0000
,
0000
0000
0000
0000
,
0000
0000
0000
0000
,
0000
0000
0100
0000
,
0000
0000
0010
0000
,
0000
0000
0001
0000
,
0000
0000
1000
0000
,
0000
0000
0010
0000
,
0000
0000
0100
0000
,
0000
0000
0001
0000
,
0000
0000
1000
0000
,
0000
0000
0000
0000
,
0000
0000
0000
0000
,
0000
0000
0000
0000
,
0000
0000
1000
0000
,
0000
0000
0000
0000
,
0001
0000
0000
0000
,
0000
0000
0000
0000
,
0010
0000
0000
0000
,
0000
0000
0000
0000
,
0000
0000
1001
0000
,
0000
0000
0000
0000
,
0000
0001
0000
0000
,
0000
0000
0100
0000
,
0000
0000
0000
0000
,
0010
0000
0000
0000
,
0000
0000
1000
0000
,
0000
0000
0000
0000
,
0001
0000
0000
0000
,
0000
0000
0010
0000
,
0000
0000
0000
0000
,
0001
0000
0000
0000
,
0100
0000
0000
0000
,
0000
0000
0001
0000
,
0000
0000
0000
0000
,
1000
0000
0000
0000
,
0000
0000
0000
0000
,
0100
0000
0000
0000
,
0000
0000
0010
0000
,
0000
0000
0000
0001
,
0000
0000
0000
0000
,
0000
0000
0000
1000
,
0000
0000
0000
0000
,
0000
0010
0000
0000
,
0000
0000
0000
0100
,
0000
0000
0000
0001
,
0000
0000
0000
0000
,
0000
0000
0000
1000
,
0000
0000
0000
0000
,
0000
0000
0000
0000
,
0100
0000
0000
0000
,
0000
0000
0000
0000
,
0000
0000
0010
0000
,
0000
0000
0000
0000
,
0000
0000
0000
0001
,
0000
0000
0000
0000
,
0000
0000
0000
0000
,
0000
0000
0000
0000
,
0000
1000
0000
0000
,
0000
0000
0000
0001
,
0000
0000
0000
0000
,
0000
0000
0100
0000
,
0000
0000
0000
0000
,
0010
0000
0000
0000
,
0000
1000
0000
0000
,
0000
0100
0000
0000
;
