#TITLE:Somewhere Out In Space;
#SUBTITLE:Somewhere Out In Space (1997);
#ARTIST:Gamma Ray;
#TITLETRANSLIT:;
#SUBTITLETRANSLIT:;
#ARTISTTRANSLIT:;
#CREDIT:;
#BANNER:BN.png;
#BACKGROUND:BG.png;
#LYRICSPATH:;
#CDTITLE:CDTitle.gif;
#MUSIC:Gamma Ray - Somewhere Out In Space.mp3;
#OFFSET:-1.000;
#SAMPLESTART:61.748;
#SAMPLELENGTH:12.000;
#SELECTABLE:YES;
#BPMS:0.000=190.012;
#STOPS:;
#BGCHANGES:;
// cache tags:
#FIRSTBEAT:0.000;
#LASTBEAT:1020.750;
#SONGFILENAME:Songs/Astronomic Metal Collection/Somewhere Out In Space (charlo)/Somewhere Out In Space.sm;
#HASMUSIC:1;
#HASBANNER:1;
#MUSICLENGTH:327.426;
// end cache tags

//---------------dance-single - Blank----------------
#NOTES:
     dance-single:
     Blank:
     Hard:
     13:
     1.000,1.000,1.000,0.736,0.764,2135.000,607.000,241.000,0.000,0.000:
2002
0000
0000
0000
0000
0000
0000
3003
0011
0000
0000
0000
0110
0000
1001
0000
,
0202
0000
0000
0000
0000
0000
0000
0000
0000
0000
0000
0000
0000
0000
0000
0303
,
1000
0010
0100
0001
0100
0010
1000
0100
0010
0100
1000
0001
0100
0010
1000
0010
,
0100
0001
0010
0100
0010
0001
1000
0010
1000
0001
0100
0001
1000
0010
0100
0001
,
0220
0000
0000
0000
0000
0000
0000
0330
1100
0000
0110
0000
1001
0000
1100
0000
,
0220
0000
0000
0000
0000
0000
0000
0000
0000
0000
0000
0000
0000
0000
0000
0330
,
1000
0010
0100
0010
1000
0001
0010
0100
0010
0001
1000
0010
0100
0001
0010
0100
,
1000
0010
1000
0100
0010
0001
0100
0010
1000
0100
0010
0001
1000
0010
1000
0001
,
0110
1000
0001
0100
0011
0100
1000
0010
,
1100
0001
0100
0010
1010
0001
0110
0011
,
1100
0001
0100
1000
0110
0001
1000
0010
,
1001
0010
0100
0001
0101
1010
0110
1100
,
1001
0100
0010
0001
1100
0010
0100
0001
,
0110
1000
0001
0100
1010
0100
1001
0101
,
0011
1000
0010
0100
0011
1000
0001
0100
,
1010
0001
1000
0010
1100
0101
1100
1010
,
0101
0110
1000
0001
0100
0001
0000
1000
,
0100
0000
0010
0000
0000
0000
0202
0000
0000
0303
2200
0000
0000
3300
0000
0000
,
0110
0000
1001
0000
0100
0000
0010
0000
1000
0000
0100
0000
0000
0000
1000
0010
,
0101
1010
0000
0110
0000
1001
0000
0000
,
1100
0000
0011
0000
0100
0010
1100
0000
0001
0000
1010
0000
0100
0000
0011
0000
,
1000
0000
0110
0000
0001
1000
0110
0000
0001
0000
1100
0000
0010
0000
0101
0000
,
1000
0000
0011
0000
1000
0010
0101
0000
0010
0000
1100
0000
0100
0000
0011
0000
,
0100
0000
1010
0000
0000
0000
0101
0000
0000
0000
2200
0000
0000
3300
0110
0000
,
1001
0101
0011
1100
0001
0110
1100
1001
,
0202
0000
0000
0303
2200
0000
0000
3300
2020
0000
0000
3030
0202
0000
0000
0303
,
0110
0000
1000
0000
0100
0010
0001
0000
1000
0000
0010
0000
0110
0000
0000
0000
,
1100
0010
0001
1000
0110
0001
0010
0100
1001
0010
0100
0010
1100
0001
0100
0010
,
1001
1100
0010
1001
0010
1100
0101
0011
,
1100
0000
0110
0000
1010
0000
0011
0000
0202
0000
0000
0303
0220
0000
0000
0330
,
1100
0000
0001
0000
0100
0010
1000
0000
0100
0000
0010
0000
0001
0000
1000
0000
,
0100
0010
0001
1000
0001
0100
0010
1000
0100
0010
0001
1000
0100
0010
0100
1000
,
0011
0110
1000
0101
0010
0100
1000
0101
,
1100
1001
0010
0011
0100
1001
1100
1010
,
0101
0011
1100
1010
0110
0100
1001
0011
,
0100
0110
0001
0010
0100
1000
0011
0110
,
1100
1010
0011
0110
1000
0010
0101
1100
,
1010
0110
1000
0101
0010
0100
1001
0011
,
0210
0000
0001
0000
0010
0000
1000
0300
0012
0000
1000
0000
0010
0000
0100
0003
,
2010
0000
0001
0000
0100
0000
0010
3000
0201
0000
1000
0000
0010
0000
1300
0000
,
0101
0010
1000
0001
0110
1000
0010
0100
,
1001
0100
0010
0001
0110
1000
1100
0010
,
1001
0110
0001
1000
0110
0001
1000
0100
,
1010
0001
0010
0100
1001
0100
0010
0100
0011
1000
0100
0010
1100
0001
0010
0100
,
1001
0100
0010
0001
0110
0010
0100
0001
,
1000
0100
0010
0001
1100
0010
0001
0100
,
0010
0100
0001
0010
1100
0010
0101
1100
,
1010
0000
0100
0000
0011
0000
1100
0000
1010
0000
0001
0000
0220
0000
0000
0330
,
1000
0100
0010
0001
0100
0001
0010
0100
0010
0001
1000
0010
2000
0000
0000
3000
,
0100
0010
0001
0010
0100
1000
0001
0100
0001
1000
0010
1000
0200
0000
0000
0300
,
0010
0001
1000
0100
0010
0100
1000
0001
1000
0010
1000
0100
0020
0000
0000
0030
,
1000
0001
0100
0001
1000
0010
1000
0100
0020
0000
0032
0000
0203
0000
0320
0030
,
0001
0010
0100
1000
0010
1000
0100
0010
0100
1000
0001
0100
0002
0000
0000
0003
,
1000
0010
0100
0001
0010
0001
1000
0010
1000
0001
0010
0001
0200
0000
0000
0300
,
0001
1000
0100
1000
0001
0010
0100
0010
0001
0100
0010
0100
0020
0000
0000
0030
,
0001
0100
0010
1000
0100
0010
0100
1000
0002
0000
0203
0000
0320
0000
2030
3000
,
0200
0000
0001
0300
0010
0000
0100
0000
1001
0000
0100
0000
0010
0000
1000
0000
,
0001
0000
0100
0000
0010
0000
2200
0000
0000
3300
0202
0000
0000
0303
0000
0000
,
1010
0101
0010
1100
1001
0101
0010
1100
,
1001
0000
0202
0000
0000
0303
2200
0000
0000
3300
0220
0000
0000
0330
0000
0000
,
1010
0101
0010
1100
0011
0110
1000
0101
,
1001
0000
1100
0000
0010
0000
2200
0000
0000
3300
2002
0000
0000
3003
0110
0000
,
0101
1100
0010
1100
1001
0011
0100
1010
,
0101
1100
0000
0101
0000
0011
0000
1100
,
1010
0101
1000
0011
1100
0010
0100
1010
,
1001
0110
1001
0011
0110
1100
0001
1000
,
0101
1000
1100
0010
0101
0100
0110
0001
,
1001
0100
0010
0100
1000
0001
0100
1001
,
0011
1100
0010
1001
0110
0101
1000
0110
,
1100
1001
0011
1100
1010
0100
0001
1000
,
0110
0001
1100
0010
1010
0001
0101
0010
,
1100
0010
0001
1000
0100
0010
0100
1000
0110
0001
0010
0100
1000
0010
0100
0001
,
1010
0100
0010
0001
0100
0010
1000
0100
0011
1000
0010
1000
0001
0100
0001
1000
,
0110
1000
0001
0100
0001
1000
0110
1100
,
1001
0100
0011
0110
0001
1100
0001
0010
,
1001
0100
0010
0100
1000
0001
0110
1001
,
0110
1000
0011
0110
0001
1001
0010
0100
,
0011
1000
0100
0010
0100
1000
0011
1100
,
0110
0100
1001
0011
1000
0110
0010
0100
,
1010
0001
0100
0010
1000
0100
1010
0101
,
0011
0001
1100
1010
0100
0011
0100
1000
,
0110
0001
0010
0100
1000
0010
0100
0001
0100
0010
1000
0100
0010
0001
1000
0010
,
1100
0000
0110
1001
0000
0000
0110
1100
,
1001
0101
0000
2200
0000
0000
3300
0000
,
0101
1100
0110
1010
0101
0000
1100
1010
,
0000
0022
0000
0000
0033
0000
0011
0101
,
1100
0110
0101
1100
1001
0000
1100
0101
,
0011
1100
0110
2020
0000
0000
3030
0000
,
1001
1100
0110
1001
0011
0000
0110
0022
,
0000
0000
0000
0033
,
1001
1100
0110
0000
0011
1010
0110
0000
,
1001
0101
0110
1100
1001
0101
0110
0000
,
0011
1100
1010
0110
1001
0000
0101
0011
,
0000
0000
2020
0000
0000
0000
0000
3030
0000
0000
0000
0000
0110
0000
1100
0000
,
2002
0000
0000
0000
0000
0000
0000
3003
0002
0000
0000
0000
0000
0003
0020
0000
,
0000
0030
0200
0000
0000
0000
0000
0300
2000
0000
0000
3000
0200
0000
0000
0300
,
0020
0000
0000
0030
2200
0000
0000
3000
0002
0000
0000
0003
0020
0000
0000
0030
,
2000
0000
0000
3000
0002
0000
0000
0003
2000
0000
0000
3000
0020
0000
0000
0330
,
1001
0100
0010
0100
1010
0001
0100
1000
,
0011
0100
1000
0010
1100
0001
0110
0010
,
1100
1001
0100
0010
0001
0100
0010
0100
,
0011
0100
1000
0010
1100
0001
0010
0100
1001
0100
0010
0001
1010
0100
0010
0100
,
1001
0010
0100
1000
0101
0010
0001
1000
,
0101
0010
0100
1000
1100
0010
0001
0100
,
1010
0100
0010
0001
0110
1000
0101
0011
,
1100
0010
0001
1000
0110
0001
0010
0100
1001
0010
0100
0010
1001
0100
0010
0001
,
1100
0010
0001
0100
0011
1000
0010
1000
,
0110
0001
1000
0100
1001
0010
0100
1000
,
0101
0010
0100
1000
0101
1000
0100
1000
,
0110
0001
1000
0010
1100
0010
0001
0100
0011
1000
0001
1000
0101
0010
0100
1000
,
0110
0001
1000
0100
0101
1000
0010
1000
,
1001
0010
0100
0001
1010
0100
0010
0001
,
1100
0010
0001
1000
0110
0001
0100
0010
,
1001
0100
0010
0100
1001
0010
0100
1000
0011
1000
0010
1000
0101
0010
0100
1000
,
0110
0001
0010
0100
1000
0001
0100
0001
1000
0010
1000
0100
0020
0000
0000
0030
,
0001
0100
0010
1000
0010
0100
0001
1000
0001
0010
0100
1000
0020
0000
0000
0030
,
1000
0001
1000
0100
0010
0100
1000
0001
0010
0001
1000
0010
2000
0000
0000
3000
,
0100
0010
0001
1000
0010
1000
0001
0010
0200
0000
2300
0000
3200
0000
0320
0030
,
0001
0010
0100
0010
0001
1000
0100
0010
0100
1000
0001
0100
0002
0000
0000
0003
,
0010
0100
1000
0010
1000
0100
0010
0100
1000
0001
0100
0010
0200
0000
0000
0300
,
0001
0100
0010
1000
0100
0010
0001
0100
0010
0100
0001
0010
0200
0000
0000
0300
,
0001
0100
0001
1000
0010
1000
0100
0010
0002
0000
0203
0000
0320
0000
2030
3000
,
0110
0000
0000
0000
0002
0000
0000
0003
0200
0000
0000
0300
0020
0000
0000
0030
,
1000
0000
0200
0000
0000
0000
0320
0000
0000
0000
0000
0000
0000
0000
0000
0030
,
1001
0000
0000
0000
0200
0000
0000
0300
0000
0000
0010
0000
0000
1000
0000
0000
,
0000
0000
0200
0000
0000
0300
0000
1001
,
0011
0000
0000
0000
0200
0000
0000
0300
0020
0000
0000
0030
2000
0000
0000
3000
,
0100
0000
0020
0000
0000
0030
0200
0000
0000
0000
0300
0000
0000
0000
0000
0000
,
1001
0000
0000
0000
0200
0000
0000
0000
0000
0300
0010
0000
0001
0000
0000
0000
,
2000
0000
0000
0000
0000
0000
0000
3000
0000
0000
0000
0000
0000
0000
1000
0000
,
0011
0000
0000
0000
0200
0000
0000
0300
0010
0000
2000
0000
0000
0000
0000
3000
,
0200
0000
0000
0300
0010
0000
0002
0000
0000
0000
0000
0000
0000
0003
0110
0000
,
1010
0000
0000
0000
0000
0000
0011
0000
0202
0000
0000
0303
0110
0000
2200
0000
,
0000
0000
0000
0000
0000
0000
0000
3300
0000
0000
0000
0000
0000
0000
1001
0000
,
0101
0000
0000
0000
0220
0000
0000
0330
2200
0000
0000
3300
2002
0000
0000
3003
,
0011
0000
0220
0000
0000
0330
2020
0000
0000
0000
0000
3030
0000
0000
0000
0000
,
0000
0000
0000
0000
0220
0000
0000
0330
0101
0000
2020
0000
0000
3030
2002
0000
,
0000
0000
0000
0000
0000
0000
0000
3003
0110
0000
0000
0000
0110
0000
0000
0000
,
2000
0000
0000
0000
0000
0000
0000
0000
0000
0000
0000
0000
0000
0000
0000
3000
,
2000
0000
0000
0000
0000
3000
0020
0000
0000
0030
0200
0000
0000
0300
0001
0000
,
0020
0000
0000
0000
0000
0000
0000
0000
0000
0000
0000
0030
1000
0100
0010
0100
,
2000
0000
0000
0000
0000
0000
0000
0000
0000
0000
0000
3000
0001
0100
0010
1000
,
0100
0010
0001
0100
0001
0010
0100
1000
0001
0100
0001
1000
0010
1000
0100
0010
,
0100
1000
0001
0010
0001
1000
0010
1000
0001
0010
0100
1000
0001
1000
0100
0010
,
0100
1000
0001
1000
0010
1000
0100
0010
0001
0100
0010
0100
0010
1000
0100
0010
,
0100
1000
0001
0100
0010
1000
0100
0010
0002
0000
0000
0000
0000
0000
0000
0003
,
2020
0000
0000
0000
0000
0000
0000
3030
0200
0000
0300
2000
0000
3000
0200
0300
,
2002
0000
0000
0000
0000
0000
0000
3003
0020
0000
0030
0002
0000
0000
0203
0300
,
0021
0000
0000
0000
0000
0000
0000
0030
0102
0000
0000
0000
0000
0000
0000
1003
,
0210
0000
0000
0000
0000
0000
0000
0000
0000
0000
0000
0000
0000
0000
0000
0300
,
0002
0000
0000
0000
0000
0000
0000
0000
0000
0000
0000
0000
0000
0000
1003
0100
,
0020
0130
2000
3001
0200
0301
0020
1030
,
1002
0000
0000
0000
0000
0000
0000
0000
0000
0000
0000
0000
0000
0003
1000
0010
,
0200
0000
0000
0000
0000
0000
0000
0000
0000
0000
0000
0300
0000
0000
0000
0000
,
1000
0010
0100
0001
0010
0100
0010
0001
1000
0010
0100
0001
0100
0010
1000
0001
,
0010
0100
0010
0001
1000
0010
1000
0100
0010
0001
0100
0010
1000
0100
0010
0001
,
1000
0010
1000
0001
0010
0001
1000
0100
1000
0001
0010
0001
1000
0100
0010
0100
,
1000
0001
0100
0001
0010
0100
1000
0010
0100
0001
0010
0100
1000
0001
0100
0001
,
1000
0010
0100
0001
0010
0001
1000
0010
1000
0100
0010
0100
1000
0001
0100
0010
,
1000
0100
0010
0001
0100
0010
0100
0001
0010
0100
0010
0001
1000
0010
1000
0100
,
0010
0001
1000
0001
0010
0100
1000
0001
0010
0001
0100
0010
1000
0100
1000
0001
,
0100
0010
1000
0100
0010
0100
1000
0001
0100
0001
0010
0100
1000
0010
1000
0100
,
0020
0000
0000
0000
,
0000
0000
0000
0000
0000
0000
0000
0030
0200
0000
0000
0000
0000
0000
0000
0300
,
1000
0001
0100
0001
0010
0100
1000
0001
0100
0010
1000
0100
0010
0001
1000
0001
,
0010
0000
0100
0000
0010
0000
1000
0000
0100
0020
0000
0000
0000
0000
0000
0030
,
1100
0101
0110
1010
,
0110
1001
0011
0101
,
1100
0010
0001
0100
0011
1000
0010
1000
,
1010
0000
0001
0000
0100
0010
1000
0100
0020
0000
0000
0000
0000
0000
0000
0030
,
2001
0000
0000
0000
0000
0000
3200
0000
0000
0000
0000
0000
0320
0000
0000
0030
,
0201
0000
0000
0000
0000
0000
0320
0000
0000
0000
0000
0000
2030
0000
0000
3000
,
0102
0000
0020
0000
0000
0000
0000
0000
0000
0000
0000
0000
0000
0000
0000
0033
,
2100
0000
0000
3000
0120
0000
0000
0030
0201
0000
0000
0300
1002
0000
0000
0003
,
1020
0000
0000
0000
0000
0000
0000
0000
0000
0000
0000
0000
0000
0030
0100
1000
,
0200
0000
0000
0000
0000
0000
0320
0000
0000
0000
0000
0000
2030
0000
0000
3000
,
0200
0000
0302
0000
0000
0000
0000
0000
0000
0000
0000
0000
0000
0000
0000
0003
,
0120
0000
0000
0000
0000
0000
0000
0030
1200
0000
0000
0000
0000
0000
0000
0300
,
1001
0010
0110
1000
1010
0100
0011
0100
,
1010
0001
0011
1000
1010
0100
1001
0010
,
0110
1000
0011
1000
1100
0010
0011
0100
,
1010
0010
1001
0100
0010
0100
1000
0001
,
1100
0010
0101
0100
0110
1000
0100
0110
,
1100
0001
0010
0110
1100
0010
0101
1010
,
1100
1010
0101
0100
1010
0100
0001
0110
,
1100
0001
0110
1000
0101
0010
0100
1000
,
0220
0000
0000
0000
0000
0000
0000
0000
0000
0330
2200
0000
0000
3300
1001
0000
,
0202
0000
0000
0000
0000
0000
0000
0000
0000
0000
0000
0000
0000
0303
1010
0000
,
0110
0000
1100
0000
0101
0000
0110
0000
1010
0000
1001
0000
,
0220
0000
0000
0000
0000
0000
0000
0330
,
0202
0000
0000
0000
0000
0000
0000
0000
0000
0303
2020
0000
0000
3030
1100
0000
,
0220
0000
0000
0000
0000
0000
0000
0000
0000
0000
0000
0000
0000
0000
0000
0330
,
1001
0110
0000
1100
2002
3003
0110
1100
,
1010
0001
0100
0010
1000
0100
0010
0100
1000
0001
0100
0010
1000
0100
0010
0100
,
0010
0001
1000
0010
1000
0001
0010
0100
0010
0001
1000
0010
0100
0001
0010
0100
,
1000
1000
1000
1000
1100
1100
1100
1100
,
1010
1010
1010
1010
1001
1001
1001
1001
,
1001
0100
0010
0001
0100
0010
1000
0100
0010
0100
1000
0001
0100
0010
0100
0001
,
0010
0100
0010
0001
1000
0001
0100
0010
0100
0001
1000
0100
0010
0001
0100
0010
,
1001
0100
0010
0001
1100
0010
0100
1000
,
0101
0010
0100
1000
1100
0010
0101
0100
,
0011
1100
0010
0100
0001
0100
0010
1000
,
0100
0010
0001
1000
0010
1000
0001
0010
0001
1000
0100
0010
0100
1000
0001
0010
,
0102
0000
1000
0000
0100
0000
0010
0000
0200
0000
0000
0300
0020
0000
0000
0033
,
2100
0000
0010
0000
0001
0000
0100
0000
0020
0000
0000
0030
0200
0000
0000
3300
,
0101
0000
2000
0000
3200
0000
0320
0000
0230
0000
0302
0000
,
1003
0100
0010
0001
0100
0010
1000
0100
0010
0100
1000
0001
0100
0001
1000
0100
,
1001
0010
0100
0001
0011
0100
1000
0001
,
1010
0100
0010
0001
0101
0010
0101
1000
,
0110
2001
0100
0010
0001
0100
0010
3100
,
0001
0010
0100
0010
0001
1000
0010
1000
0100
0010
0001
0100
0010
0100
0001
0010
,
2100
0000
0001
3000
0020
0000
0230
0000
0302
0000
0010
0000
2003
0000
0100
3000
,
0021
0000
1000
0000
0001
0000
1000
0000
0001
0000
0100
0030
2000
0000
3200
0300
,
0021
0000
0230
0000
2300
3000
0120
0000
2030
0000
3200
0300
,
2010
0100
0010
0001
0010
0001
0010
3100
0002
0010
0100
1000
0100
0010
0100
1003
,
0110
0001
1000
0010
1100
0010
0001
1000
,
0011
0010
1000
0100
1010
0100
0011
0010
,
0100
1000
0110
0101
0010
0100
1000
0001
,
0101
0010
0100
1000
0110
0001
1000
0100
0011
1000
0100
1000
0101
0010
0100
1000
,
0110
0001
1000
0100
0011
1000
0010
1000
,
1100
0010
0001
1000
0101
0010
0100
1000
,
0110
0001
0100
1000
0110
0001
1100
1010
,
0110
0001
0010
0100
1001
0010
0100
0010
1100
0001
0010
0100
1001
0010
0100
0001
,
1010
0100
0010
0001
1100
0010
0100
1010
,
0001
0010
0001
0100
0110
0001
1100
0011
,
1000
0120
1000
0100
1000
0001
0100
1030
,
0110
0001
0010
0100
1001
0100
0010
0001
1010
0100
0010
0001
0110
1000
0001
0010
,
0101
1000
0010
0100
0011
1000
0010
1000
,
0101
0010
0100
1000
0110
0001
1000
0001
,
1001
0010
0100
0010
1100
0001
0110
1001
,
1100
0010
0001
0100
1010
0001
0010
0100
1001
0010
0100
1000
0110
0001
0010
0001
,
1100
0010
0101
1000
0110
0101
1000
0011
,
0100
0010
1000
0100
1010
0001
0110
1100
,
0001
0100
0010
1000
0101
0010
0001
1000
,
0110
0001
1000
0010
1100
0001
0010
0100
1001
0010
0100
1000
0110
0001
0010
0100
,
1001
0100
0011
1000
0110
1100
0001
0101
,
1000
0001
0110
1000
0110
0010
0101
1100
,
0010
0001
1000
0010
1100
0001
0100
0010
,
1100
0010
0001
0010
1001
0100
0010
0100
1001
0010
0100
1000
0101
0010
0100
0010
,
1001
0100
0011
0010
1100
0100
0101
1100
,
0010
0100
1000
0001
0110
1000
0011
1000
,
0110
0001
1010
1001
0100
0010
0001
1000
,
0110
0001
1000
0100
0011
1000
0010
1000
0101
0010
0100
1000
0011
0100
0010
0001
,
1010
0001
1001
0100
0110
0001
1100
1010
,
0100
0010
0001
1000
0110
0001
0101
0010
,
1100
0100
0001
0110
1000
0001
0100
0010
,
1000
0100
0010
0001
0100
0010
0100
0001
0010
0100
1000
0001
0100
0001
1000
0010
,
2000
0000
0000
0000
0000
0000
0000
3000
0101
0010
0100
0010
0001
1000
0010
1000
,
0210
0000
0000
0000
0000
0000
0000
0000
0000
0000
0000
0000
0000
0000
0000
0300
,
1001
0100
0010
0100
1000
0010
1000
0100
0010
0100
1000
0001
0010
0100
1000
0001
,
0100
0001
1000
0010
1000
0100
0010
0100
1000
0001
1000
0010
0100
0010
1000
0001
,
0210
0000
0000
0000
0000
0000
0000
0300
0010
0001
1000
0010
1000
0001
0010
0100
,
1001
0000
0000
0000
0110
0000
1200
0000
0000
0000
0000
0000
0000
0000
0000
0300
,
1000
0010
0100
0010
1000
0001
0010
0100
1000
0001
0100
0001
1000
0100
0010
0001
,
0110
1000
0001
1000
0101
0010
0100
1000
0110
0001
1000
0100
0011
1000
0100
0010
,
2002
0000
0000
3003
0000
0000
0000
0000
0000
0000
0000
0000
0000
0000
0000
0000
;
