#TITLE:Catch It Up;
#SUBTITLE:(Burndown);
#ARTIST:Sidewinder;
#TITLETRANSLIT:;
#SUBTITLETRANSLIT:;
#ARTISTTRANSLIT:;
#CREDIT:owenviau1;
#BANNER:../owenviau1 Simfiles 6 (Science X Owen);
#BACKGROUND:BG.PNG;
#LYRICSPATH:;
#CDTITLE:;
#MUSIC:DX-Ball 2 Soundtrack- Catch It Up [burndown].mp3;
#OFFSET:-0.315;
#SAMPLESTART:6.660;
#SAMPLELENGTH:29.999;
#SELECTABLE:YES;
#DISPLAYBPM:149.000;
#BPMS:0.000=149.060,9.000=596.240,25.000=1192.480,49.000=149.060;
#STOPS:;
#BGCHANGES:;
// cache tags:
#FIRSTBEAT:9.000;
#LASTBEAT:480.333;
#SONGFILENAME:Songs/owenviau1 Simfiles 6/Catch It Up - [owenviau1] v1.0.4/Catch It Up.sm;
#HASMUSIC:1;
#HASBANNER:0;
#MUSICLENGTH:181.524;
// end cache tags

//---------------dance-single - 12- (owenviau1)----------------
#NOTES:
     dance-single:
     12- (owenviau1):
     Hard:
     12:
     1.000,1.000,0.044,1.000,1.000,1533.000,8.000,199.000,78.000,7.000:

0000
0000
0000
0000
,
0000
0000
0000
0000
,
0000
0000
M000
M000
M000
M000
M000
M000
,
M000
M000
M000
M000
M000
0000
M000
M000
,
M000
M000
M000
M000
M000
M000
M000
M000
,
M000
M000
M000
M000
M000
M000
M000
M000
,
M000
0000
000M
000M
000M
000M
000M
000M
,
000M
000M
000M
000M
000M
000M
000M
000M
,
000M
000M
000M
000M
000M
000M
000M
000M
,
000M
000M
000M
000M
000M
000M
000M
000M
,
000M
000M
000M
000M
000M
000M
000M
000M
,
000M
000M
000M
000M
000M
000M
000M
000M
,
000M
0000
000M
0000
1000
0100
0010
0001
0100
0010
1000
0001
0100
0001
1000
0010
,
0100
0001
1000
0100
0010
0001
0100
0010
1000
0001
0100
0001
1000
0010
0100
0001
,
1000
0100
0010
0001
0100
0010
1000
0001
0100
0001
1000
0100
0010
0001
0100
0010
,
1000
0001
0100
0001
1000
0100
1000
0010
0100
0001
1000
0100
0010
0001
0100
0010
,
1000
0001
0100
0001
1000
0010
0100
0001
1000
0100
0010
0001
0100
0010
0100
0001
,
1000
0100
1000
0010
0100
0001
1000
0100
0010
0001
0100
0010
1000
0001
0100
0001
,
1000
0010
0100
0001
1000
0100
0010
0001
1000
0010
0100
0010
1000
0001
0100
0001
,
1000
0010
0100
0001
1000
0100
0010
0001
1000
0100
1000
0010
0100
0001
1000
0001
,
0100
0010
1000
0001
1000
0100
0010
0001
0100
0010
1000
0001
0100
0001
1000
0010
,
0100
0001
1000
0100
0010
0001
0100
0010
1000
0001
0100
0001
1000
0010
0100
0001
,
1000
0100
0010
0001
0100
0010
1000
0001
0100
0001
1000
0100
0010
0001
0100
0010
,
1000
0001
0100
0001
1000
0100
1000
0010
0100
0001
1000
0100
0010
0001
0100
0010
,
1000
0001
0100
0001
1000
0010
0100
0001
1000
0100
0010
0001
0100
0010
0100
0001
,
1000
0100
1000
0010
0100
0001
1000
0100
0010
0001
0100
0010
1000
0001
0100
0001
,
1000
0000
0010
0000
0100
0000
0001
0000
2000
0000
0000
0000
3002
0000
0000
0000
0003
0000
0000
0000
0020
0000
0000
0030
0020
0000
0000
0030
0020
0000
0000
0030
,
0020
0000
0000
0030
2000
0000
3002
0000
2003
0000
3200
0000
0000
0000
0300
0020
0000
0000
0000
0000
0030
0002
0000
0003
0002
0000
0000
0003
0002
0000
0000
0003
,
0002
0000
0000
0000
0003
0002
0000
0003
1000
0000
0100
0000
0010
0000
0001
0000
0100
0000
0010
0000
1000
0000
0001
0000
0100
0000
0001
0000
1000
0000
0010
0000
,
0100
0001
1000
0100
0010
0001
0100
0010
1000
0001
0100
0001
1000
0010
0100
0001
,
1000
0100
0010
0001
0100
0010
1000
0001
0100
0001
1000
0100
0010
0001
0100
0010
,
1000
0001
0100
0001
1000
0100
1000
0010
0100
0001
1000
0100
0010
0001
0100
0010
,
1000
0001
0100
0001
1000
0010
0100
0001
1000
0100
0010
0001
0100
0010
0100
0001
,
1000
0100
1000
0010
0100
0001
1000
0100
0010
0001
0100
0010
1000
0001
0100
0001
,
1000
0010
0100
0001
1000
0100
0010
0001
1000
0010
0100
0001
0100
0010
1000
0001
,
1000
0000
0000
0010
0000
0000
0100
0000
0000
0001
0000
0000
1000
0000
0000
0100
0000
0000
0010
0000
0000
0001
0000
0000
1000
0000
0000
0100
0000
0000
1000
0000
0000
0001
0000
0000
0020
0000
0000
0000
0030
0000
0020
0000
0000
0000
0030
0000
,
0020
0000
0000
0000
0030
0000
0020
0000
0000
0000
0030
0000
0100
0000
0000
0010
0000
0000
1000
0000
0000
0001
0000
0000
0100
0000
0000
0001
0000
0000
1000
0000
0000
0010
0000
0000
0100
0000
0000
0001
0000
0000
1000
0000
0000
0100
0000
0000
,
0010
0001
0100
0010
1000
0001
0100
0001
1000
0010
0100
0001
1000
0100
0010
0001
,
0100
0010
1000
0001
0100
0001
1000
0100
0010
0001
0100
0010
1000
0001
0100
0001
,
1000
0100
1000
0010
0100
0001
1000
0100
0010
0001
0100
0010
1000
0001
0100
0001
,
1000
0010
0100
0001
1000
0100
0010
0001
0100
0010
0100
0001
1000
0100
1000
0010
,
0100
0001
1000
0100
0010
0001
0100
0010
1000
0001
0100
0001
1000
0010
0100
0001
,
1000
0100
0010
0001
1000
0010
0100
0010
1000
0001
0100
0001
1000
0010
0100
0001
,
1000
0100
0010
0001
0100
0010
1000
0001
0100
0001
1000
0010
0100
0001
1000
0100
,
0010
0001
0100
0010
1000
0001
0100
0001
1000
0010
0100
0001
1000
0100
0010
0001
,
0100
0010
1000
0001
0100
0001
1000
0100
0010
0001
0100
0010
1000
0001
0100
0001
,
1000
0000
0100
0000
0010
0000
0001
0000
2000
0000
0000
0000
0000
0000
0000
0002
0000
0003
0000
0000
0000
0000
0000
0000
0000
0000
0000
0000
0000
0000
0000
0000
,
0000
0000
0000
0000
0000
0000
0000
0000
0000
0000
0000
0000
0020
0000
0000
0000
0000
0000
0000
0000
0000
0000
0000
0000
0000
0000
0000
0000
0000
0000
0030
0000
0000
0000
0000
0000
0000
0000
0000
0000
0000
0000
0000
0000
0000
0000
0000
0000
3002
0000
0000
0000
0000
0000
0000
0000
0000
0000
0000
0000
0000
0000
0000
0000
0000
0000
0000
0000
0000
0000
0000
0000
0000
0000
0000
0000
0000
0000
0000
0000
0000
0000
0000
0000
0000
0000
0000
0000
0003
0000
0000
0000
0000
0000
0000
0000
0000
0000
0000
0000
0000
0000
0000
0000
0000
0000
0000
0000
0000
0000
0000
0000
0000
0000
0000
0000
0000
0000
0000
0000
2000
0000
0000
0000
0000
0000
0000
0000
0000
0000
0000
0000
0000
0000
0000
0000
0000
0000
0000
0000
0000
0000
0000
0000
0000
0000
0000
0000
0000
0000
0000
0000
0000
0000
0000
0000
3002
0000
0000
0000
0000
0000
0000
0000
0000
0000
0000
0000
0000
0000
0000
0000
0000
0000
0200
0000
0000
0000
0000
0000
0000
0000
0000
0000
0000
0000
0300
0000
0000
0000
0000
0000
,
0000
0000
0000
0000
2003
3200
2300
3020
0230
0302
2003
3200
0320
0032
2003
3020
,
0230
0000
0302
0003
0000
0000
2000
3000
,
0020
0000
0000
0000
0230
0302
2003
3020
2030
3002
0203
0320
2030
3200
0320
0032
,
2003
0000
3200
0300
0000
0000
0020
0030
,
0002
0000
0000
0000
2003
3020
0230
0302
2003
3200
2300
3020
0230
0302
2003
3020
,
0230
0000
0302
0003
0000
0000
2000
3000
,
0020
0000
0000
0000
0230
0302
2003
3020
2030
3002
0203
0320
2030
3200
0320
0032
,
2003
0000
3200
0300
0000
0000
0020
0030
,
0000
0000
0000
0000
1000
0100
0010
0001
0100
0010
1000
0001
0100
0001
1000
0010
,
0100
0001
1000
0100
0010
0001
0100
0010
1000
0001
0100
0001
1000
0010
0100
0001
,
1000
0100
0010
0001
0100
0010
1000
0001
0100
0001
1000
0100
0010
0001
0100
0010
,
1000
0001
0100
0001
1000
0100
1000
0010
0100
0001
1000
0100
0010
0001
0100
0010
,
1000
0000
0001
0000
0100
0000
0001
0000
2000
0000
0000
0000
3002
0000
0000
0000
0003
0000
0000
0000
0020
0000
0000
0030
0020
0000
0000
0030
0020
0000
0000
0030
,
0020
0000
0000
0030
2000
0000
3002
0000
2003
0000
3200
0000
0000
0000
0300
0020
0000
0000
0000
0000
0030
0002
0000
0003
0002
0000
0000
0003
0002
0000
0000
0003
,
0002
0000
0000
0000
0003
0002
0000
0003
2000
0000
3200
0000
0320
0000
0032
0000
2003
0000
3020
0000
2030
0000
3002
0000
0203
0000
0320
0000
2030
0000
3200
0000
,
0320
0000
0000
0000
0000
0000
0000
0000
0000
0000
0000
0000
0032
0000
0000
0000
0000
0000
0000
0000
0000
0000
0000
0000
0203
0000
0000
0000
0000
0000
0000
0000
0000
0000
0000
0000
0320
0000
0000
0000
0000
0000
0000
0000
0000
0000
0000
0000
0230
0000
0000
0000
0000
0000
0000
0000
0000
0000
0000
0000
0302
0000
0000
0000
0000
0000
0000
0000
0000
0000
0000
0000
2003
0000
0000
0000
0000
0000
0000
0000
0000
0000
0000
0000
3000
0000
0000
0000
0000
0000
0020
0000
0000
0000
0000
0000
0000
0000
0000
0000
0000
0000
0000
0000
0000
0000
0000
0000
0000
0000
0000
0000
0000
0000
0000
0000
0000
0000
0000
0000
0030
0000
0000
0000
0000
0000
0200
0000
0000
0000
0000
0000
0000
0000
0000
0000
0000
0000
0300
0000
0000
0000
0000
0000
0001
0000
0000
0000
0000
0000
0000
0000
0000
0000
0000
0000
0010
0000
0000
0000
0000
0000
0000
0000
0000
0000
0000
0000
0100
0000
0000
0000
0000
0000
0000
0000
1000
0000
0000
0000
0000
0000
0000
0000
0001
0000
0000
0000
0000
0000
0000
0000
,
1000
0000
0000
0000
0000
0000
0000
0000
0010
0000
0000
0000
0000
0000
0000
0000
0100
0000
0000
0000
0000
0000
0000
0000
0001
0000
0000
0000
0000
0000
0000
0000
0000
0000
0000
0000
1000
0000
0000
0000
0000
0000
0100
0000
0000
0000
0000
0000
1000
0000
0000
0000
0000
0000
0000
0000
0000
0000
0000
0000
0100
0000
0000
0000
0000
0000
0000
0000
0000
0000
0000
0000
0010
0000
0000
0000
0000
0000
0000
0000
0000
0000
0000
0000
0001
0000
0000
0000
0000
0000
0000
0000
0000
0000
0000
0000
0100
0000
0000
0000
0000
0000
0000
0000
0000
0000
0000
0000
0010
0000
0000
0000
0000
0000
0000
0000
0000
0000
0000
0000
1000
0000
0000
0000
0000
0000
0000
0000
0000
0000
0000
0000
0001
0000
0000
0000
0000
0000
0000
0000
0000
0000
0000
0000
0100
0000
0000
0000
0000
0000
0000
0000
0000
0000
0000
0000
0001
0000
0000
0000
0000
0000
0000
0000
0000
0000
0000
0000
1000
0000
0000
0000
0000
0000
0000
0000
0000
0000
0000
0000
0010
0000
0000
0000
0000
0000
0000
0000
0000
0000
0000
0000
,
0100
0001
1000
0100
0010
0001
0100
0010
1000
0001
0100
0001
1000
0010
0100
0001
,
1000
0100
0010
0001
0100
0010
1000
0001
0100
0001
1000
0100
0010
0001
0100
0010
,
1000
0001
0100
0001
1000
0100
1000
0010
0100
0001
1000
0100
0010
0001
0100
0010
,
1000
0000
0002
0000
1003
0010
0100
0001
1000
0100
0010
0001
0100
0010
0100
0001
,
1000
0100
1000
0010
0100
0001
1000
0100
0010
0001
0100
0010
1000
0001
0100
0001
,
1000
0100
0010
0001
0100
0010
1000
0001
0100
0001
1000
0010
0100
0001
1000
0100
,
0010
0001
0100
0010
1000
0001
0100
0001
1000
0010
0100
0001
1000
0100
0010
0001
,
0100
0010
1000
0001
0100
0001
1000
0100
0010
0001
0100
0010
1000
0001
0100
0001
,
1000
0100
1000
0010
0100
0001
1000
0100
0010
0001
0100
0010
1000
0001
0100
0001
,
1000
0010
0100
0001
1000
0100
0010
0001
0100
0010
0100
0001
1000
0100
1000
0010
,
0100
0001
1000
0100
0010
0001
0100
0010
1000
0001
0100
0001
1000
0100
0010
0001
,
0100
0010
1000
0001
0100
0001
1000
0010
0100
0001
1000
0100
0010
0001
0100
0010
,
1000
0001
0100
0001
1000
0010
0100
0001
1000
0100
0010
0001
0100
0010
1000
0001
,
0100
0001
1000
0100
0010
0001
0100
0010
1000
0001
0100
0001
1000
0100
1000
0010
,
0100
0001
1000
0100
0010
0001
0100
0010
1000
0001
0100
0001
1000
0010
0100
0001
,
1000
0100
0010
0001
0100
0010
0100
0001
1000
0100
1000
0010
0100
0001
1000
0100
,
0010
0001
0100
0010
1000
0001
0100
0001
1000
0100
0010
0001
0100
0010
1000
0001
,
0100
0001
1000
0010
0100
0001
1000
0100
0010
0001
0100
0010
1000
0001
0100
0001
,
1000
0010
0100
0001
1000
0100
0010
0001
0100
0010
1000
0001
0100
0001
1000
0100
,
0010
0001
0100
0010
1000
0001
0100
0001
1000
0100
1000
0010
0100
0001
1000
0100
,
0010
0001
0100
0010
1000
0001
0100
0001
1000
0010
0100
0001
1000
0100
0010
0001
,
0100
0010
0100
0001
1000
0100
1000
0010
0100
0001
1000
0100
0010
0001
0100
0010
,
1000
0000
0000
0001
0000
0000
0100
0000
0000
0001
0000
0000
0040
0000
0000
0000
0000
0000
0000
0000
0000
0000
0000
0000
2030
0000
0000
0000
0000
0000
3200
0000
0000
0000
0000
0000
0320
0000
0000
0000
0032
0000
0000
0000
2003
0000
0000
0000
,
3002
0000
0000
0000
1003
0100
0010
0001
0100
0010
1000
0001
0100
0001
1000
0010
,
0100
0001
1000
0100
0010
0001
0100
0010
1000
0001
0100
0001
1000
0010
0100
0001
,
1000
0100
0010
0001
0100
0010
1000
0001
0100
0001
1000
0100
0010
0001
0100
0010
,
1000
0001
0100
0001
1000
0100
1000
0010
0100
0001
1000
0100
0010
0001
0100
0010
,
1000
0001
0100
0001
1000
0010
0100
0001
1000
0100
0010
0001
0100
0010
0100
0001
,
1000
0100
1000
0010
0100
0001
1000
0100
0010
0001
0100
0010
1000
0001
0100
0001
,
1000
0000
0100
0000
0010
0000
0001
0000
1000
0000
0000
0000
0002
0000
0000
0000
1103
0000
0000
0000
0020
0000
0000
1031
0000
0000
0000
0000
0200
0000
0000
0000
,
1310
2000
3101
0020
1031
0002
0113
0002
,
1103
0000
0020
0000
1030
0001
1000
0100
0010
0001
0100
0010
1000
0001
0100
0001
,
1000
0100
1000
0010
0100
0001
1000
0100
0010
0001
0100
0010
1000
0001
0100
0001
,
1000
0010
0100
0001
1000
0100
0010
0001
0100
0010
0100
0001
1000
0100
1000
0010
,
0100
0001
1000
0100
0010
0001
0100
0010
1000
0001
0100
0001
1000
0100
0010
0001
,
0100
0010
1000
0001
0100
0001
1000
0010
0100
0001
1000
0100
0010
0001
0100
0010
,
1000
0001
0100
0001
1000
0010
0100
0001
1000
0100
0010
0001
0100
0010
1000
0001
,
0100
0001
1000
0100
0010
0001
0100
0010
1000
0001
0100
0001
1000
0100
1000
0010
,
0100
0001
1000
0100
0010
0001
0100
0010
1000
0001
0100
0001
1000
0010
0100
0001
,
1000
0000
0100
0000
0010
0000
0001
0000
2000
0000
0000
0000
3002
0000
0000
0000
0003
0000
0000
0000
0020
0000
0000
0030
0020
0000
0000
0030
0020
0000
0000
0030
,
0020
0000
0000
0030
2000
0000
3002
0000
2003
0000
3200
0000
0000
0000
0300
0020
0000
0000
0000
0000
0030
0002
0000
0003
0002
0000
0000
0003
0002
0000
0000
0003
,
0002
0000
0000
0000
0003
0002
0000
0003
2000
0000
3200
0000
0320
0000
0032
0000
2003
0000
3020
0000
2030
0000
3002
0000
0203
0000
0320
0000
2030
0000
3200
0000
,
0320
0000
0000
0000
0000
0000
0000
0000
0000
0000
0000
0000
0032
0000
0000
0000
0000
0000
0000
0000
0000
0000
0000
0000
0203
0000
0000
0000
0000
0000
0000
0000
0000
0000
0000
0000
0320
0000
0000
0000
0000
0000
0000
0000
0000
0000
0000
0000
0230
0000
0000
0000
0000
0000
0000
0000
0000
0000
0000
0000
0302
0000
0000
0000
0000
0000
0000
0000
0000
0000
0000
0000
2003
0000
0000
0000
0000
0000
0000
0000
0000
0000
0000
0000
3000
0000
0000
0000
0000
0000
0020
0000
0000
0000
0000
0000
0000
0000
0000
0000
0000
0000
0000
0000
0000
0000
0000
0000
0000
0000
0000
0000
0000
0000
0000
0000
0000
0000
0000
0000
0030
0000
0000
0000
0000
0000
0200
0000
0000
0000
0000
0000
0000
0000
0000
0000
0000
0000
0300
0000
0000
0000
0000
0000
0001
0000
0000
0000
0000
0000
0000
0000
0000
0000
0000
0000
0010
0000
0000
0000
0000
0000
0000
0000
0000
0000
0000
0000
0100
0000
0000
0000
0000
0000
0000
0000
1000
0000
0000
0000
0000
0000
0000
0000
0001
0000
0000
0000
0000
0000
0000
0000
,
1000
0000
0000
0000
0000
0000
0000
0000
0010
0000
0000
0000
0000
0000
0000
0000
0100
0000
0000
0000
0000
0000
0000
0000
0001
0000
0000
0000
0000
0000
0000
0000
0000
0000
0000
0000
1000
0000
0000
0000
0000
0000
0100
0000
0000
0000
0000
0000
1000
0000
0000
0000
0000
0000
0000
0000
0000
0000
0000
0000
0100
0000
0000
0000
0000
0000
0000
0000
0000
0000
0000
0000
0010
0000
0000
0000
0000
0000
0000
0000
0000
0000
0000
0000
0001
0000
0000
0000
0000
0000
0000
0000
0000
0000
0000
0000
0100
0000
0000
0000
0000
0000
0000
0000
0000
0000
0000
0000
0010
0000
0000
0000
0000
0000
0000
0000
0000
0000
0000
0000
1000
0000
0000
0000
0000
0000
0000
0000
0000
0000
0000
0000
0001
0000
0000
0000
0000
0000
0000
0000
0000
0000
0000
0000
0100
0000
0000
0000
0000
0000
0000
0000
0000
0000
0000
0000
0001
0000
0000
0000
0000
0000
0000
0000
0000
0000
0000
0000
1000
0000
0000
0000
0000
0000
0000
0000
0000
0000
0000
0000
0010
0000
0000
0000
0000
0000
0000
0000
0000
0000
0000
0000
,
0100
0001
1000
0100
0010
0001
0100
0010
1000
0001
0100
0001
1000
0010
0100
0001
,
1000
0100
0010
0001
0100
0010
1000
0001
0100
0001
1000
0100
0010
0001
0100
0010
,
1000
0001
0100
0001
1000
0100
1000
0010
0100
0001
1000
0100
0010
0001
0100
0010
,
1000
0001
0100
0001
1000
0010
0100
0001
1000
0100
0010
0001
0100
0010
0100
0001
,
1000
0100
1000
0010
0100
0001
1000
0100
0010
0001
0100
0010
1000
0001
0100
0001
,
1000
0100
0010
0001
0200
0302
2003
3020
2030
3002
0203
0320
2030
3200
0320
0032
,
2003
0000
3200
0300
0000
0000
2000
3000
,
0002
0000
0000
0000
0103
0010
1000
0100
0010
0001
0100
0010
1000
0001
0100
0001
,
1000
0100
1000
0010
0100
0001
1000
0100
0010
0001
0100
0010
1000
0001
0100
0001
,
1000
0010
0100
0001
2000
0000
3001
0000
1000
0010
0100
0001
1000
0100
1000
0010
,
0100
0000
0001
0000
1000
0000
0100
0000
0010
0000
0001
0000
0100
0000
0010
0000
1000
0000
0001
0000
0200
0000
0000
0000
0000
0000
0000
0000
0000
0320
0030
0000
,
0000
2000
3000
0000
0000
0000
0000
0000
0000
0000
0000
0000
0000
0000
0000
0000
0000
0000
0000
0000
0000
0000
0000
0000
0000
0000
0000
0000
0000
0000
0000
0000
;

//---------------dance-single - 18- (owenviau1)----------------
#NOTES:
     dance-single:
     18- (owenviau1):
     Challenge:
     18:
     1.000,1.000,0.044,1.000,1.000,2192.000,8.000,198.000,78.000,7.000:
0000
0000
0000
0000
,
0000
0000
0000
0000
,
0000
0000
M000
M000
M000
M000
M000
M000
,
M000
M000
M000
M000
M000
0000
M000
M000
,
M000
M000
M000
M000
M000
M000
M000
M000
,
M000
M000
M000
M000
M000
M000
M000
M000
,
M000
0000
000M
000M
000M
000M
000M
000M
,
000M
000M
000M
000M
000M
000M
000M
000M
,
000M
000M
000M
000M
000M
000M
000M
000M
,
000M
000M
000M
000M
000M
000M
000M
000M
,
000M
000M
000M
000M
000M
000M
000M
000M
,
000M
000M
000M
000M
000M
000M
000M
000M
,
000M
0000
0000
000M
0000
0000
1000
0100
0010
0001
0100
0010
1000
0010
0100
0001
1000
0100
0010
0001
0100
0010
0100
0001
,
1000
0001
0100
0010
1000
0100
0010
0001
0100
0001
1000
0010
0100
0001
1000
0100
1000
0010
0100
0001
1000
0001
0100
0010
,
1000
0100
0010
0001
0100
0010
0100
0001
1000
0010
0100
0010
1000
0001
1000
0010
0100
0001
1000
0100
0010
0001
0100
0010
,
1000
0001
0010
0001
0100
0010
1000
0100
0010
0001
1000
0100
1000
0001
0010
0001
0100
0010
0100
0001
1000
0001
0100
0010
,
1000
0100
0010
0001
0100
0010
1000
0100
0010
0001
0100
0010
1000
0010
0100
0001
1000
0100
0010
0001
0100
0010
0100
0001
,
1000
0001
0100
0010
1000
0100
0010
0001
0100
0001
1000
0010
0100
0001
1000
0100
1000
0010
0100
0001
1000
0001
0100
0010
,
1000
0100
0010
0001
0100
0010
0100
0001
1000
0010
0100
0010
1000
0001
1000
0010
0100
0001
1000
0100
0010
0001
0100
0010
,
1000
0001
0010
0001
0100
0010
1000
0100
0010
0001
1000
0100
1000
0001
0010
0001
0100
0010
0100
0001
1000
0001
0100
0010
,
1000
0100
0010
0001
0100
0010
1000
0010
0100
0001
1000
0100
0010
0001
0100
0010
0100
0001
1000
0001
0100
0010
1000
0100
,
0010
0001
0100
0001
1000
0010
0100
0001
1000
0100
1000
0010
0100
0001
1000
0001
0100
0010
1000
0010
0100
0001
1000
0100
,
0010
0001
0100
0010
0100
0001
1000
0001
0100
0010
1000
0100
0010
0001
0100
0001
1000
0010
0100
0001
1000
0100
1000
0010
,
0100
0001
1000
0001
0100
0010
1000
0100
0010
0001
0100
0010
0100
0001
1000
0010
0100
0010
1000
0001
1000
0010
0100
0001
,
1000
0100
0010
0001
0100
0010
1000
0001
0010
0001
0100
0010
1000
0100
0010
0001
1000
0100
1000
0001
0010
0001
0100
0010
,
0100
0001
1000
0001
0100
0010
1000
0100
0010
0001
0100
0010
1000
0001
1000
0010
0100
0001
1000
0100
0010
0001
1000
0010
,
0100
0000
0000
0000
0001
0000
0000
0000
1000
0000
0000
0000
0001
0000
0000
0000
0100
0000
0000
0000
0010
0000
0000
0000
2000
0000
0000
0000
0000
0000
0000
0000
0000
0000
0000
0000
3002
0000
0000
0000
0000
0000
0000
0000
0000
0000
0000
0000
0003
0000
0000
0000
0000
0000
0000
0000
0000
0000
0000
0000
0020
0000
0000
0000
0000
0000
0000
0000
0000
0030
0000
0000
0020
0000
0000
0000
0000
0000
0000
0000
0000
0030
0000
0000
0020
0000
0000
0000
0000
0000
0000
0000
0000
0030
0000
0000
,
0020
0000
0000
0030
2000
0000
3002
0000
2003
0000
3200
0000
0000
0000
0300
0020
0000
0000
0000
0000
0030
0002
0000
0003
0002
0000
0000
0003
0002
0000
0000
0003
,
0002
0000
0000
0000
0000
0000
0000
0000
0000
0000
0000
0000
0003
0000
0000
0002
0000
0000
0000
0000
0000
0003
0000
0000
1000
0000
0000
0000
0001
0000
0000
0000
0100
0000
0000
0000
0010
0000
0000
0000
1000
0000
0000
0000
0100
0000
0000
0000
0010
0000
0000
0000
0001
0000
0000
0000
0100
0000
0000
0000
0001
0000
0000
0000
1000
0000
0000
0000
0010
0000
0000
0000
0100
0000
0000
0000
0001
0000
0000
0000
1000
0000
0000
0000
0100
0000
0000
0000
1000
0000
0000
0000
0010
0000
0000
0000
,
0100
0001
1000
0001
0100
0010
1000
0100
0010
0001
0100
0010
0100
0001
1000
0010
0100
0010
1000
0001
1000
0010
0100
0001
,
1000
0100
0010
0001
0100
0010
1000
0001
0010
0001
0100
0010
1000
0100
0010
0001
1000
0100
1000
0001
0010
0001
0100
0010
,
0100
0001
1000
0001
0100
0010
1000
0100
0010
0001
0100
0010
1000
0100
0010
0001
0100
0010
1000
0010
0100
0001
1000
0100
,
0010
0001
0100
0010
0100
0001
1000
0001
0100
0010
1000
0100
0010
0001
0100
0001
1000
0010
0100
0001
1000
0100
1000
0010
,
0100
0001
1000
0001
0100
0010
1000
0100
0010
0001
0100
0010
0100
0001
1000
0010
0100
0010
1000
0001
1000
0010
0100
0001
,
1000
0100
0010
0001
0100
0010
1000
0001
0010
0001
0100
0010
1000
0100
0010
0001
1000
0100
1000
0001
0010
0001
0100
0010
,
0100
0001
1000
0001
0100
0010
1000
0100
0010
0001
0100
0010
1000
0010
0100
0001
1000
0100
0020
0000
0030
0020
0000
0030
,
0020
0000
0030
0020
0000
0030
1000
0001
0100
0001
1000
0010
0100
0001
1000
0100
1000
0010
0100
0001
1000
0001
0100
0010
,
1000
0010
0100
0001
1000
0100
0010
0001
0100
0010
0100
0001
1000
0001
0100
0010
1000
0100
0010
0001
0100
0001
1000
0010
,
0100
0001
1000
0100
1000
0010
0100
0001
1000
0001
0100
0010
1000
0100
0010
0001
0100
0010
0100
0001
1000
0010
0100
0010
,
1000
0001
1000
0010
0100
0001
1000
0100
0010
0001
0100
0010
1000
0001
0010
0001
0100
0010
1000
0100
0010
0001
1000
0100
,
1000
0001
0010
0001
0100
0010
0100
0001
1000
0001
0100
0010
1000
0100
0010
0001
0100
0010
1000
0001
1000
0010
0100
0001
,
1000
0001
0100
0010
1000
0100
0010
0001
0100
0001
1000
0010
0100
0001
1000
0100
1000
0010
0100
0001
1000
0001
0100
0010
,
1000
0100
0010
0001
0100
0010
0100
0001
1000
0010
0100
0010
1000
0001
1000
0010
0100
0001
1000
0100
0010
0001
0100
0010
,
1000
0001
0010
0001
0100
0010
1000
0100
0010
0001
1000
0100
1000
0001
0010
0001
0100
0010
0100
0001
1000
0001
0100
0010
,
1000
0100
0010
0001
0100
0010
1000
0100
0010
0001
0100
0010
1000
0010
0100
0001
1000
0100
0010
0001
0100
0010
0100
0001
,
1000
0001
0100
0010
1000
0100
0010
0001
0100
0001
1000
0010
0100
0001
1000
0100
1000
0010
0100
0001
1000
0001
0100
0010
,
1000
0000
0000
0000
0100
0000
0000
0000
0010
0000
0000
0000
0001
0000
0000
0000
0100
0000
0000
0000
0010
0000
0000
0000
2000
0000
0000
0000
0000
0000
0000
0000
0000
0000
0000
0000
0000
0000
0000
0000
0000
0000
0000
0000
0000
0002
0000
0000
0000
0000
0000
0003
0000
0000
0000
0000
0000
0000
0000
0000
0000
0000
0000
0000
0000
0000
0000
0000
0000
0000
0000
0000
0000
0000
0000
0000
0000
0000
0000
0000
0000
0000
0000
0000
0000
0000
0000
0000
0000
0000
0000
0000
0000
0000
0000
0000
,
0000
0000
0000
0000
0000
0000
0020
0000
0000
0000
0000
0000
0000
0000
0000
0030
0000
0000
0000
0000
0000
0000
0000
0000
3002
0000
0000
0000
0000
0000
0000
0000
0000
0000
0000
0000
0000
0000
0000
0000
0000
0000
0000
0000
0003
0000
0000
0000
0000
0000
0000
0000
0000
0000
0000
0000
0000
0000
0000
0000
2000
0000
0000
0000
0000
0000
0000
0000
0000
0000
0000
0000
0000
0000
0000
0000
0000
0000
3002
0000
0000
0000
0000
0000
0000
0000
0000
0200
0000
0000
0000
0000
0000
0300
0000
0000
,
0000
0000
0000
0000
2003
3200
2300
3020
0230
0302
2003
3200
0320
0032
2003
3020
,
0230
0000
0302
0003
0000
0000
2000
3000
,
0020
0000
0000
0000
0230
0302
2003
3020
2030
3002
0203
0320
2030
3200
0320
0032
,
2003
0000
3200
0300
0000
0000
0020
0030
,
0002
0000
0000
0000
2003
3020
0230
0302
2003
3200
2300
3020
0230
0302
2003
3020
,
0230
0000
0302
0003
0000
0000
2000
3000
,
0020
0000
0000
0000
0230
0302
2003
3020
2030
3002
0203
0320
2030
3200
0320
0032
,
2003
0000
3200
0300
0000
0000
0020
0030
,
0000
0000
0000
0000
0000
0000
1000
0100
0010
0001
1000
0100
1000
0001
0010
0001
0100
0010
0100
0001
1000
0001
0100
0010
,
1000
0100
0010
0001
0100
0010
1000
0100
0010
0001
0100
0010
1000
0010
0100
0001
1000
0100
0010
0001
0100
0010
0100
0001
,
1000
0001
0100
0010
1000
0100
0010
0001
0100
0001
1000
0010
0100
0001
1000
0100
1000
0010
0100
0001
1000
0001
0100
0010
,
1000
0100
0010
0001
0100
0010
1000
0001
0100
0001
1000
0010
0100
0001
1000
0100
0010
0001
0100
0010
1000
0001
1000
0010
,
0100
0000
0000
0000
0001
0000
0000
0000
1000
0000
0000
0000
0100
0000
0000
0000
0010
0000
0000
0000
0001
0000
0000
0000
2000
0000
0000
0000
0000
0000
0000
0000
0000
0000
0000
0000
3002
0000
0000
0000
0000
0000
0000
0000
0000
0000
0000
0000
0003
0000
0000
0000
0000
0000
0000
0000
0000
0000
0000
0000
0020
0000
0000
0000
0000
0000
0000
0000
0000
0030
0000
0000
0020
0000
0000
0000
0000
0000
0000
0000
0000
0030
0000
0000
0020
0000
0000
0000
0000
0000
0000
0000
0000
0030
0000
0000
,
0020
0000
0000
0030
2000
0000
3002
0000
2003
0000
3200
0000
0000
0000
0300
0020
0000
0000
0000
0000
0030
0002
0000
0003
0002
0000
0000
0003
0002
0000
0000
0003
,
0002
0000
0000
0000
0003
0002
0000
0003
2000
0000
3200
0000
0320
0000
0032
0000
2003
0000
3020
0000
2030
0000
3002
0000
0203
0000
0320
0000
2030
0000
3200
0000
,
0320
0000
0000
0000
0000
0000
0032
0000
0000
0000
0000
0000
0203
0000
0000
0000
0000
0000
0320
0000
0000
0000
0000
0000
0230
0000
0000
0000
0000
0000
0302
0000
0000
0000
0000
0000
2003
0000
0000
0000
0000
0000
3000
0000
0000
0020
0000
0000
0000
0000
0000
0000
0000
0000
0000
0000
0000
0000
0000
0000
0030
0000
0000
0200
0000
0000
0000
0000
0000
0300
0000
0000
0001
0000
0000
0000
0000
0000
0010
0000
0000
0000
0000
0000
0100
0000
0000
0000
1000
0000
0000
0000
0001
0000
0000
0000
,
1000
0000
0000
0000
0010
0000
0000
0000
0100
0000
0000
0000
0001
0000
0000
0000
1000
0000
0000
0100
0000
0000
1000
0000
0100
0000
0000
0000
0010
0000
0000
0000
0001
0000
0000
0000
1000
0000
0000
0000
0010
0000
0000
0000
0100
0000
0000
0000
0001
0000
0000
0000
1000
0000
0000
0000
0001
0000
0000
0000
0100
0000
0000
0000
0010
0000
0000
0000
1000
0000
0000
0000
0010
0000
0000
0000
0100
0000
0000
0000
0001
0000
0000
0000
1000
0000
0000
0000
0100
0000
0000
0000
0010
0000
0000
0000
,
0001
0100
0010
0100
0001
1000
0001
0100
0010
1000
0100
0010
0001
0100
0001
1000
0010
0100
0001
1000
0100
1000
0010
0100
,
0001
1000
0001
0100
0010
1000
0100
0010
0001
0100
0010
0100
0001
1000
0010
0100
0010
1000
0001
1000
0010
0100
0001
1000
,
0100
0010
0001
0100
0010
1000
0001
0010
0001
0100
0010
1000
0100
0010
0001
1000
0100
1000
0001
0010
0001
0100
0010
0100
,
0001
0000
0000
2000
0000
0000
3100
0010
0001
0100
0010
1000
0001
1000
0010
0100
0001
1000
0001
0100
0010
1000
0100
0010
,
0001
0100
0001
1000
0010
0100
0001
1000
0100
1000
0010
0100
0001
1000
0001
0100
0010
1000
0100
0010
0001
0100
0010
0100
,
0001
1000
0010
0100
0010
1000
0001
1000
0010
0100
0001
1000
0100
0010
0001
0100
0010
1000
0001
0010
0001
0100
0010
1000
,
0100
0010
0001
1000
0100
1000
0001
0010
0001
0100
0010
0100
0001
1000
0001
0100
0010
1000
0100
0010
0001
0100
0010
1000
,
0100
0010
0001
0100
0010
1000
0010
0100
0001
1000
0100
0010
0001
0100
0010
0100
0001
1000
0001
0100
0010
1000
0100
0010
,
0001
0100
0001
1000
0010
0100
0001
1000
0100
1000
0010
0100
0001
1000
0010
0100
0001
1000
0001
0100
0010
1000
0100
0010
,
0001
0100
0001
1000
0010
0100
0001
1000
0100
1000
0010
0100
0001
1000
0001
0100
0010
1000
0100
0010
0001
0100
0010
0100
,
0001
1000
0010
0100
0010
1000
0001
1000
0010
0100
0001
1000
0100
0010
0001
0100
0010
1000
0001
0010
0001
0100
0010
1000
,
0100
0010
0001
1000
0100
1000
0001
0010
0001
0100
0010
0100
0001
1000
0001
0100
0010
1000
0100
0010
0001
0100
0010
1000
,
0100
0010
0001
0100
0010
1000
0010
0100
0001
1000
0100
0010
0001
0100
0010
0100
0001
1000
0001
0100
0010
1000
0100
0010
,
0001
0100
0001
1000
0010
0100
0001
1000
0100
1000
0010
0100
0001
1000
0010
0100
0001
1000
0001
0100
0010
1000
0100
0010
,
0001
0100
0001
1000
0010
0100
0001
1000
0100
1000
0010
0100
0001
1000
0001
0100
0010
1000
0100
0010
0001
0100
0010
0100
,
0001
1000
0010
0100
0010
1000
0001
1000
0010
0100
0001
1000
0100
0010
0001
0100
0010
1000
0001
0010
0001
0100
0010
1000
,
0100
0010
0001
1000
0100
1000
0001
0010
0001
0100
0010
0100
0001
1000
0001
0100
0010
1000
0100
0010
0001
0100
0010
1000
,
0100
0010
0001
0100
0010
1000
0010
0100
0001
1000
0100
0010
0001
0100
0010
0100
0001
1000
0001
0100
0010
1000
0100
0010
,
0001
0100
0001
1000
0010
0100
0001
1000
0100
1000
0010
0100
0001
1000
0010
0100
0001
1000
0001
0100
0010
1000
0100
0010
,
0001
0100
0001
1000
0010
0100
0001
1000
0100
1000
0010
0100
0001
1000
0001
0100
0010
1000
0100
0010
0001
0100
0010
0100
,
0001
1000
0010
0100
0010
1000
0001
1000
0010
0100
0001
1000
0100
0010
0001
0100
0010
1000
0001
0010
0001
0100
0010
1000
,
0100
0010
0001
1000
0100
1000
0001
0010
0001
0100
0010
0100
0001
1000
0001
0100
0010
1000
0100
0010
0001
0100
0010
1000
,
0100
0010
0001
0100
0010
1000
0004
0000
0000
0000
0000
0000
2003
0000
0000
3200
0000
0000
0320
0000
0032
0000
2003
0000
,
3002
0000
0000
0000
0000
0000
1003
0001
0100
0001
1000
0010
0100
0001
1000
0100
1000
0010
0100
0001
1000
0001
0100
0010
,
1000
0010
0100
0001
1000
0100
0010
0001
0100
0010
0100
0001
1000
0001
0100
0010
1000
0100
0010
0001
0100
0001
1000
0010
,
0100
0001
1000
0100
1000
0010
0100
0001
1000
0001
0100
0010
1000
0100
0010
0001
0100
0010
0100
0001
1000
0010
0100
0010
,
1000
0001
1000
0010
0100
0001
1000
0100
0010
0001
0100
0010
1000
0001
0010
0001
0100
0010
1000
0100
0010
0001
1000
0100
,
1000
0001
0010
0001
0100
0010
0100
0001
1000
0001
0100
0010
1000
0100
0010
0001
0100
0010
1000
0001
1000
0010
0100
0001
,
1000
0001
0100
0010
1000
0100
0010
0001
0100
0001
1000
0010
0100
0001
1000
0100
1000
0010
0100
0001
1000
0001
0100
0010
,
1000
0000
0000
0000
0100
0000
0000
0000
0010
0000
0000
0000
0001
0000
0000
0000
0100
0000
0000
0000
0010
0000
0000
0000
1000
0000
0000
0000
0000
0000
0000
0000
0000
0000
0000
0000
0002
0000
0000
0000
0000
0000
0000
0000
0000
0000
0000
0000
1103
0000
0000
0000
0000
0000
0000
0000
0000
0000
0000
0000
0020
0000
0000
0000
0000
0000
0000
0000
0000
1031
0000
0000
0000
0000
0000
0000
0000
0000
0000
0000
0000
0000
0000
0000
0200
0000
0000
0000
0000
0000
0000
0000
0000
0000
0000
0000
,
1310
2000
3101
0020
1031
0002
0113
0002
,
1103
0000
0000
0020
0000
0000
1030
0100
0010
0001
0100
0010
1000
0010
0100
0001
1000
0100
0010
0001
0100
0010
0100
0001
,
1000
0001
0100
0010
1000
0100
0010
0001
0100
0001
1000
0010
0100
0001
1000
0100
1000
0010
0100
0001
1000
0001
0100
0010
,
1000
0001
0100
0001
1000
0010
0100
0001
1000
0100
1000
0010
0100
0001
1000
0001
0100
0010
1000
0010
0100
0001
1000
0100
,
0010
0001
0100
0010
0100
0001
1000
0001
0100
0010
1000
0100
0010
0001
0100
0001
1000
0010
0100
0001
1000
0100
1000
0010
,
0100
0001
1000
0001
0100
0010
1000
0100
0010
0001
0100
0010
0100
0001
1000
0010
0100
0010
1000
0001
1000
0010
0100
0001
,
1000
0100
0010
0001
0100
0010
1000
0001
0010
0001
0100
0010
1000
0100
0010
0001
1000
0100
1000
0001
0010
0001
0100
0010
,
0100
0001
1000
0001
0100
0010
1000
0100
0010
0001
0100
0010
1000
0001
1000
0010
0100
0001
1000
0001
0100
0010
1000
0100
,
0010
0001
0100
0001
1000
0010
0100
0001
1000
0100
1000
0010
0100
0001
1000
0001
0100
0010
1000
0100
0010
0001
0100
0010
,
0100
0000
0000
0000
0001
0000
0000
0000
1000
0000
0000
0000
0010
0000
0000
0000
0100
0000
0000
0000
0010
0000
0000
0000
2000
0000
0000
0000
0000
0000
0000
0000
0000
0000
0000
0000
3002
0000
0000
0000
0000
0000
0000
0000
0000
0000
0000
0000
0003
0000
0000
0000
0000
0000
0000
0000
0000
0000
0000
0000
0020
0000
0000
0000
0000
0000
0000
0000
0000
0030
0000
0000
0020
0000
0000
0000
0000
0000
0000
0000
0000
0030
0000
0000
0020
0000
0000
0000
0000
0000
0000
0000
0000
0030
0000
0000
,
0020
0000
0000
0030
2000
0000
3002
0000
2003
0000
3200
0000
0000
0000
0300
0020
0000
0000
0000
0000
0030
0002
0000
0003
0002
0000
0000
0003
0002
0000
0000
0003
,
0002
0000
0000
0000
0003
0002
0000
0003
2000
0000
3200
0000
0320
0000
0032
0000
2003
0000
3020
0000
2030
0000
3002
0000
0203
0000
0320
0000
2030
0000
3200
0000
,
0320
0000
0000
0000
0000
0000
0032
0000
0000
0000
0000
0000
0203
0000
0000
0000
0000
0000
0320
0000
0000
0000
0000
0000
0230
0000
0000
0000
0000
0000
0302
0000
0000
0000
0000
0000
2003
0000
0000
0000
0000
0000
3000
0000
0000
0020
0000
0000
0000
0000
0000
0000
0000
0000
0000
0000
0000
0000
0000
0000
0030
0000
0000
0200
0000
0000
0000
0000
0000
0300
0000
0000
0001
0000
0000
0000
0000
0000
0010
0000
0000
0000
0000
0000
0100
0000
0000
0000
1000
0000
0000
0000
0001
0000
0000
0000
,
1000
0000
0000
0000
0010
0000
0000
0000
0100
0000
0000
0000
0001
0000
0000
0000
1000
0000
0000
0100
0000
0000
1000
0000
0100
0000
0000
0000
0010
0000
0000
0000
0001
0000
0000
0000
1000
0000
0000
0000
0010
0000
0000
0000
0100
0000
0000
0000
0001
0000
0000
0000
1000
0000
0000
0000
0001
0000
0000
0000
0100
0000
0000
0000
0010
0000
0000
0000
1000
0000
0000
0000
0010
0000
0000
0000
0100
0000
0000
0000
0001
0000
0000
0000
1000
0000
0000
0000
0100
0000
0000
0000
0010
0000
0000
0000
,
0001
0100
0010
0100
0001
1000
0001
0100
0010
1000
0100
0010
0001
0100
0001
1000
0010
0100
0001
1000
0100
1000
0010
0100
,
0001
1000
0001
0100
0010
1000
0100
0010
0001
0100
0010
0100
0001
1000
0010
0100
0010
1000
0001
1000
0010
0100
0001
1000
,
0100
0010
0001
0100
0010
1000
0001
0010
0001
0100
0010
1000
0100
0010
0001
1000
0100
1000
0001
0010
0001
0100
0010
1000
,
0001
0100
0010
1000
0001
1000
0010
0100
0001
1000
0001
0100
0010
1000
0100
0010
0001
0100
0001
1000
0010
0100
0001
1000
,
0100
1000
0010
0100
0001
1000
0001
0100
0010
1000
0100
0010
0001
0100
0010
0100
0001
1000
0010
0100
0010
1000
0001
1000
,
0010
0000
0100
0000
0001
0000
1000
0000
0100
0000
0010
0000
0200
0000
0000
0302
0000
0000
2003
0000
0000
3020
0000
0000
2030
0000
0000
3002
0000
0000
0203
0000
0000
0320
0000
0000
2030
0000
0000
3200
0000
0000
0320
0000
0000
0032
0000
0000
,
2003
0000
3200
0300
0000
0000
2000
3000
,
0002
0000
0000
0000
0000
0000
0013
0100
0001
1000
0001
0100
0010
1000
0100
0010
0001
0100
0001
1000
0010
0100
0001
1000
,
0100
1000
0010
0100
0001
1000
0010
0100
0001
1000
0001
0100
0010
1000
0100
0010
0001
0100
0001
1000
0010
0100
0001
1000
,
0100
1000
0010
0100
0001
1000
0020
0000
0000
1030
0000
0000
0001
0100
0010
0100
0001
1000
0010
0100
0010
1000
0001
1000
,
0010
0100
0001
1000
0100
0010
0001
0100
0010
1000
0001
0010
0001
0100
0010
1000
0100
0010
0001
1000
0010
0100
0002
0003
,
0000
2000
3000
0000
0000
0000
0000
0000
0000
0000
0000
0000
0000
0000
0000
0000
0000
0000
0000
0000
0000
0000
0000
0000
;
