#TITLE:Konamized v2;
#SUBTITLE:;
#ARTIST:RushJet1;
#TITLETRANSLIT:;
#SUBTITLETRANSLIT:;
#ARTISTTRANSLIT:;
#CREDIT:;
#BANNER:Konamized-banner.png;
#BACKGROUND:konamized-bg.png;
#LYRICSPATH:;
#CDTITLE:!kommi-cdtitle.png;
#MUSIC:8bp055-01-rushjet1-konamized.mp3;
#OFFSET:-0.480;
#SAMPLESTART:32.120;
#SAMPLELENGTH:12.000;
#SELECTABLE:YES;
#BPMS:0.000=112.940,104.000=56.480,111.000=112.940;
#STOPS:;
#BGCHANGES:;
// cache tags:
#FIRSTBEAT:0.000;
#LASTBEAT:192.917;
#SONGFILENAME:Songs/KBU/Konamized (Kommisar)/Konamized.sm;
#HASMUSIC:1;
#HASBANNER:1;
#MUSICLENGTH:108.805;
// end cache tags

//---------------dance-single - ----------------
#NOTES:
     dance-single:
     :
     Hard:
     12:
     1.000,1.000,1.000,1.000,1.000,686.000,344.000,301.000,0.000,4.000:
1000
0001
0001
1000
0001
0100
0000
0010
0000
0010
0100
1000
0100
0020
0000
0030
,
1000
0000
0001
0000
0001
0000
1000
0000
0001
0000
0100
0000
0000
0000
0010
0000
0000
0000
0010
0000
0100
0000
1000
0000
0011
0000
1000
0001
1000
0000
0100
0000
,
0001
0010
1001
0100
0010
0100
0011
0100
0000
0100
0011
0100
0010
0001
1100
0000
,
0001
0000
0010
0000
1001
0000
0100
0000
0010
0000
0100
0000
1001
0000
0010
0000
0000
0000
0010
0000
0101
0000
1000
0000
0100
0000
0001
1000
0001
0000
0100
0000
,
2200
3300
0022
0033
0022
0033
2200
3300
2002
3003
0022
0033
0000
0000
0220
0330
0000
0000
0220
0330
2200
3300
0220
0330
0202
0303
0022
0033
0000
0000
0000
0000
,
2200
3300
0022
0033
0022
0033
2200
3300
0022
0033
0220
0330
0000
0000
0220
0330
0000
0000
0220
0330
2020
3030
0220
0330
0202
0303
0022
0000
0033
0000
0000
0000
,
1100
0000
0000
0010
0000
0000
0001
0000
0000
0010
0000
0000
0100
0000
0000
0010
0000
0000
0101
0000
0000
1010
0000
0000
0101
0000
0000
0010
0100
0000
0001
0000
0010
1000
0000
0000
0101
0000
0000
0010
0100
0000
0001
0000
0010
0100
0000
0000
,
1001
0010
0100
1001
0100
0010
0101
1000
0010
1001
0010
0100
1010
0100
1001
0010
,
1001
0100
1000
0001
0010
1100
0010
1001
0110
0001
0100
0010
0100
1001
0100
1000
,
0001
0000
1200
0000
0301
0000
0001
0000
0210
0000
0301
0000
0001
0000
1200
0000
0301
0000
0001
0000
0210
0000
0301
0000
0110
0000
1001
0010
0100
0000
1000
0000
,
0001
0000
0000
0010
0000
0000
0101
0000
0000
1000
0000
0000
0101
0000
0000
0010
0000
0000
1100
0000
0000
0011
0000
0000
1100
0000
0000
0010
0000
0000
0100
0000
0000
1010
0000
0000
0001
0000
0000
1000
0000
0000
0110
0000
0000
1000
0000
0010
,
0101
0000
1000
0000
0011
0000
1100
0000
0010
0000
1001
0000
0110
0000
0011
0000
0101
0000
1000
0000
0001
0000
1000
0000
0001
0010
0100
1000
0001
0010
0100
1000
,
0010
0000
0000
0001
0000
0000
1010
0000
0000
0100
0000
0000
1001
0000
0000
0100
0000
0000
0011
0000
0000
0110
0000
0000
1100
0000
0000
0001
0000
0000
0100
0000
0000
0011
0000
0000
1000
0000
0000
0101
0000
0000
0010
0000
0000
0100
0000
0010
,
1001
0100
0011
1100
0010
0001
0010
0100
0010
0100
1000
0100
0010
0100
0010
0001
,
2200
3300
2200
3300
0022
0033
0202
0303
0220
0330
2020
3030
0220
0330
0022
0033
2002
3003
0220
0330
2020
3030
0202
0000
0303
0000
1001
0010
0100
0000
0001
0000
,
2200
3300
2200
3300
0022
0033
0202
0303
0220
0330
0202
0303
0022
0033
0202
0303
2002
3003
2002
3003
0022
0033
2020
0000
3030
0000
1001
0010
0100
0000
0001
0000
,
2200
3300
2200
3300
0220
0330
0022
0033
2200
3300
2200
3300
0000
0000
0220
0330
0000
0000
0220
0330
0022
0033
2002
3003
0220
0330
0220
0330
0000
0000
0000
0000
,
2200
3300
2200
3300
2020
3030
2200
3300
0022
0033
0220
0330
0000
0000
0220
0330
0202
0303
0202
0303
0220
0330
2020
3030
2200
3300
0220
0330
0000
0000
0000
0000
,
0022
0033
0022
0033
0220
0330
2200
3300
0022
0033
0022
0033
0000
0000
0220
0330
0000
0000
0220
0330
2020
3030
2200
3300
0220
0330
0220
0330
0000
0000
0000
0000
,
0022
0033
0022
0033
2200
3300
2020
3030
2002
3003
0022
0033
0000
0000
2002
3003
1001
0000
1001
0000
1001
0000
1001
0000
1001
0000
2002
0000
0100
0000
3013
0000
,
1100
0010
0001
0010
0100
0011
1000
0110
1001
0010
0001
0010
1100
0010
0001
0010
,
0101
0010
0001
1000
0001
1100
0010
0101
1010
0001
0010
0100
0011
0100
1000
0100
,
1010
0001
0100
0010
1000
0101
1000
0110
1001
0010
0100
0010
1100
0001
0100
0010
,
0101
0010
0001
0010
0100
0011
0100
1010
0101
0010
0001
0010
0100
1010
0001
0110
,
2200
0000
3300
0000
0011
0110
0000
1100
0110
0011
0110
0101
0110
1010
0110
1001
,
1100
0110
0011
0101
1001
0101
0000
0011
0110
1100
1010
0110
0101
0110
1010
0110
,
2002
0000
3003
0000
0000
0010
0000
0001
0010
0000
0000
0100
0000
0000
0000
0000
1001
0000
0000
0000
0000
0010
0000
0100
0010
0000
0000
1000
0000
0000
0000
0010
,
1001
0000
0000
0000
0000
0000
0100
0010
0100
0000
0000
0000
0000
0000
0010
0000
0100
0000
0000
0000
0000
0000
0000
0000
1001
0000
0100
0010
1001
0000
1001
0000
,
0010
0100
1001
0000
1001
0100
0010
0100
1001
0000
0100
0000
0010
0000
0001
0000
0010
0000
0100
0000
1010
0000
0011
0000
1001
0000
0100
0000
0010
0000
0100
0000
,
1000
0100
0011
0110
1010
0110
0101
1010
1001
0101
0120
0000
1000
1000
0101
1030
,
0000
1000
0110
0011
0110
0001
0110
0110
0001
1100
0010
0101
0010
1100
1000
0011
,
0000
0100
0110
0000
1002
0010
0010
1000
0010
0100
0000
0010
0000
0010
0100
1000
,
0100
0010
0000
0000
1003
0001
0001
1000
0001
0100
0000
0010
0000
0010
0100
0010
,
0001
0000
0010
0000
0000
0000
0000
0000
2200
3300
0022
0033
0022
0033
2200
3300
0022
0033
0202
0303
0000
0000
0220
0330
0000
0000
0220
0330
2200
3300
2002
3003
,
0202
0303
0220
0330
0000
0000
0000
0000
2200
3300
0022
0033
0022
0033
2200
3300
0022
0033
0202
0303
0000
0000
0220
0330
0000
0000
0220
0330
0202
0303
2002
3003
,
0022
0033
0220
0330
0000
0000
0000
0000
2200
3300
0022
0033
0022
0033
2200
3300
0022
0033
2020
3030
0000
0000
0220
0330
0000
0000
0220
0330
0202
0303
2002
3003
,
0022
0033
0202
0303
0000
0000
0000
0000
2200
3300
0022
0033
0022
0033
2200
3300
0022
0033
2020
3030
0000
0000
0220
0330
0000
0000
0220
0330
0202
0303
0220
0330
,
2102
0000
0000
0000
0000
0000
3003
0000
0000
0000
0000
0000
0022
0000
0000
0000
0000
0000
0033
0000
0000
0000
0000
0000
1000
0000
0000
0000
0000
0000
0000
0000
0000
0000
0000
0000
1000
0000
0000
0000
0000
0000
0000
0000
0000
0000
0000
0000
0011
0000
0000
0000
0000
0000
0000
0000
0000
0000
0000
0000
0100
0000
0000
0000
0000
0000
0000
0000
0000
0000
0000
0000
1000
0000
0000
0000
0000
0000
0000
0000
0000
0000
0000
0000
0100
0000
0000
0000
0000
0000
0000
0000
0000
0000
0000
0000
0010
0000
0000
0000
0000
0000
0000
0000
0000
0000
0000
0000
0001
0000
0000
0000
0000
0000
0000
0000
0000
0000
0000
0000
1010
0000
0000
0000
0000
0000
0000
0000
0000
0000
0000
0000
0101
0000
0000
0000
0000
0000
0000
0000
0000
0000
0000
0000
0110
0000
0000
0000
0000
0000
0000
0000
0000
0000
0000
0000
0001
0000
0000
0000
0010
0000
0000
0000
0000
0000
0000
0000
1000
0000
0000
0000
0000
0000
0000
0000
0001
0000
0000
0000
0010
0000
0000
0000
0000
0000
0000
0000
0000
0000
0000
0000
,
0100
0000
0000
1000
0010
0000
0100
0000
1000
0010
0000
0000
0101
0000
0000
1000
0000
0000
0010
0000
0000
1001
0000
0000
0100
0000
0000
0001
0000
0000
1100
0000
0000
0010
0000
0000
1000
0000
0000
0110
0000
0000
1000
0000
0000
0001
0000
0000
,
0110
1000
0101
0010
1001
0100
0010
0001
1000
0101
0010
1100
0011
0100
1000
0010
,
0100
1001
0010
0100
0011
0100
0010
0100
0001
0010
0100
0010
1000
0001
1000
0010
,
0100
0010
0100
0001
1100
0010
1000
0011
0100
0010
1001
0010
1100
0010
0100
1001
,
0100
0010
1100
0010
0101
1000
0100
1001
0010
0100
0011
0100
0010
0001
1000
0001
,
1100
0010
1001
0010
1100
0001
0100
0011
1000
0010
1001
0100
0010
1100
0010
0001
,
1010
0100
1001
0010
1100
0110
0101
0110
1010
0101
2002
0000
0000
0000
0000
0000
,
3003
0000
0000
0000
0011
0110
1001
1010
1100
0110
2002
0000
0000
0000
0000
3003
,
0000
0000
0000
0000
0011
0110
1001
0101
1010
1100
0220
0000
0000
0000
0000
0330
,
0000
0000
0000
0000
1010
0110
0011
1100
0011
1010
0220
0000
0000
0000
0000
0000
,
0000
0330
0000
0000
0000
0000
0000
0000
0000
0000
0000
0000
0000
0000
0000
0000
;

//---------------dance-single - ----------------
#NOTES:
     dance-single:
     :
     Challenge:
     12:
     1.000,1.000,1.000,1.000,1.000,724.000,188.000,177.000,0.000,7.000:
1000
0100
0100
1000
0010
0100
0000
0001
0000
0001
0010
0100
1000
0100
0000
0000
,
1000
0000
0100
0000
0100
0000
1000
0000
0010
0000
0100
0000
0000
0000
0001
0000
0000
0000
0001
0000
1000
0000
0100
0000
0001
0000
0001
1000
0001
0000
0001
0000
,
1000
0100
0011
1000
0010
0100
1010
0001
0000
0001
1010
0100
1000
0100
1001
0000
,
1000
0000
0100
0000
0011
0000
1000
0000
0010
0000
0100
0000
1010
0000
0001
0000
0000
0000
0001
0000
1010
0000
0100
0000
0001
0000
0001
1000
0001
0000
0100
0000
,
1011
0100
0101
1000
0010
0100
1010
0001
0000
0001
1010
0100
1000
0100
1001
0000
,
1000
0100
0101
1000
0010
0100
1010
0001
0000
0001
1010
0100
0010
0001
0110
0000
,
0200
0000
0000
0000
0000
0000
0300
0000
0000
0000
0000
0000
0010
0000
0000
0000
0000
0000
0000
0000
0000
0000
0000
0000
1001
0000
0000
0000
0000
0000
0000
0000
0000
0000
0000
0000
0010
0000
0000
0000
0000
0000
0000
0000
0000
0000
0000
0000
0100
0000
0000
0000
0000
0000
0000
0000
0000
0000
0000
0000
0010
0000
0000
0000
0000
0000
0000
0000
0000
0000
0000
0000
1200
0000
0000
0000
0000
0000
0300
0000
0000
0000
0000
0000
0020
0000
0000
0000
0000
0000
0030
0000
0000
0000
0000
0000
0002
0000
0000
0000
0000
0000
0003
0000
0000
0000
0000
0000
0100
0000
0000
0000
0020
0000
0000
0000
0030
0000
0000
0000
1001
0000
0000
0000
0000
0000
0000
0000
0200
0000
0000
0000
0310
0000
0000
0000
0000
0000
0000
0000
0000
0000
0000
0000
2001
0000
0000
0000
3000
0000
0000
0000
0000
0000
0000
0000
0010
0000
0000
0000
0200
0000
0000
0000
0300
0000
0000
0000
1010
0000
0000
0000
0000
0000
0000
0000
0002
0000
0000
0000
0103
0000
0000
0000
0000
0000
0000
0000
0000
0000
0000
0000
,
0021
0030
0000
0100
0000
0000
0011
0000
0000
2000
3000
0000
0100
0000
0000
1000
0000
0000
0021
0030
0000
0100
0000
0000
0010
0000
0000
2000
3000
0000
0101
0000
0000
1000
0000
0000
0020
0030
0000
0100
0000
0000
2001
3000
0000
0010
0000
0000
,
0200
0300
0000
1000
0000
0000
0110
0000
0000
0001
0000
0000
1000
0000
0000
0020
0030
0000
1100
0000
0000
0002
0003
0000
0020
0030
0000
0100
0000
0000
1001
0000
0000
0100
0000
0000
0010
0000
0000
0200
0300
0000
0011
0000
0000
0100
0000
0000
,
2000
3000
0012
0003
2000
3000
2000
3000
0120
0030
2000
3000
2000
3000
0012
0003
2000
3000
2000
3000
0120
0030
2000
3000
0011
0000
0100
0010
0100
0000
0100
0000
,
0010
0000
0000
0000
0100
0000
0000
0000
2001
0000
3000
0000
0010
0000
0000
0000
2000
0000
3000
0000
0001
0000
0000
0000
1200
0000
0300
0000
0020
0000
0030
0000
0200
0000
0300
0000
0010
0000
0000
0000
0101
0000
0000
0000
2000
0000
3000
0000
0010
0000
0000
0000
0100
0000
0000
0000
0021
0000
0030
0000
1000
0000
0000
0100
,
0020
0030
0100
0000
1002
0003
0200
0300
0010
0000
2000
3000
0201
0300
0020
0030
0002
0003
0010
0000
1100
0000
0010
0000
0001
0010
0100
1000
0001
0010
0100
1000
,
0010
0000
0000
0000
0100
0000
0000
0000
2001
0000
3000
0000
0010
0000
0000
0000
2000
0000
3000
0000
0100
0000
0000
0000
1002
0000
0003
0000
0020
0000
0030
0000
0200
0000
0300
0000
1000
0000
0000
0000
0011
0000
0000
0000
2000
0000
3000
0000
0010
0000
0000
0000
0100
0000
0000
0000
0021
0000
0030
0000
1000
0000
0000
0100
,
0020
0030
0100
0000
1002
0003
0200
0300
0001
0000
0010
0000
1100
0000
0010
0000
0001
0000
0100
0000
1001
0000
0010
0000
0001
0000
0100
0000
1001
0000
0010
0000
,
0100
0000
0100
0000
1001
0000
0100
0000
0010
0000
0100
0000
1010
0000
0100
0000
0001
0000
0100
0000
1100
0000
0010
0000
0000
0000
0001
0010
0101
0000
1000
0000
,
0100
0000
0100
0000
1001
0000
0100
0000
0010
0000
0100
0000
1010
0000
0100
0000
0001
0000
0100
0000
1100
0000
0010
0000
0000
0000
0001
0010
0101
0000
1000
0000
,
0100
0100
1010
0001
0100
0100
1001
0010
0000
0010
0101
1000
0010
0010
1100
0000
,
0100
0100
1001
0100
0010
0100
1001
0100
0001
0001
1010
0100
1000
0100
0011
0000
,
1000
1000
0101
0010
1000
1000
0011
0100
0000
0100
1010
0001
0100
0100
1001
0000
,
0010
0000
0010
0000
1100
0000
0010
0000
0001
0000
0010
0000
0101
0000
0010
0000
1001
0000
1001
0000
1001
0000
1001
0000
1001
0000
2012
0000
0200
0300
3023
0030
,
1002
0003
0100
0000
1001
0000
0100
0000
1000
0000
0020
0030
1100
0000
0002
0003
0200
0300
0010
0000
1001
0000
0010
0000
0002
0003
0100
0000
1010
0000
0001
0000
,
0020
0030
0100
0000
1010
0000
0001
0000
0010
0000
0200
0300
1001
0000
0020
0030
2000
3000
0100
0000
0011
0000
0100
0000
0020
0030
1000
0000
0110
0000
0001
0000
,
0200
0300
0010
0000
1001
0000
0100
0000
0010
0000
2000
3000
0101
0000
0020
0030
0200
0300
1000
0000
0110
0000
0001
0000
0020
0030
0100
0000
1010
0000
0001
0000
,
0200
0300
0010
0000
1100
0000
0010
0000
0001
0000
2000
3000
0101
0000
0020
0030
0002
0003
0100
0000
1010
0000
0001
0000
0010
0000
0200
0300
1001
0000
0020
0030
,
2102
3003
0000
0000
1001
0000
0000
0000
0010
0000
0100
0000
0011
0000
1000
0000
0100
0000
0100
0000
1010
0000
0001
0000
0010
0000
0100
0000
1001
0000
0100
0000
,
0100
0010
0101
0010
0100
1000
0011
1000
0100
0100
0011
1000
0001
0010
1100
0010
,
1101
0000
0000
0000
0000
0100
0000
0010
0100
0000
0000
1000
0000
0000
0000
0000
0100
0000
0000
0000
0000
0010
0000
0001
0010
0000
0000
0100
0000
0000
0000
1000
,
0100
0000
0000
0000
0000
0000
0010
0001
0010
0000
0000
0000
0000
0000
0100
0000
1000
0000
0000
0000
0000
0000
0000
0000
1001
0000
0100
0010
0001
0000
1100
0000
,
0001
0010
0100
0000
1001
0100
0010
0001
1100
0000
0000
0000
0101
0000
1000
0000
0100
0000
0010
0000
2001
3000
0200
0300
0020
0030
0000
0000
1010
0000
0100
0000
,
0010
0000
0001
0000
1200
0300
0020
0030
0002
0003
0020
0030
0201
0300
0020
0030
0200
0300
0020
0030
2001
3000
0000
0000
0100
0000
0100
0000
0011
0000
1000
0000
,
0000
0000
1000
0000
0201
0300
2000
3000
0200
0300
0000
0000
0201
0300
0200
0300
0000
0000
2000
3000
0110
0000
0002
0003
0000
0000
0020
0030
1001
0000
0200
0300
,
0000
0000
1000
0000
0120
0030
0000
0000
2000
0000
0010
0000
0020
0030
0100
0000
0001
0000
0010
0000
0200
0300
0001
0000
0000
0000
0001
0000
0020
0030
0100
0000
,
0010
0000
0001
0000
0020
0030
3000
0000
1000
0000
0100
0000
0101
0000
1000
0000
0010
0000
0100
0000
1001
0000
0010
0000
0000
0000
0010
0000
1001
0000
0100
0000
,
0010
0001
0110
0000
1000
0100
0101
1000
0010
0100
1010
0001
0000
0001
1010
0100
,
1000
0100
0011
0000
1000
0100
0110
1000
0010
0100
1001
0010
0000
0010
1001
0100
,
0010
0001
0110
0000
1000
0100
0101
1000
0010
0100
1010
0001
0000
0001
1010
0100
,
1000
0100
0011
0000
1000
0100
0110
1000
0010
0100
1001
0010
0000
0010
1001
0100
,
1010
0000
0000
0000
0000
0000
0000
0000
0000
0000
0000
0000
0001
0000
0000
0000
0000
0000
0000
0000
0000
0000
0000
0000
0110
0000
0000
0000
0000
0000
0000
0000
0000
0000
0000
0000
0110
0000
0000
0000
0000
0000
0000
0000
0000
0000
0000
0000
1001
0000
0000
0000
0000
0000
0000
0000
0000
0000
0000
0000
0010
0000
0000
0000
0000
0000
0000
0000
0000
0000
0000
0000
1100
0000
0000
0000
0000
0000
0000
0000
0000
0000
0000
0000
0010
0000
0000
0000
0000
0000
0000
0000
0000
0000
0000
0000
0001
0000
0000
0000
0000
0000
0000
0000
0000
0000
0000
0000
0010
0000
0000
0000
0000
0000
0000
0000
0000
0000
0000
0000
1200
0000
0000
0000
0000
0000
0300
0000
0000
0000
0000
0000
0020
0000
0000
0000
0000
0000
0030
0000
0000
0000
0000
0000
0002
0000
0000
0000
0000
0000
0003
0000
0000
0000
0000
0000
0100
0000
0000
0000
0020
0000
0000
0000
0030
0000
0000
0000
1001
0000
0000
0000
0000
0000
0000
0000
0200
0000
0000
0000
0310
0000
0000
0000
0000
0000
0000
0000
0000
0000
0000
0000
,
2000
0000
0000
0000
3000
0000
0000
0000
0000
0000
0000
0000
0010
0000
0000
0000
0200
0000
0000
0000
0300
0000
0000
0000
1010
0000
0000
0000
0000
0000
0000
0000
0002
0000
0000
0000
0103
0000
0000
0000
0000
0000
0000
0000
0000
0000
0000
0000
0020
0000
0000
0000
0030
0000
0000
0000
0000
0000
0000
0000
0100
0000
0000
0000
0000
0000
0000
0000
0000
0000
0000
0000
0011
0000
0000
0000
0000
0000
0000
0000
0000
0000
0000
0000
2000
0000
0000
0000
0000
0000
3000
0000
0000
0000
0000
0000
0100
0000
0000
0000
0000
0000
0000
0000
0000
0000
0000
0000
1000
0000
0000
0000
0000
0000
0000
0000
0000
0000
0000
0000
0021
0000
0000
0000
0000
0000
0030
0000
0000
0000
0000
0000
0100
0000
0000
0000
0000
0000
0000
0000
0000
0000
0000
0000
0001
0000
0000
0000
0000
0000
0000
0000
0000
0000
0000
0000
2000
0000
0000
0000
0000
0000
3000
0000
0000
0000
0000
0000
0101
0000
0000
0000
0000
0000
0000
0000
0000
0000
0000
0000
1000
0000
0000
0000
0000
0000
0000
0000
0000
0000
0000
0000
,
0020
0030
0100
0000
2001
3000
0010
0000
0200
0300
0010
0000
0101
0000
1000
0000
0100
0000
0020
0030
1100
0000
0002
0003
0020
0030
0100
0000
0011
0000
0100
0000
,
0010
0000
2000
3000
0101
0000
0010
0000
0200
0300
1000
0000
0011
0000
0100
0000
1000
0000
0100
0000
1001
0000
0010
0000
0100
0000
1000
0000
0110
0000
0001
0000
,
0010
0000
0100
0000
1010
0000
0001
0000
0020
0030
1000
0000
0011
0000
0200
0300
0010
0000
0100
0000
2001
3000
0100
0000
0020
0030
0100
0000
0011
0000
2000
3000
,
0100
0000
0010
0000
0201
0300
1000
0000
0020
0030
0100
0000
1010
0000
0002
0003
0100
0000
0010
0000
2100
3000
0001
0000
0010
0000
0100
0000
1010
0000
0100
0000
,
0002
0003
0100
0000
0021
0030
1000
0000
0200
0300
0010
0000
0101
0000
2000
3000
0100
0000
0010
0000
0102
0003
0010
0000
1000
0000
0200
0300
0011
0000
0100
0000
,
0020
0030
1000
0000
0102
0003
0010
0000
1002
0003
0020
0030
0200
0300
1002
0003
0020
0030
0200
0300
2010
3000
0000
0000
0100
0000
0100
0000
0000
0000
0100
0000
,
0011
0000
0000
0000
0100
0000
1001
0000
1002
0003
0020
0030
0200
0300
0021
0030
0200
0300
2000
3000
0201
0300
1000
0000
1000
0000
0000
0000
1000
0000
0000
0000
,
0110
0000
1000
0000
0000
0000
1001
0000
1002
0003
0020
0030
0200
0300
0002
0003
0020
0030
0200
0300
2001
3000
0100
0000
0100
0000
0000
0000
0100
0000
0000
0000
,
0011
0000
0100
0000
0000
0000
1001
0000
1002
0003
0020
0030
0200
0300
0020
0030
0200
0300
2000
3000
0222
0000
0000
0000
0000
0000
0000
0000
0000
0000
0000
0000
,
0000
0000
0000
0000
0000
0000
0000
0000
0000
0000
0000
0333
0000
0000
0000
0000
0000
0000
0000
0000
0000
0000
0000
0000
0000
0000
0000
0000
0000
0000
0000
0000
0000
0000
0000
0000
0000
0000
0000
0000
0000
0000
0000
0000
0000
0000
0000
0000
;
